#VERSION:0.83;
#TITLE:1516;
#SUBTITLE:;
#ARTIST:saaa;
#TITLETRANSLIT:;
#SUBTITLETRANSLIT:;
#ARTISTTRANSLIT:;
#GENRE:ESOTERIC BEATS;
#ORIGIN:BOFXVI -NEO DYSTOPIA- (Team "ウオウオ");
#TAGS:;
#CREDIT:;
#BANNER:1516.png;
#BACKGROUND:1516-bg.png;
#PREVIEWVID:;
#JACKET:1516-jacket.png;
#CDIMAGE:;
#DISCIMAGE:;
#LYRICSPATH:;
#CDTITLE:../_YSD cdtitles/ysd cdtitle.png;
#MUSIC:1516.ogg;
#OFFSET:0.000000;
#SAMPLESTART:69.359001;
#SAMPLELENGTH:26.792999;
#SELECTABLE:YES;
#BPMS:0.000000=138.000000
;
#STOPS:252.229172=0.108696
;
#DELAYS:;
#WARPS:189.708328=0.291667
,220.416672=0.583333
;
#TIMESIGNATURES:0.000000=4=4
,20.000000=3=5
,125.000000=4=4
,141.000000=1=8
,143.000000=1=3
,144.500000=1=8
,146.500000=1=3
,148.000000=1=2
,153.000000=1=3
,153.375000=1=2
,153.750000=1=1
,154.000000=1=2
,154.375000=1=3
,154.750000=1=1
,155.166672=1=2
,155.333328=1=3
,155.500000=1=4
,155.666672=1=6
,155.833328=1=7
,156.000000=1=1
,156.125000=1=2
,156.250000=1=3
,156.375000=1=4
,156.500000=1=5
,156.625000=1=6
,156.750000=1=7
,156.875000=1=8
,157.000000=1=9
,157.125000=1=10
,157.250000=1=11
,157.375000=1=12
,157.500000=1=13
,157.625000=1=14
,157.750000=1=15
,157.875000=1=16
,158.000000=1=17
,158.125000=1=18
,158.250000=1=2
,159.250000=1=3
,159.500000=3=5
,185.750000=1=17
,190.000000=1=14
,193.333328=1=15
,196.666672=1=16
,200.000000=1=17
,203.333328=1=3
,204.000000=1=4
,204.666672=1=5
,205.333328=1=6
,206.000000=1=7
,206.666672=1=3
,207.333328=1=4
,208.000000=1=5
,208.666672=1=6
,209.333328=1=7
,210.000000=1=3
,210.666672=1=4
,211.333328=1=5
,212.000000=1=6
,212.666672=1=7
,213.333328=1=2
,213.666672=1=3
,214.000000=1=4
,214.333328=1=5
,214.666672=1=6
,215.000000=1=7
,215.333328=1=2
,215.750000=1=3
,216.166672=1=4
,216.583328=1=5
,217.000000=1=6
,217.416672=1=1
,217.583328=1=2
,217.750000=1=3
,217.916672=1=4
,218.083328=1=5
,218.250000=1=6
,218.416672=1=7
,218.583328=1=8
,218.750000=1=9
,218.916672=1=10
,219.083328=1=11
,219.250000=1=12
,219.416672=1=13
,219.583328=1=14
,219.750000=1=15
,219.916672=1=16
,220.083328=1=17
,220.250000=1=18
,221.000000=1=1
,222.000000=3=5
,244.500000=1=2
,248.250000=1=1
,252.229172=1=2
,252.312500=1=3
,252.395828=1=4
,252.479172=1=5
,252.562500=1=6
,252.645828=1=7
,252.729172=1=8
,252.812500=1=9
,252.895828=4=4
;
#TICKCOUNTS:0.000000=4
;
#COMBOS:0.000000=1
;
#SPEEDS:0.000000=1.000000=0.000000=0
;
#SCROLLS:0.000000=1.000000
,189.708328=0.000000
,190.000000=1.000000
,220.416672=0.000000
,221.000000=1.000000
;
#FAKES:;
#LABELS:0.000000=Song Start
;
#BGCHANGES:0.000=1516.avi=1.000=1=0=0=StretchNoLoop==CrossFade==,
99999=-nosongbg-=1.000=0=0=0 // don't automatically add -songbackground-
;
#KEYSOUNDS:;
#ATTACKS:
;
#LASTSECONDHINT:112.000000;

//---------------dance-single - ----------------
#NOTEDATA:;
#CHARTNAME:;
#CHARTHASH:76928822;
#STEPSTYPE:dance-single;
#BANNER:;
#DESCRIPTION:;
#CHARTSTYLE:;
#DIFFICULTY:Beginner;
#METER:3;
#METERF:0.000000;
#RADARVALUES:0.107514,0.218155,0.181661,0.008651,0.134083,87.000000,66.000000,21.000000,1.000000,0.000000,0.000000,0.000000,0.000000,0.000000,0.107514,0.218155,0.181661,0.008651,0.134083,87.000000,66.000000,21.000000,1.000000,0.000000,0.000000,0.000000,0.000000,0.000000;
#CREDIT:YOSEFU;
#NOTES:
0000
0000
0000
0000
,
0000
0000
0000
0000
,
0000
0000
0000
0000
,
0000
0000
0000
0000
,
0000
0000
0000
0000
,
1000
0000
0000
0000
0000
0000
0000
0000
0000
0000
0000
0000
0000
0000
0000
0001
,
0000
0000
0000
0000
0000
0000
0000
0100
,
0000
0000
0000
0000
0000
0000
0000
0000
0000
0000
0000
0000
0000
0010
0000
0000
,
0000
0000
0000
1001
,
0000
0000
0000
0000
0000
0000
0000
0000
0000
0000
0000
1000
0000
0000
0000
0000
,
0000
0000
0000
0000
0000
0100
0000
0000
,
0000
0000
0000
0000
0000
0000
0000
0000
0000
0010
0000
0000
0000
0000
0000
0000
,
0000
0000
1001
0000
,
0000
0000
0000
0000
0000
0000
0000
1000
0000
0000
0000
0000
0000
0000
0000
0000
,
0000
0000
0000
0010
0000
0000
0000
0000
,
0000
0000
0000
0000
0000
0100
0000
0000
0000
0000
0000
0000
0000
0000
0000
0000
,
0000
0110
0000
0000
,
0000
0000
0000
0010
0000
0000
0000
0000
0000
0000
0000
0000
0000
0000
0000
0000
,
0000
1000
0000
0000
0000
0000
0000
0000
,
0000
0001
0000
0000
0000
0000
0000
0000
0000
0000
0000
0000
0000
0000
0000
0000
,
1001
0000
0000
0000
0000
0000
0000
0000
0000
0000
0000
0000
0000
0000
0000
1000
,
0000
0000
0000
0000
0000
0000
0000
0100
,
0000
0000
0000
0000
0000
0000
0000
0000
0000
0000
0000
0000
0000
0010
0000
0000
,
0000
0000
0000
0110
,
0000
0000
0000
0000
0000
0000
0000
0000
0000
0000
0000
0001
0000
0000
0000
0000
,
0000
0000
0000
0000
0000
1000
0000
0000
,
0000
0000
0000
0000
0000
0000
0000
0000
0000
0001
0000
0000
0000
0000
0000
0000
,
0000
0000
1001
0000
,
0000
0000
0000
0000
0000
0000
0000
1000
0000
0000
0000
0000
0000
0000
0000
0000
,
0000
0000
0000
0010
0000
0000
0000
0000
,
0000
0000
0000
0000
0000
0100
0000
0000
0000
0000
0000
0000
0000
0000
0000
0000
,
0000
0110
0000
0000
,
0000
0001
0000
0000
,
0000
1001
0000
0000
,
0000
1000
0000
0000
,
0000
1001
0000
0000
,
0000
0110
0000
0000
0000
0000
0000
0000
,
1001
0000
0000
0000
0000
0110
0000
0000
,
0000
1001
0000
0100
,
0200
0000
0000
0000
0000
0000
0000
0000
0000
0300
0000
0000
0000
0000
0110
0000
,
0000
0000
0000
0000
0000
0000
0000
0000
0000
0000
0000
0000
0000
1000
0000
0000
,
0000
0000
0000
0001
,
0000
0000
0000
0000
0000
0000
0000
0000
0000
0000
0000
0100
0000
0000
0000
0000
,
0000
0000
0000
0000
0000
0110
0000
0000
,
0000
0000
0000
0000
0000
0000
0000
0000
0000
0010
0000
0000
0000
0000
0000
0000
,
0000
0000
1000
0000
,
0000
0000
0000
0000
0000
0000
0000
0001
0000
0000
0000
0000
0000
0000
0000
0000
,
0000
0000
1001
0000
,
0000
0000
0000
0000
0001
0000
0000
0000
0000
0000
0000
0000
,
0000
0000
1000
0000
0000
0000
0000
0000
0000
0000
0000
0000
,
0001
0000
0000
0000
0000
0000
0000
0000
0000
0000
0110
0000
,
0000
0000
0000
0000
0000
0000
0000
0000
0100
0000
0000
0000
,
0000
0000
1000
0000
,
0000
0000
0000
0000
0010
0000
0000
0000
0000
0000
0100
0000
,
0000
0000
0000
0000
0000
0000
0000
0000
0000
0000
0000
0000
0000
0000
0000
0000
0000
0110
0000
0000
0000
0000
0000
0000
0000
0000
0000
0000
0000
0000
0000
0000
0000
0000
0000
0000
0000
0000
0000
0000
0000
0000
0000
0000
0000
0000
0000
0000
,
0000
0000
1001
0000
,
0000
0000
0000
0000
0000
0000
0000
1000
0000
0000
0000
0000
0000
0000
0000
0000
,
0000
0000
0000
0100
0000
0000
0000
0000
,
0000
0000
0000
0000
0000
0010
0000
0000
0000
0000
0000
0000
0000
0000
0000
0000
,
0000
0110
0000
0000
,
0000
0000
0000
0001
0000
0000
0000
0000
0000
0000
0000
0000
0000
0000
0000
0000
,
0000
0100
0000
0000
0000
0000
0000
0000
,
0000
0010
0000
0000
0000
0000
0000
0000
0000
0000
0000
0000
0000
0000
0000
0000
,
0000
0000
0000
1001
0000
0000
0000
0000
0000
0000
0000
0000
0000
0000
0000
0000
0000
0000
0000
0000
0000
0000
0000
0000
0000
0000
0000
0000
0000
0000
0000
0000
0000
0000
0000
0000
0000
0000
0000
0000
0000
0000
0000
0000
0000
0000
0000
0000
0000
0000
0000
0000
0000
0000
0000
0000
0000
0000
0000
0000
0000
0000
0000
0000
;

//---------------dance-single - ----------------
#NOTEDATA:;
#CHARTNAME:not entirely 15.16 (smh my head);
#CHARTHASH:848321657;
#STEPSTYPE:dance-single;
#BANNER:;
#DESCRIPTION:;
#CHARTSTYLE:;
#DIFFICULTY:Challenge;
#METER:17;
#METERF:17.000000;
#RADARVALUES:0.826742,1.009968,0.346021,0.051903,1.509516,669.000000,629.000000,40.000000,6.000000,0.000000,0.000000,0.000000,0.000000,0.000000,0.826742,1.009968,0.346021,0.051903,1.509516,669.000000,629.000000,40.000000,6.000000,0.000000,0.000000,0.000000,0.000000,0.000000;
#CREDIT:YOSEFU;
#NOTES:
0000
0000
0000
0000
,
0000
0000
0000
0000
,
0000
0000
0000
0000
,
0000
0000
0000
0000
,
0000
0000
0000
0000
,
1000
0001
0010
0000
0110
0000
0000
1100
0000
0000
1001
0000
0000
0001
0100
0010
,
0100
0001
0000
1001
0000
0000
1100
0000
0000
0110
0000
0000
0010
0001
1000
0010
,
0100
0000
0110
0000
0000
0101
0000
0000
1001
0000
0000
1000
0100
0010
0100
1000
,
0000
1100
0000
0000
1001
0000
0000
0011
0000
0001
1000
0000
1010
0000
0010
0100
,
0001
0000
1000
0100
0000
1000
0001
0000
0010
0001
0000
1000
0000
0010
0100
0001
,
0000
1000
0100
0000
1000
0010
0000
0100
0001
0000
0010
0000
0001
1000
0010
0000
,
0100
0001
0000
1000
0100
0000
0010
0001
0000
1000
0000
0010
0100
0001
0000
1000
,
0100
0000
1000
0010
0000
0100
0001
0000
0010
0000
0100
1000
0001
0000
0100
0010
,
0000
1000
0010
0000
0100
0001
0000
1000
0000
0100
0010
0001
0000
1000
0010
0000
,
0100
0001
0000
0010
0100
0000
1000
0000
0001
0100
0010
0000
1000
0001
0000
0010
,
0100
0000
1000
0001
0000
0100
0000
0010
1000
0001
0000
0010
0100
0000
1000
0010
,
0000
0001
0010
1000
0001
0000
0100
0100
0000
0001
0000
1000
0000
0100
0000
0010
,
0010
0001
0000
1000
0000
0010
0010
0000
0100
0000
1000
0000
0100
0010
1000
0001
,
0010
0100
1000
0000
0001
0100
0000
0010
0000
1010
0000
1000
0100
0010
1000
0010
,
0000
0001
0000
1000
0100
0000
0010
0000
0011
0000
0001
1000
0010
0001
0010
0100
,
0001
0000
0100
0100
0000
0010
0000
0001
0000
0010
0000
1000
1000
0001
0000
0010
,
0000
0100
0100
0000
0001
0000
0100
0000
1000
0001
0100
0010
1000
0001
0010
0000
,
0100
1000
0000
0001
0000
0101
0000
0100
0010
0001
0010
1000
0000
0001
0000
0010
,
0100
0000
1000
0000
1010
0000
0010
0001
0010
1000
0001
0010
0200
0000
0000
0000
,
1000
0000
0000
0010
0000
0000
0010
0000
0000
0001
0000
0010
0000
0000
0000
1000
,
0000
0000
0010
0000
0000
0010
0000
0000
0001
0000
0010
0000
0000
0000
1000
0000
,
0000
0010
0000
0000
0010
0000
0000
0001
0000
0010
0000
0000
0000
1000
0000
0000
,
0010
0000
0000
0001
0000
0000
0010
0000
2300
0000
0000
0000
0100
0000
0000
0001
,
0000
0000
0010
0000
0000
0001
0000
0100
0000
0000
0000
0010
0000
0000
0001
0000
,
0000
0100
0000
0000
0001
0000
0010
0000
0000
0000
0100
0000
0000
0010
0000
0000
,
0001
0000
0000
0100
0000
0001
0000
0000
0000
0010
0000
0000
0100
0000
0000
0001
,
0000
0000
0100
0000
3001
1000
0010
0100
0000
0001
0010
0100
1000
0001
0100
0010
,
0100
1000
0000
0100
0010
0000
1000
1000
0000
0100
0000
0010
0000
1000
0000
0010
,
0010
0001
0000
0100
0001
1000
0100
1000
0001
0100
0001
1000
0010
0100
1000
0100
,
0001
1000
1000
0001
0100
0000
0010
0010
0000
0001
0000
0010
0000
1000
0100
1000
,
0001
0100
0000
0000
0010
1000
0001
0010
0000
0100
1000
0010
0000
0100
0001
0000
,
1000
0100
0010
0001
1000
0010
0000
0100
0001
0010
0000
0100
1000
0000
0001
0100
,
0010
1000
0100
0010
0000
1000
0010
0000
0001
1000
0010
0100
0001
1000
0000
0100
,
0010
0000
0000
0000
0000
0000
0000
0000
0000
0000
0000
0000
1000
0000
0000
0000
0000
0000
0010
0000
0000
0000
0000
0000
0001
0000
0000
0000
0000
0000
0000
0000
0000
1000
0000
0000
0000
0000
0000
0000
0000
0000
0010
0000
0000
0000
0000
0000
1010
0000
0000
0000
0000
0000
0000
0000
0000
1000
0000
0000
0000
0000
0000
0000
0000
0000
0001
0000
0000
0000
0000
0000
1000
0000
0000
0000
0100
0000
0000
0000
0010
0000
0000
0000
0001
0000
0000
0000
1000
0000
0000
0000
0010
0000
0000
0000
,
0200
0000
0000
0000
0000
0000
0000
0000
0000
0310
0000
1010
0000
1000
0100
0010
,
0001
1000
0010
0000
0100
0001
0000
1000
0100
0000
0010
0001
1000
0010
0100
0001
,
1000
0100
0000
0010
0100
0000
1000
0001
0000
0100
0010
0100
0001
1000
0100
0010
,
0001
0000
1000
0010
0000
0100
0010
0000
1000
0001
0010
0100
1000
0001
0100
0010
,
1000
0100
0010
0000
0001
0100
0000
1000
0100
0001
1000
0100
0010
0001
0100
0000
,
0010
1000
0000
0001
0010
0000
0100
0010
0001
1000
0100
1000
0010
0100
0000
0001
,
1000
0000
0100
0010
0000
0100
1000
0001
0100
0010
1000
0001
0010
0000
0100
0001
,
0000
0000
0000
0100
0000
0000
1000
0000
0000
0000
0000
0000
0001
0000
0000
0100
0000
0000
0010
0000
0000
1000
0000
0000
0000
0000
0000
0000
0000
0100
0000
0000
0000
0000
0000
0000
0000
0010
0000
0000
0000
0000
0000
0000
0000
0001
0000
0000
,
0000
0100
0000
0000
0000
0010
0000
0000
0000
1000
0000
0000
0000
0001
0000
0000
0000
0010
0000
0000
0000
0000
0000
0000
0001
0000
0000
0000
0100
0000
0000
0000
0001
0000
0000
0000
1000
0000
0000
0000
0100
0000
0000
0000
1000
0000
0000
0000
,
0001
0100
0001
1000
0100
0010
0001
1000
0010
0000
0100
0000
0001
0000
1000
0000
0100
0000
0010
0000
0100
1000
0001
0100
,
0010
0100
0001
1000
0100
0000
0010
0000
0001
0000
1000
0000
0010
0000
0100
0000
0010
1000
0001
0010
0100
0010
0001
1000
,
0010
0000
0100
0000
0001
0000
0010
0000
0100
0000
1000
0000
0001
0100
0010
1000
0100
0010
0001
1000
0010
0000
0100
0000
,
1000
0000
0100
0000
0010
0000
1000
0000
0001
0010
0100
0010
0001
1000
0010
0100
0001
0000
0010
0000
0100
0000
0001
0000
,
0100
0000
0010
0000
0001
1000
0010
0100
0001
1000
0100
0010
0001
0000
0100
0000
0010
0000
0001
0000
0010
0000
1000
0000
,
0001
0000
0010
0000
0100
0000
0010
0000
0001
0000
1000
0000
0100
0000
1000
0000
0001
0000
0000
0000
0100
0000
0000
0000
1000
0000
0000
0000
0100
0000
0000
0000
0010
0000
0000
0000
1000
0000
0000
0000
1010
0000
0000
0000
0000
0110
0000
0000
,
0000
0000
0101
0000
0000
0000
0000
0011
0000
0000
0000
0000
0110
0000
0000
0000
0000
2100
0000
0000
0000
0000
0000
0000
0000
0000
0000
0000
0000
0000
0000
0000
0000
0000
0000
0000
0000
0000
0000
0000
0000
0000
0000
0000
0000
0000
0000
0000
,
0000
0000
0000
0000
3002
0000
0003
0000
1000
0001
0100
0000
0101
0000
0000
1001
,
0000
0000
1100
0000
0000
0100
0010
0100
1000
0001
0000
0101
0000
0000
0110
0000
,
0000
1010
0000
0000
1000
0010
1000
0100
0010
0000
0011
0000
0000
1001
0000
0000
,
1010
0000
0000
0010
1000
0100
0010
0001
0000
0101
0000
0000
0110
0000
0000
1010
,
0000
0000
1000
0100
0010
0001
0100
0000
0101
0000
0000
1010
0000
0000
1100
0000
,
0000
0100
0010
0001
0100
0001
0000
1000
0010
0100
0001
0010
0100
1000
0001
0100
,
0010
0100
0001
0010
0100
0010
0001
0100
0010
1000
0100
0010
0100
1000
0001
0100
,
0010
1000
0001
0010
1000
0010
0100
1000
0001
0100
1000
0001
0010
1000
0001
0010
,
0000
0000
0000
0200
0000
0000
0000
0300
0000
0000
0000
0000
0000
0000
0000
0000
0000
0000
0000
0000
0000
0000
0000
0000
0000
0000
0000
0000
0000
0000
0000
0000
0000
0000
0000
0000
0000
0000
0000
0000
0000
0000
0000
0000
0000
0000
0000
0000
0000
0000
0000
0000
0000
0000
0000
0000
0000
0000
0000
0000
0000
0000
0000
0000
;

//---------------dance-double - ----------------
#NOTEDATA:;
#CHARTNAME:;
#CHARTHASH:2027852426;
#STEPSTYPE:dance-double;
#BANNER:;
#DESCRIPTION:;
#CHARTSTYLE:;
#DIFFICULTY:Beginner;
#METER:3;
#METERF:0.000000;
#RADARVALUES:0.107514,0.218155,0.190311,0.017301,0.138408,87.000000,65.000000,22.000000,2.000000,0.000000,0.000000,0.000000,0.000000,0.000000,0.107514,0.218155,0.190311,0.017301,0.138408,87.000000,65.000000,22.000000,2.000000,0.000000,0.000000,0.000000,0.000000,0.000000;
#CREDIT:YOSEFU;
#NOTES:
00000000
00000000
00000000
00000000
,
00000000
00000000
00000000
00000000
,
00000000
00000000
00000000
00000000
,
00000000
00000000
00000000
00000000
,
00000000
00000000
00000000
00000000
,
00010000
00000000
00000000
00000000
00000000
00000000
00000000
00000000
00000000
00000000
00000000
00000000
00000000
00000000
00000000
00001000
,
00000000
00000000
00000000
00000000
00000000
00000000
00000000
01000000
,
00000000
00000000
00000000
00000000
00000000
00000000
00000000
00000000
00000000
00000000
00000000
00000000
00000000
00100000
00000000
00000000
,
00000000
00000000
00000000
10010000
,
00000000
00000000
00000000
00000000
00000000
00000000
00000000
00000000
00000000
00000000
00000000
10000000
00000000
00000000
00000000
00000000
,
00000000
00000000
00000000
00000000
00000000
01000000
00000000
00000000
,
00000000
00000000
00000000
00000000
00000000
00000000
00000000
00000000
00000000
00100000
00000000
00000000
00000000
00000000
00000000
00000000
,
00000000
00000000
01100000
00000000
,
00000000
00000000
00000000
00000000
00000000
00000000
00000000
01000000
00000000
00000000
00000000
00000000
00000000
00000000
00000000
00000000
,
00000000
00000000
00000000
00100000
00000000
00000000
00000000
00000000
,
00000000
00000000
00000000
00000000
00000000
00001000
00000000
00000000
00000000
00000000
00000000
00000000
00000000
00000000
00000000
00000000
,
00000000
00011000
00000000
00000000
,
00000000
00000000
00000000
00010000
00000000
00000000
00000000
00000000
00000000
00000000
00000000
00000000
00000000
00000000
00000000
00000000
,
00000000
00000010
00000000
00000000
00000000
00000000
00000000
00000000
,
00000000
00000100
00000000
00000000
00000000
00000000
00000000
00000000
00000000
00000000
00000000
00000000
00000000
00000000
00000000
00000000
,
00000110
00000000
00000000
00000000
00000000
00000000
00000000
00000000
00000000
00000000
00000000
00000000
00000000
00000000
00000000
00000001
,
00000000
00000000
00000000
00000000
00000000
00000000
00000000
00001000
,
00000000
00000000
00000000
00000000
00000000
00000000
00000000
00000000
00000000
00000000
00000000
00000000
00000000
00000100
00000000
00000000
,
00000000
00000000
00000000
00000110
,
00000000
00000000
00000000
00000000
00000000
00000000
00000000
00000000
00000000
00000000
00000000
00000001
00000000
00000000
00000000
00000000
,
00000000
00000000
00000000
00000000
00000000
00000100
00000000
00000000
,
00000000
00000000
00000000
00000000
00000000
00000000
00000000
00000000
00000000
00000010
00000000
00000000
00000000
00000000
00000000
00000000
,
00000000
00000000
00000110
00000000
,
00000000
00000000
00000000
00000000
00000000
00000000
00000000
00000100
00000000
00000000
00000000
00000000
00000000
00000000
00000000
00000000
,
00000000
00000000
00000000
00000010
00000000
00000000
00000000
00000000
,
00000000
00000000
00000000
00000000
00000000
00010000
00000000
00000000
00000000
00000000
00000000
00000000
00000000
00000000
00000000
00000000
,
00000000
00011000
00000000
00000000
,
00000000
00010000
00000000
00000000
,
00000000
00011000
00000000
00000000
,
00000000
00001000
00000000
00000000
,
00000000
00011000
00000000
00000000
,
00000000
01100000
00000000
00000000
00000000
00000000
00000000
00000000
,
10010000
00000000
00000000
00000000
00000000
01100000
00000000
00000000
,
00000000
10010000
00000000
00000000
,
02200000
00000000
00000000
00000000
00000000
00000000
00000000
00000000
00000000
00300000
00000000
03000000
00000000
00000000
10010000
00000000
,
00000000
00000000
00000000
00000000
00000000
00000000
00000000
00000000
00000000
00000000
00000000
00000000
00000000
00010000
00000000
00000000
,
00000000
00000000
00000000
01000000
,
00000000
00000000
00000000
00000000
00000000
00000000
00000000
00000000
00000000
00000000
00000000
00001000
00000000
00000000
00000000
00000000
,
00000000
00000000
00000000
00000000
00000000
00011000
00000000
00000000
,
00000000
00000000
00000000
00000000
00000000
00000000
00000000
00000000
00000000
00010000
00000000
00000000
00000000
00000000
00000000
00000000
,
00000000
00000000
00000100
00000000
,
00000000
00000000
00000000
00000000
00000000
00000000
00000000
00000010
00000000
00000000
00000000
00000000
00000000
00000000
00000000
00000000
,
00000000
00000000
00001001
00000000
,
00000000
00000000
00000000
00000000
00000001
00000000
00000000
00000000
00000000
00000000
00000000
00000000
,
00000000
00000000
00000100
00000000
00000000
00000000
00000000
00000000
00000000
00000000
00000000
00000000
,
00000010
00000000
00000000
00000000
00000000
00000000
00000000
00000000
00000000
00000000
00000110
00000000
,
00000000
00000000
00000000
00000000
00000000
00000000
00000000
00000000
00001000
00000000
00000000
00000000
,
00000000
00000000
00000010
00000000
,
00000000
00000000
00000000
00000000
00010000
00000000
00000000
00000000
00000000
00000000
00001000
00000000
,
00000000
00000000
00000000
00000000
00000000
00000000
00000000
00000000
00000000
00000000
00000000
00000000
00000000
00000000
00000000
00000000
00000000
00011000
00000000
00000000
00000000
00000000
00000000
00000000
00000000
00000000
00000000
00000000
00000000
00000000
00000000
00000000
00000000
00000000
00000000
00000000
00000000
00000000
00000000
00000000
00000000
00000000
00000000
00000000
00000000
00000000
00000000
00000000
,
00000000
00000000
00011000
00000000
,
00000000
00000000
00000000
00000000
00000000
00000000
00000000
00001000
00000000
00000000
00000000
00000000
00000000
00000000
00000000
00000000
,
00000000
00000000
00000000
00100000
00000000
00000000
00000000
00000000
,
00000000
00000000
00000000
00000000
00000000
00010000
00000000
00000000
00000000
00000000
00000000
00000000
00000000
00000000
00000000
00000000
,
00000000
10010000
00000000
00000000
,
00000000
00000000
00000000
10000000
00000000
00000000
00000000
00000000
00000000
00000000
00000000
00000000
00000000
00000000
00000000
00000000
,
00000000
00100000
00000000
00000000
00000000
00000000
00000000
00000000
,
00000000
01000000
00000000
00000000
00000000
00000000
00000000
00000000
00000000
00000000
00000000
00000000
00000000
00000000
00000000
00000000
,
00000000
00000000
00000000
01100000
00000000
00000000
00000000
00000000
00000000
00000000
00000000
00000000
00000000
00000000
00000000
00000000
00000000
00000000
00000000
00000000
00000000
00000000
00000000
00000000
00000000
00000000
00000000
00000000
00000000
00000000
00000000
00000000
00000000
00000000
00000000
00000000
00000000
00000000
00000000
00000000
00000000
00000000
00000000
00000000
00000000
00000000
00000000
00000000
00000000
00000000
00000000
00000000
00000000
00000000
00000000
00000000
00000000
00000000
00000000
00000000
00000000
00000000
00000000
00000000
;

//---------------dance-double - ----------------
#NOTEDATA:;
#CHARTNAME:;
#CHARTHASH:578554178;
#STEPSTYPE:dance-double;
#BANNER:;
#DESCRIPTION:;
#CHARTSTYLE:;
#DIFFICULTY:Easy;
#METER:8;
#METERF:0.000000;
#RADARVALUES:0.264459,0.354502,0.060554,0.043253,0.402249,214.000000,207.000000,7.000000,5.000000,0.000000,0.000000,0.000000,0.000000,0.000000,0.264459,0.354502,0.060554,0.043253,0.402249,214.000000,207.000000,7.000000,5.000000,0.000000,0.000000,0.000000,0.000000,0.000000;
#CREDIT:YOSEFU;
#NOTES:
00000000
00000000
00000000
00000000
,
00000000
00000000
00000000
00000000
,
00000000
00000000
00000000
00000000
,
00000000
00000000
00000000
00000000
,
00000000
00000000
00000000
00000000
,
00010000
00000000
00000000
00000000
00000000
00000000
00000000
00001000
00000000
00000000
00000000
00000000
00000000
00000000
00000000
00100000
,
00000000
00000000
00000000
00010000
00000000
00000000
00000000
10000000
,
00000000
00000000
00000000
00000000
00000000
00100000
00000000
00000000
00000000
00000000
00000000
00000000
00000000
01000000
00000000
00000000
,
00000000
00001000
00000000
00011000
,
00000000
00000000
00000000
00010000
00000000
00000000
00000000
00000000
00000000
00000000
00000000
00000100
00000000
00000000
00000000
00000000
,
00000000
00000010
00000000
00000000
00000000
00000001
00000000
00000000
,
00000000
00001000
00000000
00000000
00000000
00000000
00000000
00000000
00000000
00000010
00000000
00000000
00000000
00000000
00000000
00000000
,
00000100
00000000
00000000
00000000
00000000
00000000
00000000
00000000
00000110
00000000
00000000
00000000
00000000
00000000
00000000
00000010
,
00000000
00000000
00000000
00000000
00000000
00000000
00000000
00001000
00000000
00000000
00000000
00000000
00000000
00000000
00000001
00000000
,
00000000
00000000
00000000
00000000
00000000
00000000
00000010
00000000
00000000
00000000
00000000
00000000
00000000
00000100
00000000
00000000
,
00000000
00000000
00000000
00000000
00000000
00010000
00000000
00000000
00000000
00000000
00000000
00000000
00001000
00000000
00000000
00000000
,
00000000
00000000
00000000
00000000
00101000
00000000
00000000
00000000
00000000
00000000
00000000
00100000
00000000
00000000
00000000
00000000
,
00000000
00000000
00000000
00010000
00000000
00000000
00000000
00000000
00000000
00000000
10000000
00000000
00000000
00000000
00000000
00000000
,
00000000
00000000
00100000
00000000
00000000
00000000
00000000
00000000
00000000
01000000
00000000
00000000
00000000
00000000
00000000
00000000
,
00000000
00010000
00000000
00000000
00000000
00000000
00000000
00000000
10000000
00000000
00000000
00000000
00000000
00000000
00000000
00000000
,
10010000
00000000
00000000
00000000
00000000
00000000
00000000
00000000
00010000
00000000
00000000
00000000
00000000
00000000
00000000
00100000
,
00000000
00000000
00000000
00000000
00000000
00000000
00000000
01000000
00000000
00000000
00000000
00000000
00000000
00000000
00100000
00000000
,
00000000
00000000
00000000
00000000
00000000
00001000
00000000
00000000
00000000
00000000
00000000
00000000
00000000
00010000
00000000
00000000
,
00000000
00000010
00000000
00001020
,
00000000
00000000
00000000
00000100
00000000
00000000
00000000
00000000
00000000
00000000
00000000
00010000
00000000
00000000
00000000
00000000
,
00000000
00000100
00000000
00000000
00000000
00001000
00000000
00000000
,
00000000
00000100
00000000
00000000
00000000
00000000
00000000
00000000
00000000
00010000
00000000
00000000
00000000
00000000
00000000
00000000
,
00000100
00000000
00000000
00000000
00000000
00000000
00000000
00000000
00002030
00000000
00000000
00000000
00000000
00000000
00000000
00000001
,
00000000
00000000
00000000
00000000
00000000
00000000
00000000
00000100
00000000
00000000
00000000
00000000
00000000
00000000
00000001
00000000
,
00000000
00000000
00000000
00000000
00000000
00000000
00000010
00000000
00000000
00000000
00000000
00000000
00000000
00000001
00000000
00000000
,
00000000
00000000
00000000
00000000
00000000
00000100
00000000
00000000
00000000
00000000
00000000
00000000
00000001
00000000
00000000
00000000
,
00000000
00000000
00003010
00000100
00000001
00000000
00001000
00000100
,
00000010
00000001
00000100
00000010
,
00010000
00000000
00001000
00100000
01000000
00000000
00100000
00010000
,
10000000
00100000
01000000
00010000
,
10000000
00000000
01000000
00000000
00100000
00000000
00010000
10000000
,
00100000
01000000
00000000
00010000
00000000
01000000
00001000
00010000
,
00000100
00000000
00000010
00001000
00010000
00100000
00000000
01000000
,
00100000
00010000
00001000
00000000
00010000
00000000
00001000
00000010
,
00000200
00000000
00000000
00000000
00000000
00000000
00000000
00000000
00000000
00001300
00000000
00000001
00000000
00000000
00001000
00000000
,
00000000
00000000
00001001
00000000
00000000
00000000
00000000
00000000
00000001
00000000
00000000
00000100
00000000
00000010
00000000
00000000
,
00000000
00000000
00000000
00000000
00010000
00000000
00000000
00001000
00000000
00000000
00100000
00000000
01000000
00000000
00000000
00000000
,
00000000
00000000
00000000
00100000
00000000
00000000
00010000
00000000
00000000
10000000
00000000
00100000
00000000
00000000
00000000
00000000
,
00000000
00000000
01000000
00000000
00000000
10000000
00000000
00000000
01000000
00000000
00010000
00000000
00000000
00000000
00000000
00000000
,
00000000
01000000
00000000
00000000
00001000
00000000
00000000
00010000
00000000
00000100
00000000
00000000
00000000
00000000
00000000
00000000
,
00000010
00000000
00000000
00000001
00000000
00000000
00000100
00000000
00000010
00000000
00000000
00000000
00000000
00000000
00000000
00000001
,
00000000
00000000
00000000
00000000
00000000
00000000
00000010
00000000
00000000
00000000
00000000
00000000
00000000
00000000
00000000
00001000
00000000
00000000
00000000
00000000
00000000
00000010
00000000
00000000
00000000
00000000
00000000
00000000
00000000
00010000
00000000
00000000
00000000
00000000
00000000
00000000
00000000
00001000
00000000
00000000
00000000
00000000
00000000
00000000
00000000
00100000
00000000
00000000
,
00000000
00000000
00000000
00000000
00000000
01000000
00000000
00000000
00000000
00000000
00000000
00000000
00000000
10000000
00000000
00000000
00000000
00000000
00000000
00000000
00000000
00000000
00000000
00000000
00010000
00000000
00000000
00000000
00000000
00000000
00000000
00000000
01000000
00000000
00000000
00000000
00000000
00000000
00000000
00000000
00100000
00000000
00000000
00000000
00000000
00000000
00000000
00000000
,
10000000
00000000
00010000
00000000
01000000
00000000
00001000
00000000
00010000
00000000
00000100
00000000
,
00000010
00000000
00000001
00000000
00001000
00000000
00000010
00000000
00000100
00000000
00000001
00000000
,
00001000
00000000
00000100
00000000
00010000
00000000
00001000
00000000
01000000
00000000
00100000
00000000
,
00100000
00000000
00010000
00000000
00010000
00000000
00100000
00000000
00100000
00000000
10000000
00000000
,
10000000
00000000
01000000
00000000
01000000
00000000
00010000
00000000
00010000
00000000
00001000
00000000
,
00001000
00000000
00000010
00000000
00000010
00000000
00000100
00000000
00001000
00000000
00000001
00000000
,
00000000
00000000
00000100
00000000
00000000
00000000
00000000
00000000
00000000
00000000
00000000
00000000
00000010
00000000
00000000
00000000
00000000
00002000
00000000
00000000
00000000
00000000
00000000
00000000
00000000
00000000
00000000
00000000
00000000
00000000
00000000
00000000
00000000
00000000
00000000
00000000
00000000
00000000
00000000
00000000
00000000
00000000
00000000
00000000
00000000
00000000
00000000
00000000
,
00000000
00000000
00000000
00000000
00003000
00000000
00000000
00000000
00010010
00000000
00000000
00000000
00000000
00000000
00000000
00010000
,
00000000
00000000
00000010
00000000
00000000
00010000
00000000
00001000
00000000
00000000
00000000
00000000
00000000
00000000
00100000
00000000
,
00000000
00010000
00000000
00000000
10000000
00000000
00100000
00000000
00000000
00000000
00000000
00000000
00000000
01000000
00000000
00000000
,
00100000
00000000
00000000
10000000
00000000
01000000
00000000
00000000
00000000
00000000
00000000
00000000
00100000
00000000
00000000
00001000
,
00000000
00000000
00010000
00000000
00000010
00000000
00000000
00000000
00000000
00000000
00000000
00000100
00000000
00000000
00001000
00000000
,
00000000
00010000
00000000
00100000
00000000
00000000
00000000
00000000
00000000
00000000
10000000
00000000
00000000
01000000
00000000
00000000
,
00010000
00000000
00001000
00000000
00000000
00000000
00000000
00000000
00000000
00000100
00000000
00000000
00000001
00000000
00000000
00000010
,
00000000
00002000
00000000
00000000
00000000
00000000
00000000
00000000
00000000
00000000
00000000
00000000
00000000
00000000
00000000
00000000
,
00000000
00000000
00000000
00013000
00000000
00000000
00000000
00000000
00000000
00000000
00000000
00000000
00000000
00000000
00000000
00000000
00000000
00000000
00000000
00000000
00000000
00000000
00000000
00000000
00000000
00000000
00000000
00000000
00000000
00000000
00000000
00000000
00000000
00000000
00000000
00000000
00000000
00000000
00000000
00000000
00000000
00000000
00000000
00000000
00000000
00000000
00000000
00000000
00000000
00000000
00000000
00000000
00000000
00000000
00000000
00000000
00000000
00000000
00000000
00000000
00000000
00000000
00000000
00000000
;

//---------------dance-single - ----------------
#NOTEDATA:;
#CHARTNAME:;
#CHARTHASH:3642619898;
#STEPSTYPE:dance-single;
#BANNER:;
#DESCRIPTION:;
#CHARTSTYLE:;
#DIFFICULTY:Easy;
#METER:8;
#METERF:0.000000;
#RADARVALUES:0.264459,0.381772,0.069204,0.043253,0.419550,214.000000,206.000000,8.000000,5.000000,0.000000,0.000000,0.000000,0.000000,0.000000,0.264459,0.381772,0.069204,0.043253,0.419550,214.000000,206.000000,8.000000,5.000000,0.000000,0.000000,0.000000,0.000000,0.000000;
#CREDIT:YOSEFU;
#NOTES:
0000
0000
0000
0000
,
0000
0000
0000
0000
,
0000
0000
0000
0000
,
0000
0000
0000
0000
,
0000
0000
0000
0000
,
1000
0000
0000
0000
0000
0000
0000
0001
0000
0000
0000
0000
0000
0000
0000
0100
,
0000
0000
0000
0010
0000
0000
0000
1000
,
0000
0000
0000
0000
0000
0001
0000
0000
0000
0000
0000
0000
0000
0010
0000
0000
,
0000
0100
0000
1001
,
0000
0000
0000
0001
0000
0000
0000
0000
0000
0000
0000
0100
0000
0000
0000
0000
,
0000
0010
0000
0000
0000
1000
0000
0000
,
0000
0001
0000
0000
0000
0000
0000
0000
0000
1000
0000
0000
0000
0000
0000
0000
,
0100
0000
0000
0000
0000
0000
0000
0000
0110
0000
0000
0000
0000
0000
0000
0001
,
0000
0000
0000
0000
0000
0000
0000
1000
0000
0000
0000
0000
0000
0000
0010
0000
,
0000
0000
0000
0000
0000
0000
0100
0000
0000
0000
0000
0000
0000
0001
0000
0000
,
0000
0000
0000
0000
0000
0010
0000
0000
0000
0000
0000
0000
0100
0000
0000
0000
,
0000
0000
0000
0000
1100
0000
0000
0000
0000
0000
0000
1000
0000
0000
0000
0000
,
0000
0000
0000
0001
0000
0000
0000
0000
0000
0000
0100
0000
0000
0000
0000
0000
,
0000
0000
0010
0000
0000
0000
0000
0000
0000
1000
0000
0000
0000
0000
0000
0000
,
0000
0001
0000
0000
0000
0000
0000
0000
1000
0000
0000
0000
0000
0000
0000
0000
,
1100
0000
0000
0000
0000
0000
0000
0100
0000
0000
0000
0000
0000
0000
0000
0010
,
0000
0000
0000
0001
0000
0000
0000
1000
,
0000
0000
0000
0000
0000
0010
0000
0000
0000
0000
0000
0000
0000
0100
0000
0000
,
0000
0001
0000
2001
,
0000
0000
0000
0100
0000
0000
0000
0000
0000
0000
0000
0001
0000
0000
0000
0000
,
0000
0010
0000
0000
0000
0001
0000
0000
,
0000
0100
0000
0000
0000
0000
0000
0000
0000
0010
0000
0000
0000
0000
0000
0000
,
0100
0000
0000
0000
0000
0000
0000
0000
3002
0000
0000
0000
0000
0000
0000
0100
,
0000
0000
0000
0000
0000
0000
0000
1000
0000
0000
0000
0000
0000
0000
0010
0000
,
0000
0000
0000
0000
0000
0000
1000
0000
0000
0000
0000
0000
0000
0010
0000
0000
,
0000
0000
0000
0000
0000
0100
0000
0000
0000
0000
0000
0000
1000
0000
0000
0000
,
0000
0000
0013
0001
1000
0000
0010
0100
,
0001
1000
0100
0010
,
0001
0000
1000
0010
0100
0000
0001
1000
,
0100
0010
0001
1000
,
0010
0000
0000
0000
0100
0000
0001
0000
1000
0000
0000
0000
0100
0000
0000
0100
,
0000
0000
0010
0000
0001
0000
1000
0000
0000
0000
0010
0000
0000
0010
0000
0000
,
0100
0000
0000
0001
0000
0000
1000
0000
0000
0000
0100
0000
0000
0010
0000
0000
,
0001
0000
1000
0000
0010
0000
0100
0001
,
2000
0000
0000
0000
0000
0000
0000
0000
0000
3100
0000
0010
0000
0000
0001
0000
,
0000
0000
1001
0000
0000
0000
0000
0000
1000
0000
0000
0010
0000
0100
0000
0000
,
0000
0000
0000
0000
0001
0000
0000
1000
0000
0000
0100
0000
0010
0000
0000
0000
,
0000
0000
0000
0001
0000
0000
1000
0000
0000
0010
0000
0100
0000
0000
0000
0000
,
0000
0000
0001
0000
0000
0010
0000
0000
0100
0000
1100
0000
0000
0000
0000
0000
,
0000
1000
0000
0000
0010
0000
0000
0100
0000
0001
0000
0000
0000
0000
0000
0000
,
0010
0000
0000
0100
0000
0000
1000
0000
0001
0000
0000
0000
0000
0000
0000
0100
,
0000
0000
0000
0000
0000
0000
0010
0000
0000
0000
0000
0000
0000
0000
0000
1000
0000
0000
0000
0000
0000
0100
0000
0000
0000
0000
0000
0000
0000
0010
0000
0000
0000
0000
0000
0000
0000
0001
0000
0000
0000
0000
0000
0000
0000
1000
0000
0000
,
0000
0000
0000
0000
0000
0010
0000
0000
0000
0000
0000
0000
0000
0100
0000
0000
0000
0000
0000
0000
0000
0000
0000
0000
0001
0000
0000
0000
0000
0000
0000
0000
0100
0000
0000
0000
0000
0000
0000
0000
0010
0000
0000
0000
0000
0000
0000
0000
,
1000
0000
0001
0000
0100
0000
0010
0000
1000
0000
0001
0000
,
0100
0000
0001
0000
1000
0000
0100
0000
0010
0000
0001
0000
,
1000
0000
0010
0000
0001
0000
0010
0000
1000
0000
0001
0000
,
0001
0000
0010
0000
0010
0000
0100
0000
0100
0000
1000
0000
,
1000
0000
0010
0000
0010
0000
0001
0000
0001
0000
0010
0000
,
0010
0000
0100
0000
0100
0000
0001
0000
1000
0100
0010
0000
,
0000
0000
0001
0000
0000
0000
0000
0000
0000
0000
0000
0000
1000
0000
0000
0000
0000
0020
0000
0000
0000
0000
0000
0000
0000
0000
0000
0000
0000
0000
0000
0000
0000
0000
0000
0000
0000
0000
0000
0000
0000
0000
0000
0000
0000
0000
0000
0000
,
0000
0000
0000
0000
0030
0000
0000
0000
1001
0000
0000
0000
0000
0000
0000
1000
,
0000
0000
0100
0000
0000
0010
0000
0001
0000
0000
0000
0000
0000
0000
0100
0000
,
0000
0010
0000
0000
1000
0000
0001
0000
0000
0000
0000
0000
0000
1000
0000
0000
,
0100
0000
0000
0010
0000
0001
0000
0000
0000
0000
0000
0000
0100
0000
0000
0010
,
0000
0000
1000
0000
0001
0000
0000
0000
0000
0000
0000
1000
0000
0000
0100
0000
,
0000
0001
0000
0100
0000
0000
0000
0000
0000
0000
1000
0000
0000
0010
0000
0000
,
0001
0000
0010
0000
0000
0000
0000
0000
0000
1000
0000
0000
0001
0000
0000
0010
,
0000
0200
0000
0000
0000
0000
0000
0000
0000
0000
0000
0000
0000
0000
0000
0000
,
0000
0000
0000
0310
0000
0000
0000
0000
0000
0000
0000
0000
0000
0000
0000
0000
0000
0000
0000
0000
0000
0000
0000
0000
0000
0000
0000
0000
0000
0000
0000
0000
0000
0000
0000
0000
0000
0000
0000
0000
0000
0000
0000
0000
0000
0000
0000
0000
0000
0000
0000
0000
0000
0000
0000
0000
0000
0000
0000
0000
0000
0000
0000
0000
;

//---------------dance-single - ----------------
#NOTEDATA:;
#CHARTNAME:;
#CHARTHASH:1832369214;
#STEPSTYPE:dance-single;
#BANNER:;
#DESCRIPTION:;
#CHARTSTYLE:;
#DIFFICULTY:Medium;
#METER:12;
#METERF:0.000000;
#RADARVALUES:0.415225,0.573225,0.000000,0.034602,0.774221,336.000000,336.000000,0.000000,4.000000,0.000000,0.000000,0.000000,0.000000,0.000000,0.415225,0.573225,0.000000,0.034602,0.774221,336.000000,336.000000,0.000000,4.000000,0.000000,0.000000,0.000000,0.000000,0.000000;
#CREDIT:YOSEFU;
#NOTES:
0000
0000
0000
0000
,
0000
0000
0000
0000
,
0000
0000
0000
0000
,
0000
0000
0000
0000
,
0000
0000
0000
0000
,
1000
0000
0000
0000
0001
0000
0000
0100
0000
0000
0010
0000
0000
1000
0000
0001
,
0000
0000
0000
1000
0000
0000
0100
0000
0000
0010
0000
0000
0001
0000
0100
0000
,
0000
0000
0010
0000
0000
1000
0000
0000
0001
0000
0000
0010
0000
0100
0000
0000
,
0000
0001
0000
0000
0100
0000
0000
1000
0000
0000
0001
0000
0100
0000
0000
0000
,
0010
0000
0000
1000
0000
0000
0100
0000
0000
0010
0000
0001
0000
0000
0000
0100
,
0000
0000
0010
0000
0000
1000
0000
0000
0001
0000
0010
0000
0000
0000
0100
0000
,
0000
1000
0000
0000
0010
0000
0000
0100
0000
0001
0000
0000
0000
1000
0000
0000
,
0100
0000
0000
0010
0000
0000
0001
0000
1000
0000
0000
0000
0010
0000
0000
0100
,
0000
0000
0001
0000
0000
1000
0000
0100
0000
0000
0000
0010
0000
0000
0100
0000
,
0000
1000
0000
0000
0010
0000
0100
0000
0000
0000
0001
0000
0000
1000
0000
0000
,
0100
0000
0000
0010
0000
0001
0000
0000
0000
0100
0000
0000
1000
0000
0000
0100
,
0000
0000
0001
0000
0010
0000
0000
0000
0100
0000
0000
1000
0000
0000
0010
0000
,
0000
0100
0000
0001
0000
0000
0000
1000
0000
0000
0100
0000
0000
0010
0000
0000
,
0001
0000
0100
0000
0000
0000
0010
0000
0000
1000
0000
0000
0001
0000
0000
0010
,
0000
0100
0000
0000
0000
1000
0000
0000
0010
0000
0000
0100
0000
0000
0001
0000
,
1000
0000
0000
0000
0100
0000
0000
0010
0000
0000
0001
0000
0000
0100
0000
0010
,
0000
0000
0000
1000
0000
0000
0001
0000
0000
0010
0000
0000
0100
0000
1000
0000
,
0000
0000
0001
0000
0000
0100
0000
0000
0010
0000
0000
0100
0000
0001
0000
0000
,
0000
0010
0000
0000
1000
0000
0000
0010
0000
0000
0001
0000
1000
0000
0000
0000
,
0010
0000
0000
0100
0000
0000
0001
0000
0000
1000
0000
0100
0000
0000
0000
0010
,
0000
0000
0001
0000
0000
1000
0000
0000
0010
0000
0100
0000
0000
0000
0001
0000
,
0000
1000
0000
0000
0100
0000
0000
0010
0000
0001
0000
0000
0000
1000
0000
0000
,
0010
0000
0000
0100
0000
0000
0001
0000
1000
0000
0000
0000
0100
0000
0000
0010
,
0000
0000
0001
0000
0000
1000
0000
0001
0000
0000
0000
0100
0000
0000
0010
0000
,
0000
1000
0000
0000
0001
0000
0010
0000
0000
0000
0100
0000
0000
1000
0000
0000
,
0001
0000
0000
0100
0000
0010
0000
0000
0000
1000
0000
0000
0001
0000
0000
0010
,
0000
0000
0100
0000
1000
0000
0000
0001
0000
0000
0000
0100
0000
0000
0010
0000
,
0000
1000
0000
0000
0001
0000
0000
0010
0000
0100
0000
1000
0000
0000
0001
0000
,
0000
0100
0000
0000
0010
0000
0000
1000
0000
0000
0001
0000
0000
0010
0100
0000
,
1000
0000
0001
0000
0100
0000
0000
0010
0000
1000
0000
0001
0000
0000
1000
0000
,
0000
0100
0000
0000
0010
0000
0000
0001
0000
0000
0100
0000
1000
0000
0000
0100
,
0000
0000
0001
0000
0000
1000
0000
0000
0100
0000
0001
0000
0000
0100
0000
0000
,
1000
0000
0000
0001
0000
0000
0100
0000
1000
0000
0100
0000
0000
0001
0000
0000
,
0010
1000
0010
0000
0001
0000
1000
0010
,
0200
0000
0000
0000
0000
0000
0000
0000
0000
0301
0000
1000
0000
0100
0010
0000
,
0001
0000
1000
0000
0000
0010
0000
0000
0100
0000
0000
1000
0000
0100
0000
0010
,
0000
1000
0000
0000
0001
0000
0000
0010
0000
0000
0100
0000
0010
0000
0001
0000
,
0100
0000
0000
0010
0000
0000
1000
0000
0000
0001
0000
0010
0000
0100
0000
0001
,
0000
0000
0100
0000
0000
1000
0000
0000
0001
0000
0100
0000
0010
0000
1000
0000
,
0000
0001
0000
0000
0010
0000
0000
0100
0000
0001
0000
0100
0000
1000
0000
0000
,
0010
0000
0000
0100
0000
0000
1000
0000
0100
0000
0010
0000
0100
0000
0000
0001
,
0000
0000
0000
0000
0000
0000
0010
0000
0000
0000
0000
0000
0000
0000
0000
0100
0000
0000
0000
0000
0000
1000
0000
0000
0000
0000
0000
0000
0000
0100
0000
0000
0000
0000
0000
0000
0000
0010
0000
0000
0000
0000
0000
0000
0000
0001
0000
0000
,
0000
0000
0000
0000
0000
1000
0000
0000
0000
0000
0000
0000
0000
0010
0000
0000
0000
0000
0000
0000
0000
0000
0000
0000
0100
0000
0000
0000
0000
0000
0000
0000
0001
0000
0000
0000
0000
0000
0000
0000
1000
0000
0000
0000
0000
0000
0000
0000
,
0010
0100
0001
1000
0010
0000
0100
0000
0001
0000
1000
0100
,
0010
0001
1000
0000
0001
0000
0100
0000
0001
1000
0100
0010
,
0001
0000
1000
0000
0010
0000
0100
1000
0100
0010
0100
0000
,
0001
0000
1000
0000
0100
0010
0001
0100
0010
0000
0001
0000
,
0010
0000
0100
0001
0010
0100
1000
0000
0100
0000
0001
0000
,
0100
0000
0000
0000
1000
0000
0000
0000
0001
0000
0000
0000
0100
0000
0000
0000
0010
0000
0000
0000
0100
0000
0000
0000
0001
0000
0000
0000
0100
0000
0000
0000
0001
0000
0000
0000
1000
0000
0000
0000
0100
0000
0000
0000
0000
0010
0000
0000
,
0000
0000
0001
0000
0000
0000
0000
1000
0000
0000
0000
0000
0010
0000
0000
0000
0000
0200
0000
0000
0000
0000
0000
0000
0000
0000
0000
0000
0000
0000
0000
0000
0000
0000
0000
0000
0000
0000
0000
0000
0000
0000
0000
0000
0000
0000
0000
0000
,
0000
0000
0000
0000
0300
0000
0000
0000
0001
0000
0000
0000
1000
0000
0000
0100
,
0000
0000
0010
0000
0000
0001
0000
0100
0000
0000
0000
0010
0000
0000
1000
0000
,
0000
0001
0000
0000
0010
0000
0100
0000
0000
0000
1000
0000
0000
0010
0000
0000
,
0100
0000
0000
0001
0000
1000
0000
0000
0000
0100
0000
0000
0010
0000
0000
0001
,
0000
0000
0100
0000
0010
0000
0000
0000
1000
0000
0000
0100
0000
0000
0001
0000
,
0000
0100
0000
1000
0000
0000
0000
0001
0000
0000
0100
0000
0000
1000
0000
0000
,
0100
0000
0001
0000
0000
0000
0010
0000
0000
1000
0000
0000
0001
0000
0000
0100
,
0000
2000
0000
0000
0000
0000
0000
0000
0000
0000
0000
0000
0000
0000
0000
0000
,
0000
0000
0000
3002
0000
0000
0000
0003
0000
0000
0000
0000
0000
0000
0000
0000
0000
0000
0000
0000
0000
0000
0000
0000
0000
0000
0000
0000
0000
0000
0000
0000
0000
0000
0000
0000
0000
0000
0000
0000
0000
0000
0000
0000
0000
0000
0000
0000
0000
0000
0000
0000
0000
0000
0000
0000
0000
0000
0000
0000
0000
0000
0000
0000
;

//---------------dance-single - ----------------
#NOTEDATA:;
#CHARTNAME:;
#CHARTHASH:3383000073;
#STEPSTYPE:dance-single;
#BANNER:;
#DESCRIPTION:;
#CHARTSTYLE:;
#DIFFICULTY:Hard;
#METER:14;
#METERF:0.000000;
#RADARVALUES:0.687098,0.764300,1.029412,0.051903,1.042388,556.000000,437.000000,119.000000,6.000000,0.000000,0.000000,0.000000,0.000000,0.000000,0.687098,0.764300,1.029412,0.051903,1.042388,556.000000,437.000000,119.000000,6.000000,0.000000,0.000000,0.000000,0.000000,0.000000;
#CREDIT:YOSEFU;
#NOTES:
0000
0000
0000
0000
,
0000
0000
0000
0000
,
0000
0000
0000
0000
,
0000
0000
0000
0000
,
0000
0000
0000
0000
,
1000
0010
0100
0000
0110
0000
0000
0110
0000
0000
0101
0000
0000
0101
0000
0001
,
1000
0100
0000
0110
0000
0000
0110
0000
0000
0011
0000
0000
0011
0000
0001
1000
,
0010
0000
0110
0000
0000
0110
0000
0000
0101
0000
0000
0101
0000
0001
1000
0100
,
0000
0110
0000
0000
0110
0000
0000
0011
0000
0000
0001
1000
0010
0000
0000
0000
,
0110
0000
0000
0100
0000
0000
0101
0000
0000
1001
0000
1000
0000
0100
0000
0110
,
0000
0000
0001
0000
0000
1001
0000
0000
1010
0000
0010
0000
0100
0000
0101
0000
,
0000
0001
0000
0000
1100
0000
0000
0110
0000
0010
0000
0001
0000
1001
0000
0000
,
1000
0000
0000
0101
0000
0000
1001
0000
1100
0000
0000
0000
0110
0000
0000
0010
,
0000
0000
1001
0000
0000
1010
0000
1000
0000
0001
0000
0011
0000
0000
0010
0000
,
0000
1100
0000
0000
1001
0000
0001
0000
0100
0000
1010
0000
0000
1100
0000
0000
,
0001
0000
0000
0101
0000
0100
0000
0010
0000
1001
0000
0000
1000
0000
0000
1010
,
0000
0000
0010
0100
0001
0000
0000
0000
0110
0000
0000
0010
0000
0000
1010
0000
,
0000
1001
0000
0001
0000
0010
0000
0110
0000
0000
1000
0000
0000
1001
0000
0000
,
0101
0000
0100
0000
0010
0000
1010
0000
0000
1000
0000
0000
0011
0000
0000
0110
,
0000
0100
0000
1000
0000
1001
0000
0000
0001
0000
0000
1010
0000
0000
1001
0000
,
0011
0000
0000
0000
0110
0000
0000
0100
0000
0000
1001
0000
0000
0101
0000
0001
,
0000
1000
0000
1100
0000
0000
0100
0000
0000
0011
0000
0000
1001
0000
1000
0000
,
0010
0000
0101
0000
0000
0011
0000
0000
1000
0000
0000
1010
0000
0010
0000
0100
,
0000
1001
0000
0000
0001
0000
0000
0101
0000
0000
0100
0010
2000
0000
0000
0000
,
0100
0000
0000
0100
0000
0000
0100
0000
0000
0100
0000
0100
0000
0000
0000
0001
,
0000
0000
0001
0000
0000
0001
0000
0000
0001
0000
0001
0000
0000
0000
0010
0000
,
0000
0010
0000
0000
0010
0000
0000
0010
0000
0010
0000
0000
0000
0001
0000
0000
,
0001
0000
0000
0001
0000
0000
0001
0000
3002
0000
0000
0000
0010
0000
0000
0010
,
0000
0000
0010
0000
0000
0010
0000
0010
0000
0000
0000
1000
0000
0000
1000
0000
,
0000
1000
0000
0000
1000
0000
1000
0000
0000
0000
0100
0000
0000
0100
0000
0000
,
0100
0000
0000
0100
0000
0100
0000
0000
0000
1000
0000
0000
1000
0000
0000
1000
,
0000
0000
1000
0000
1003
0000
0010
1000
0000
0000
0010
1000
0000
0010
1000
0000
,
0001
1000
0000
0000
0100
0000
0010
0001
0000
1000
0000
0010
0000
0100
0000
0001
,
0000
1000
0000
0000
0100
0000
0010
0001
0000
0010
0001
0000
1000
0010
0000
0000
,
0100
0001
1000
0000
0100
0000
0010
0001
0000
1000
0000
0010
0000
0100
0000
0001
,
0000
1000
0000
0000
0100
0000
0010
0001
0000
0000
0010
0001
1000
0000
0000
0110
,
0000
0000
0001
0000
1000
0010
0000
0000
1000
0010
0100
0000
0000
1001
0000
0000
,
0001
0000
0000
0110
0000
0000
1001
0000
1000
0100
0010
0000
0000
0011
0000
0000
,
0101
0000
0000
0000
0000
0000
0001
0000
0000
1000
0000
0000
0010
0000
0000
0000
0000
0000
0000
0000
0000
0010
0000
0000
0100
0000
0000
0000
0000
0000
0000
0000
0000
0100
0000
0000
0001
0000
0000
0000
0010
0000
0000
0000
0100
0000
0000
0000
,
2000
0000
0000
0000
0000
0000
0000
0000
0000
3010
0000
0100
0000
0001
1000
0000
,
0100
0000
0011
0000
0000
1001
0000
0000
1010
0000
0000
1000
0001
0010
0000
0100
,
0000
0110
0000
0000
1100
0000
0000
1010
0000
0000
0010
0100
0001
0000
1000
0000
,
1100
0000
0000
0110
0000
0000
0011
0000
0000
0001
0100
0010
0000
1000
0000
1001
,
0000
0000
0011
0000
0000
1100
0000
1000
0001
0100
0001
0000
0100
0000
0110
0000
,
0000
1010
0000
0000
0011
0000
0000
0010
0100
1000
0000
0001
0000
0101
0000
0000
,
1010
0000
0000
1100
0000
0000
0001
1000
0010
0000
0100
0000
1001
0000
0000
0110
,
0000
0000
0000
0000
0000
0000
1001
0000
0000
0000
0000
0000
0000
0000
0000
0001
0000
0000
0100
0000
0000
0010
0000
0000
0000
0000
0000
0000
0000
1000
0000
0000
0000
0000
0000
0000
0000
0001
0000
0000
0000
0000
0000
0000
0000
0010
0000
0000
,
0000
0000
0000
0000
0000
0100
0000
0000
0000
0000
0000
0000
0000
1000
0000
0000
0000
0000
0000
0000
0000
0000
0000
0000
0001
0000
0000
0000
0100
0000
0000
0000
0010
0000
0000
0000
1000
0000
0000
0000
0001
0000
0000
0000
0100
0000
0000
0000
,
0010
0001
0010
1000
0100
0010
0001
1000
0100
0010
0001
1000
,
0010
0001
0010
0100
0001
1000
0010
0100
0001
0100
1000
0100
,
0010
1000
0001
1000
0100
0010
1000
0001
0100
1000
0001
0100
,
0010
1000
0100
0010
1000
0010
0001
0100
1000
0100
0010
0100
,
0001
0010
0100
0001
0100
1000
0010
0001
0010
0100
0001
1000
,
0100
0000
0000
0000
0001
0000
0000
0000
0100
0000
0000
0000
1000
0000
0000
0000
0010
0000
0000
0000
0001
0000
0000
0000
0010
0000
0000
0000
0100
0000
0000
0000
0001
0000
0000
0000
0010
0000
0000
0000
0100
0000
0000
0000
0000
1000
0000
0000
,
0000
0000
0010
0000
0000
0000
0000
0100
0000
0000
0000
0000
0001
0000
0000
0000
0000
1002
0000
0000
0000
0000
0000
0000
0000
0000
0000
0000
0000
0000
0000
0000
0000
0000
0000
0000
0000
0000
0000
0000
0000
0000
0000
0000
0000
0000
0000
0000
,
0000
0000
0000
0000
0023
0000
0000
0000
0130
1000
0001
0000
0101
0000
0000
0011
,
0000
0000
1100
0000
0000
1010
0000
0010
0100
0001
0000
0101
0000
0000
1010
0000
,
0000
1100
0000
0000
0011
0000
0001
1000
0010
0000
0110
0000
0000
0101
0000
0000
,
0011
0000
0000
0110
0000
0100
1000
0001
0000
0101
0000
0000
1010
0000
0000
1100
,
0000
0000
0011
0000
0001
1000
0010
0000
0110
0000
0000
0101
0000
0000
1100
0000
,
0000
1010
0000
1000
0001
0010
0000
0011
0000
0000
1010
0000
0000
1100
0000
0000
,
0101
0000
0001
0010
0100
0000
1100
0000
0000
0101
0000
0000
0011
0000
0000
1010
,
0000
1000
0010
1000
0010
0100
0001
0100
0001
1000
0100
1000
0100
0010
0001
0010
,
0000
0000
0000
0002
0000
0000
0000
0003
0000
0000
0000
0000
0000
0000
0000
0000
0000
0000
0000
0000
0000
0000
0000
0000
0000
0000
0000
0000
0000
0000
0000
0000
0000
0000
0000
0000
0000
0000
0000
0000
0000
0000
0000
0000
0000
0000
0000
0000
0000
0000
0000
0000
0000
0000
0000
0000
0000
0000
0000
0000
0000
0000
0000
0000
;

//---------------dance-double - ----------------
#NOTEDATA:;
#CHARTNAME:;
#CHARTHASH:753015236;
#STEPSTYPE:dance-double;
#BANNER:;
#DESCRIPTION:;
#CHARTSTYLE:;
#DIFFICULTY:Medium;
#METER:12;
#METERF:0.000000;
#RADARVALUES:0.404103,0.573225,0.000000,0.034602,0.735294,327.000000,327.000000,0.000000,4.000000,0.000000,0.000000,0.000000,0.000000,0.000000,0.404103,0.573225,0.000000,0.034602,0.735294,327.000000,327.000000,0.000000,4.000000,0.000000,0.000000,0.000000,0.000000,0.000000;
#CREDIT:YOSEFU;
#NOTES:
00000000
00000000
00000000
00000000
,
00000000
00000000
00000000
00000000
,
00000000
00000000
00000000
00000000
,
00000000
00000000
00000000
00000000
,
00000000
00000000
00000000
00000000
,
00010000
00000000
00000000
00000000
00001000
00000000
00000000
00000010
00000000
00000000
00000001
00000000
00000000
00000100
00000000
00000010
,
00000000
00000000
00000000
00001000
00000000
00000000
00000001
00000000
00000000
00000010
00000000
00000000
00001000
00000000
00010000
00000000
,
00000000
00000000
00100000
00000000
00000000
01000000
00000000
00000000
00010000
00000000
00000000
00100000
00000000
01000000
00000000
00000000
,
00000000
10000000
00000000
00000000
00010000
00000000
00000000
01000000
00000000
00000000
00100000
00000000
10000000
00000000
00000000
00000000
,
01000000
00000000
00000000
00010000
00000000
00000000
00001000
00000000
00000000
00000100
00000000
00000001
00000000
00000000
00000000
00000010
,
00000000
00000000
00000100
00000000
00000000
00001000
00000000
00000000
00000100
00000000
00000010
00000000
00000000
00000000
00000001
00000000
,
00000000
00000100
00000000
00000000
00000010
00000000
00000000
00000100
00000000
00001000
00000000
00000000
00000000
00010000
00000000
00000000
,
00100000
00000000
00000000
01000000
00000000
00000000
00010000
00000000
10000000
00000000
00000000
00000000
01000000
00000000
00000000
00100000
,
00000000
00000000
01000000
00000000
00000000
00010000
00000000
00001000
00000000
00000000
00000000
00010000
00000000
00000000
00000010
00000000
,
00000000
00000100
00000000
00000000
00001000
00000000
00000100
00000000
00000000
00000000
00000001
00000000
00000000
00000010
00000000
00000000
,
00000100
00000000
00000000
00001000
00000000
00000100
00000000
00000000
00000000
00000001
00000000
00000000
00000100
00000000
00000000
00010000
,
00000000
00000000
00001000
00000000
01000000
00000000
00000000
00000000
00100000
00000000
00000000
00010000
00000000
00000000
00001000
00000000
,
00000000
00000010
00000000
00000100
00000000
00000000
00000000
00001000
00000000
00000000
00000001
00000000
00000000
00000100
00000000
00000000
,
00001000
00000000
00000100
00000000
00000000
00000000
00000010
00000000
00000000
00000100
00000000
00000000
00000001
00000000
00000000
00000010
,
00000000
00001000
00000000
00000000
00000000
00010000
00000000
00000000
00100000
00000000
00000000
01000000
00000000
00000000
00010000
00000000
,
10000000
00000000
00000000
00000000
01000000
00000000
00000000
00010000
00000000
00000000
00001000
00000000
00000000
00000010
00000000
00000100
,
00000000
00000000
00000000
00001000
00000000
00000000
00000001
00000000
00000000
00000100
00000000
00000000
00001000
00000000
00010000
00000000
,
00000000
00000000
00100000
00000000
00000000
01000000
00000000
00000000
00010000
00000000
00000000
10000000
00000000
01000000
00000000
00000000
,
00000000
00100000
00000000
00000000
01000000
00000000
00000000
00010000
00000000
00000000
01000000
00000000
10000000
00000000
00000000
00000000
,
00010000
00000000
00000000
01000000
00000000
00000000
00001000
00000000
00000000
00010000
00000000
00000100
00000000
00000000
00000000
00001000
,
00000000
00000000
00000001
00000000
00000000
00000100
00000000
00000000
00000001
00000000
00001000
00000000
00000000
00000000
00000100
00000000
,
00000000
00010000
00000000
00000000
00001000
00000000
00000000
01000000
00000000
00010000
00000000
00000000
00000000
10000000
00000000
00000000
,
00010000
00000000
00000000
01000000
00000000
00000000
00010000
00000000
00100000
00000000
00000000
00000000
00001000
00000000
00000000
00010000
,
00000000
00000000
00000010
00000000
00000000
00001000
00000000
00000001
00000000
00000000
00000000
00000010
00000000
00000000
00000001
00000000
,
00000000
00001000
00000000
00000000
00000010
00000000
00010000
00000000
00000000
00000000
00001000
00000000
00000000
00100000
00000000
00000000
,
00010000
00000000
00000000
10000000
00000000
00100000
00000000
00000000
00000000
01000000
00000000
00000000
00010000
00000000
00000000
00100000
,
00000000
01000000
10000000
00000000
00100000
00000000
00000000
01000000
,
00000000
00010000
00000000
00000000
10000000
00000000
00000000
00000000
01000000
00000000
00000000
00100000
00000000
00000000
00001000
00000000
,
00000000
00010000
00000000
00000000
00000010
00000000
00000000
00001000
00000000
00000000
00000001
00000000
00000000
00000010
00000000
00000000
,
00000100
00000000
00010000
00000000
00001000
00000000
00000000
00000000
00100000
00000000
00000000
00001000
00000000
00000000
01000000
00000000
,
00000000
00100000
00000000
00000000
10000000
00000000
00000000
00000000
00010000
00000000
00000000
00000000
10000000
00000000
00000000
01000000
,
00000000
00000000
00010000
00000000
00000000
00000000
00001000
00000000
00000000
00000000
00000010
00000000
00000000
00000001
00000000
00000000
,
00000100
00000000
00000000
00001000
00000000
00000000
00010000
00000000
01000000
00000000
10000000
00000000
00000000
00100000
00000000
00000000
,
00010000
00001000
00000010
00000000
00000001
00000000
00000100
00001000
,
00020000
00000000
00000000
00000000
00000000
00000000
00000000
00000000
00000000
00130000
00000000
01000000
00000000
00010000
10000000
00000000
,
01000000
00000000
00100000
00000000
00000000
00000000
00010000
00000000
01000000
00000000
00000000
00001000
00000000
00010000
00000000
00000000
,
00000000
00000100
00000000
00000000
00000010
00000000
00000000
00000001
00000000
00000000
00000100
00000000
00001000
00000000
00000000
00000000
,
00010000
00000000
00000000
00100000
00000000
00000000
01000000
00000000
00000000
00010000
00000000
10000000
00000000
00000000
00000000
01000000
,
00000000
00000000
00010000
00000000
00000000
00001000
00000000
00000000
00000100
00000000
00000010
00000000
00000001
00000000
00001000
00000000
,
00000000
00000010
00000000
00000000
00000100
00000000
00000000
00001000
00000000
00000100
00000000
00000010
00000000
00000001
00000000
00000000
,
00000010
00000000
00000000
00001000
00000000
00000000
00000100
00000000
00000001
00000000
00000100
00000000
00001000
00000000
00000000
00000100
,
00000000
00000000
00000000
00000000
00000000
00000000
00010000
00000000
00000000
00000000
00000000
00000000
00000000
00000000
00000000
01000000
00000000
00000000
00000000
00000000
00000000
00100000
00000000
00000000
00000000
00000000
00000000
00000000
00000000
00010000
00000000
00000000
00000000
00000000
00000000
00000000
00000000
01000000
00000000
00000000
00000000
00000000
00000000
00000000
00000000
00001000
00000000
00000000
,
00000000
00000000
00000000
00000000
00000000
00010000
00000000
00000000
00000000
00000000
00000000
00000000
00000000
00000100
00000000
00000000
00000000
00000000
00000000
00000000
00000000
00000000
00000000
00000000
00000010
00000000
00000000
00000000
00000000
00000000
00000000
00000000
00000001
00000000
00000000
00000000
00000000
00000000
00000000
00000000
00001000
00000000
00000000
00000000
00000000
00000000
00000000
00000000
,
00000010
00001000
00000010
00010000
00001000
00000000
00100000
00000000
00001000
00000000
00100000
00010000
,
10000000
00100000
01000000
00000000
00010000
00000000
10000000
00000000
01000000
00100000
00010000
10000000
,
00100000
00000000
01000000
00000000
00001000
00000000
00010000
00100000
01000000
00010000
10000000
00000000
,
01000000
00000000
00010000
00000000
00001000
00000010
00000001
00001000
00000010
00000000
00000100
00000000
,
00001000
00000000
00010000
00100000
01000000
00010000
10000000
00000000
01000000
00000000
00010000
00000000
,
00001000
00000000
00000000
00000000
00000100
00000000
00000000
00000000
00000001
00000000
00000000
00000000
00000010
00000000
00000000
00000000
00000100
00000000
00000000
00000000
00000010
00000000
00000000
00000000
00000100
00000000
00000000
00000000
00001000
00000000
00000000
00000000
00000001
00000000
00000000
00000000
00001000
00000000
00000000
00000000
00000010
00000000
00000000
00000000
00000000
00000100
00000000
00000000
,
00000000
00000000
00001000
00000000
00000000
00000000
00000000
00010000
00000000
00000000
00000000
00000000
00100000
00000000
00000000
00000000
00000000
02000000
00000000
00000000
00000000
00000000
00000000
00000000
00000000
00000000
00000000
00000000
00000000
00000000
00000000
00000000
00000000
00000000
00000000
00000000
00000000
00000000
00000000
00000000
00000000
00000000
00000000
00000000
00000000
00000000
00000000
00000000
,
00000000
00000000
00000000
00000000
03000000
00000000
00000000
00000000
00010000
00000000
00000000
00000000
10000000
00000000
00000000
01000000
,
00000000
00000000
00100000
00000000
00000000
00010000
00000000
01000000
00000000
00000000
00000000
00001000
00000000
00000000
00010000
00000000
,
00000000
00000100
00000000
00000000
00001000
00000000
00000001
00000000
00000000
00000000
00000100
00000000
00000000
00000010
00000000
00000000
,
00000000
00001000
00000000
00000100
00000000
00000010
00000000
00000000
00000000
00000001
00000000
00000000
00000000
00000100
00000000
00000010
,
00000000
00000000
00000100
00000000
00001000
00000000
00000000
00000000
00010000
00000000
00000000
01000000
00000000
00000000
10000000
00000000
,
00000000
00100000
00000000
00010000
00000000
00000000
00000000
00001000
00000000
00000000
00000010
00000000
00000000
00000001
00000000
00000000
,
00000100
00000000
00001000
00000000
00000000
00000000
00010000
00000000
00000000
01000000
00000000
00000000
10000000
00000000
00000000
00100000
,
00000000
02000000
00000000
00000000
00000000
00000000
00000000
00000000
00000000
00000000
00000000
00000000
00000000
00000000
00000000
00000000
,
00000000
00000000
00000000
03000200
00000000
00000000
00000000
00000300
00000000
00000000
00000000
00000000
00000000
00000000
00000000
00000000
00000000
00000000
00000000
00000000
00000000
00000000
00000000
00000000
00000000
00000000
00000000
00000000
00000000
00000000
00000000
00000000
00000000
00000000
00000000
00000000
00000000
00000000
00000000
00000000
00000000
00000000
00000000
00000000
00000000
00000000
00000000
00000000
00000000
00000000
00000000
00000000
00000000
00000000
00000000
00000000
00000000
00000000
00000000
00000000
00000000
00000000
00000000
00000000
;

//---------------dance-double - ----------------
#NOTEDATA:;
#CHARTNAME:;
#CHARTHASH:2314872853;
#STEPSTYPE:dance-double;
#BANNER:;
#DESCRIPTION:;
#CHARTSTYLE:;
#DIFFICULTY:Hard;
#METER:14;
#METERF:0.000000;
#RADARVALUES:0.661147,0.764300,0.873702,0.051903,1.012111,535.000000,434.000000,101.000000,6.000000,0.000000,0.000000,0.000000,0.000000,0.000000,0.661147,0.764300,0.873702,0.051903,1.012111,535.000000,434.000000,101.000000,6.000000,0.000000,0.000000,0.000000,0.000000,0.000000;
#CREDIT:YOSEFU;
#NOTES:
00000000
00000000
00000000
00000000
,
00000000
00000000
00000000
00000000
,
00000000
00000000
00000000
00000000
,
00000000
00000000
00000000
00000000
,
00000000
00000000
00000000
00000000
,
00010000
00001000
01000000
00000000
01010000
00000000
00000000
00010000
00000000
00000000
10010000
00000000
00000000
10000000
00000000
01000000
,
00100000
00010000
00000000
00110000
00000000
00000000
00100000
00000000
00000000
00101000
00000000
00000000
00001000
00000000
00010000
00000010
,
00001000
00000000
00001001
00000000
00000000
00000001
00000000
00000000
00000011
00000000
00000000
00000010
00000000
00000100
00001000
00000010
,
00000000
00001010
00000000
00000000
00010000
00000000
00000000
00011000
00000000
00001000
00100000
00000000
01000000
00000000
10000000
00000000
,
00100000
00000000
00000000
01100000
00000000
00000000
01000000
00000000
00000000
01001000
00000000
00001000
00000000
00010000
00000000
00000100
,
00000000
00000000
00000110
00000000
00000000
00000010
00000000
00000000
00000011
00000000
00000001
00000000
00001000
00000000
00000010
00000000
,
00000000
00001010
00000000
00000000
00001000
00000000
00000000
00001100
00000000
00000100
00000000
00010000
00000000
00001000
00000000
00000000
,
00011000
00000000
00000000
00010000
00000000
00000000
00101000
00000000
00100000
00000000
00010000
00000000
01000000
00000000
00000000
01100000
,
00000000
00000000
00100000
00000000
00000000
10100000
00000000
10000000
00000000
01000000
00000000
00100000
00000000
00000000
00110000
00000000
,
00000000
00001000
00000000
00000000
00011000
00000000
00010000
00000000
00000010
00000000
00000100
00000000
00000000
00000101
00000000
00000000
,
00000001
00000000
00000000
00000011
00000000
00000010
00000000
00000100
00000000
00001000
00000000
00000000
00001100
00000000
00000000
00000100
,
00000000
00000010
00001000
00010000
00001000
00000000
00000000
00000000
00011000
00000000
00000000
00101000
00000000
00000000
00011000
00000000
,
00000000
00010010
00000000
00010000
00000000
00000000
00000000
00011000
00000000
00000000
01001000
00000000
00000000
00011000
00000000
00000000
,
00010100
00000000
00010000
00000000
00001000
00000000
01000000
00000000
00000000
01010000
00000000
00000000
00010000
00000000
00000000
00110000
,
00000000
00100000
00000000
01000000
00000000
10000000
00000000
00000000
10100000
00000000
00000000
00100000
00000000
00000000
01100000
00000000
,
01000000
00000000
00000000
00000000
01001000
00000000
00000000
00011000
00000000
00000000
00010100
00000000
00000000
00011000
00000000
00001000
,
00000000
00000000
00000000
00011000
00000000
00000000
00101000
00000000
00000000
00011000
00000000
00000000
00010010
00000000
00010000
00000000
,
00000010
00000000
00000100
00000000
00000000
00000101
00000000
00000000
00000010
00000000
00000000
00001001
00000000
00001000
00000000
00000100
,
00000000
00000010
00000000
00000000
00000011
00000000
00000000
00000001
00000000
00000000
00000100
00000000
00000020
00000000
00000000
00000000
,
00001000
00000000
00000000
00001000
00000000
00000000
00001000
00000000
00000000
00001000
00000000
00001000
00000000
00000000
00000000
00000100
,
00000000
00000000
00000100
00000000
00000000
00000100
00000000
00000000
00000100
00000000
00000100
00000000
00000000
00000000
00000001
00000000
,
00000000
00000001
00000000
00000000
00000001
00000000
00000000
00000001
00000000
00000001
00000000
00000000
00000000
00001000
00000000
00000000
,
00001000
00000000
00000000
00001000
00000000
00000000
00001000
00000000
00020030
00000000
00000000
00000000
00001000
00000000
00000000
00001000
,
00000000
00000000
00001000
00000000
00000000
00001000
00000000
00001000
00000000
00000000
00000000
00000010
00000000
00000000
00000010
00000000
,
00000000
00000010
00000000
00000000
00000010
00000000
00000010
00000000
00000000
00000000
00001000
00000000
00000000
00001000
00000000
00000000
,
00001000
00000000
00000000
00001000
00000000
00001000
00000000
00000000
00000000
00000100
00000000
00000000
00000100
00000000
00000000
00000100
,
00000000
00000000
00000100
00000000
00031000
00000000
00100000
00010000
00000000
00000000
00100000
00010000
00000000
10000000
00010000
00000000
,
01000000
00001000
00000000
00010000
00001000
00000000
00010000
00000000
00000010
00001000
00000000
00000001
00000000
00000010
00000000
00000100
,
00000000
00001000
00000000
00000000
00000010
00000000
00000100
00000001
00000000
00000100
00000001
00000000
00001000
00000100
00010000
00000000
,
00001000
01000000
00010000
00000000
10000000
00000000
01000000
00000000
00100000
00010000
00000000
01000000
00000000
00100000
00000000
01000000
,
00000000
00001000
00000000
00000000
00010000
00000000
00001000
00000000
00000010
00000000
00000000
00000000
00000110
00000000
00000000
00010100
,
00000000
00000000
00010000
00000000
00001000
00000000
00100000
00000000
00000000
00000000
01100000
00000000
00000000
11000000
00000000
00000000
,
10100000
00000000
00000000
00100000
00000000
00000000
01000000
00000000
00100000
00010000
00001000
00000000
00000000
00000010
00000000
00000000
,
00000001
00000000
00000000
00000000
00000000
00000000
00000100
00000000
00000000
00001000
00000000
00000000
00010000
00000000
00000000
00000000
00000000
00000000
00000000
00000000
00000000
00010000
00000000
00000000
00100000
00000000
00000000
00000000
00000000
00000000
00000000
00000000
00000000
00100000
00000000
00000000
01000000
00000000
00000000
00000000
00010000
00000000
00000000
00000000
00100000
00000000
00000000
00000000
,
02000000
00000000
00000000
00000000
00000000
00000000
00000000
00000000
00000000
13000000
00000000
00010000
00000000
01000000
00100000
00000000
,
10000000
00000000
10010000
00000000
00000000
00110000
00000000
00000000
00101000
00000000
00000000
00001000
00010000
00000010
00000000
00001000
,
00000000
00001001
00000000
00000000
00000011
00000000
00000000
00001100
00000000
00000000
00000100
00010000
00001000
00000000
01000000
00000000
,
01010000
00000000
00000000
10010000
00000000
00000000
11000000
00000000
00000000
01000000
00100000
00010000
00000000
10000000
00000000
10100000
,
00000000
00000000
01100000
00000000
00000000
01010000
00000000
01000000
00100000
00010000
00001000
00000000
00010000
00000000
00010100
00000000
,
00000000
00000110
00000000
00000000
00000011
00000000
00000000
00000001
00000100
00000010
00000000
00010000
00000000
00011000
00000000
00000000
,
00101000
00000000
00000000
01100000
00000000
00000000
01000000
10000000
00100000
00000000
01000000
00000000
01001000
00000000
00000000
00010100
,
00000000
00000000
00000000
00000000
00000000
00000000
00000110
00000000
00000000
00000000
00000000
00000000
00000000
00000000
00000000
00000011
00000000
00000000
00000000
00000000
00000000
00000001
00000000
00000000
00000000
00000000
00000000
00000000
00000000
00000010
00000000
00000000
00000000
00000000
00000000
00000000
00000000
00000100
00000000
00000000
00000000
00000000
00000000
00000000
00000000
00001000
00000000
00000000
,
00000000
00000000
00000000
00000000
00000000
00010000
00000000
00000000
00000000
00000000
00000000
00000000
00000000
00100000
00000000
00000000
00000000
00000000
00000000
00000000
00000000
00000000
00000000
00000000
01000000
00000000
00000000
00000000
10000000
00000000
00000000
00000000
00010000
00000000
00000000
00000000
01000000
00000000
00000000
00000000
00100000
00000000
00000000
00000000
01000000
00000000
00000000
00000000
,
00010000
01000000
00100000
00010000
00001000
00010000
00000100
00001000
00000001
00000100
00000010
00000100
,
00001000
00010000
00000010
00000100
00000001
00001000
00000100
00000010
00000100
00000001
00000100
00000010
,
00000100
00010000
00001000
00100000
00010000
10000000
00100000
00010000
00001000
00000100
00000001
00000010
,
00001000
00000010
00000001
00000100
00001000
00010000
00100000
10000000
01000000
00010000
01000000
10000000
,
00100000
00010000
00001000
00000010
00000001
00001000
00000001
00000010
00001000
00000010
00000001
00000100
,
00001000
00000000
00000000
00000000
00010000
00000000
00000000
00000000
00100000
00000000
00000000
00000000
10000000
00000000
00000000
00000000
01000000
00000000
00000000
00000000
00100000
00000000
00000000
00000000
00010000
00000000
00000000
00000000
00001000
00000000
00000000
00000000
00000100
00000000
00000000
00000000
00000010
00000000
00000000
00000000
00000001
00000000
00000000
00000000
00000000
00000100
00000000
00000000
,
00000000
00000000
00001000
00000000
00000000
00000000
00000000
00010000
00000000
00000000
00000000
00000000
01000000
00000000
00000000
00000000
00000000
20000000
00000000
00000000
00000000
00000000
00000000
00000000
00000000
00000000
00000000
00000000
00000000
00000000
00000000
00000000
00000000
00000000
00000000
00000000
00000000
00000000
00000000
00000000
00000000
00000000
00000000
00000000
00000000
00000000
00000000
00000000
,
00000000
00000000
00000000
00000000
30020000
00000000
00000000
00000000
01030000
00100000
10000000
00000000
10100000
00000000
00000000
10010000
,
00000000
00000000
00110000
00000000
00000000
00101000
00000000
00001000
00010000
00000010
00000000
00001010
00000000
00000000
00001001
00000000
,
00000000
00000011
00000000
00000000
00000110
00000000
00000100
00001000
00000001
00000000
00000101
00000000
00000000
00000110
00000000
00000000
,
00010010
00000000
00000000
00011000
00000000
00001000
00100000
00010000
00000000
00110000
00000000
00000000
10010000
00000000
00000000
10100000
,
00000000
00000000
01100000
00000000
01000000
00010000
10000000
00000000
11000000
00000000
00000000
00110000
00000000
00000000
00011000
00000000
,
00000000
00001010
00000000
00001000
00000001
00000010
00000000
00000011
00000000
00000000
00001010
00000000
00000000
00011000
00000000
00000000
,
00101000
00000000
00100000
00010000
10000000
00000000
10100000
00000000
00000000
01001000
00000000
00000000
00010100
00000000
00000000
00001100
,
00000000
00001000
00000100
00001000
00000100
00000010
00001000
00000010
00001000
00010000
00001000
00010000
00001000
00010000
00100000
01000000
,
00000000
00000000
00000000
00020000
00000000
00000000
00000000
00030000
00000000
00000000
00000000
00000000
00000000
00000000
00000000
00000000
00000000
00000000
00000000
00000000
00000000
00000000
00000000
00000000
00000000
00000000
00000000
00000000
00000000
00000000
00000000
00000000
00000000
00000000
00000000
00000000
00000000
00000000
00000000
00000000
00000000
00000000
00000000
00000000
00000000
00000000
00000000
00000000
00000000
00000000
00000000
00000000
00000000
00000000
00000000
00000000
00000000
00000000
00000000
00000000
00000000
00000000
00000000
00000000
;

//---------------dance-double - ----------------
#NOTEDATA:;
#CHARTNAME:;
#CHARTHASH:4068937715;
#STEPSTYPE:dance-double;
#BANNER:;
#DESCRIPTION:;
#CHARTSTYLE:;
#DIFFICULTY:Challenge;
#METER:17;
#METERF:0.000000;
#RADARVALUES:0.790905,1.009968,0.441176,0.051903,1.388408,640.000000,589.000000,51.000000,6.000000,0.000000,0.000000,0.000000,0.000000,0.000000,0.790905,1.009968,0.441176,0.051903,1.388408,640.000000,589.000000,51.000000,6.000000,0.000000,0.000000,0.000000,0.000000,0.000000;
#CREDIT:YOSEFU;
#NOTES:
// measure 0
00000000
00000000
00000000
00000000
,  // measure 1
00000000
00000000
00000000
00000000
,  // measure 2
00000000
00000000
00000000
00000000
,  // measure 3
00000000
00000000
00000000
00000000
,  // measure 4
00000000
00000000
00000000
00000000
,  // measure 5
00010000
00001000
00100000
00000000
00110000
00000000
00000000
10010000
00000000
00000000
10100000
00000000
00000000
00100000
01000000
00001000
,  // measure 6
00010000
00000100
00000000
00000110
00000000
00000000
00000011
00000000
00000000
00001010
00000000
00000000
00000010
00000100
00000001
00000010
,  // measure 7
00000100
00000000
00001100
00000000
00000000
00011000
00000000
00000000
01010000
00000000
00000000
01000000
00100000
10000000
01000000
00100000
,  // measure 8
00000000
00110000
00000000
00000000
00011000
00000000
00000000
00001010
00000000
00001000
00000001
00000000
00000100
00000000
00000010
00001000
,  // measure 9
00000001
00000000
00001000
00000010
00000000
00001000
00000001
00000000
00001000
00000010
00000000
00001000
00000000
00000100
00010000
00001000
,  // measure 10
00000000
01000000
00001000
00000000
01000000
00010000
00000000
10000000
00010000
00000000
00100000
00000000
01000000
10000000
00010000
00000000
,  // measure 11
01000000
00100000
00000000
01000000
00010000
00000000
10000000
01000000
00000000
00100000
00000000
00001000
00010000
00000010
00000000
00000100
,  // measure 12
00000001
00000000
00001000
00000100
00000000
00000010
00000001
00000000
00000100
00000000
00000010
00001000
00000100
00000000
00000010
00000100
,  // measure 13
00000000
00001000
00000100
00000000
00010000
00000100
00000000
00010000
00000000
00001000
01000000
00010000
00000000
10000000
00010000
00000000
,  // measure 14
10000000
01000000
00000000
00100000
00010000
00000000
01000000
00000000
00100000
10000000
00010000
00000000
00100000
01000000
00000000
00100000
,  // measure 15
00010000
00000000
00100000
00001000
00000000
00010000
00000000
00000010
00001000
00000001
00000000
00000010
00000100
00000000
00000010
00000001
,  // measure 16
00000000
00000100
00001000
00010000
00100000
00000000
01000000
01000000
00000000
00010000
00000000
10000000
00000000
01000000
00000000
00100000
,  // measure 17
00100000
00010000
00000000
10000000
00000000
00100000
00100000
00000000
01000000
00000000
00010000
00000000
10000000
00000000
01000000
00100000
,  // measure 18
00010000
00000000
00100000
00000000
00001000
00010000
00000000
00000010
00000000
00001000
00000000
00000001
00000000
00001000
00000100
00000010
,  // measure 19
00000001
00001000
00000000
00000010
00000100
00000000
00000001
00000000
00000010
00000000
00001000
00010000
00100000
01000000
00010000
10000000
,  // measure 20
01000000
00000000
00100000
00100000
00000000
00001000
00000000
00010000
00000000
00000010
00000000
00001000
00001000
00000001
00000000
00000010
,  // measure 21
00000000
00000100
00000100
00000000
00010000
00000000
00001000
00000000
01000000
00000000
00010000
00100000
01000000
10000000
00010000
00000000
,  // measure 22
01000000
00100000
00000000
10000000
00000000
00100000
00000000
00010000
00001000
00000100
00000010
00001000
00000001
00001000
00000000
00000100
,  // measure 23
00000010
00000000
00000001
00000000
00000100
00000000
00001000
00010000
00100000
01000000
00010000
10000000
02000000
00000000
00000000
00000000
,  // measure 24
00010000
00000000
00000000
00100000
00000000
00000000
10000000
00000000
00000000
00100000
00000000
00010000
00000000
00000000
00000000
00100000
,  // measure 25
00000000
00000000
10000000
00000000
00000000
00100000
00000000
00000000
00010000
00000000
00100000
00000000
00000000
00000000
10000000
00000000
,  // measure 26
00000000
00100000
00000000
00000000
00010000
00000000
00000000
00100000
00000000
10000000
00000000
00000000
00000000
00100000
00000000
00000000
,  // measure 27
00010000
00000000
00000000
00100000
00000000
00000000
10000000
00000000
03200000
00000000
00000000
00000000
00001000
00000000
00000000
00010000
,  // measure 28
00000000
00000000
01000000
00000000
00000000
00010000
00000000
00001000
00000000
00000000
00000000
00010000
00000000
00000000
01000000
00000000
,  // measure 29
00000000
00010000
00000000
00000000
00001000
00000000
00010000
00000000
00000000
00000000
10000000
00000000
00000000
00010000
00000000
00000000
,  // measure 30
00001000
00000000
00000000
00010000
00000000
10000000
00000000
00000000
00000000
00010000
00000000
00000000
00001000
00000000
00000000
00010000
,  // measure 31
00000000
00000000
10000000
00000000
00310000
00000000
10000000
00100000
00000000
01000000
00001000
00010000
00000000
00000100
00000010
00000001
,  // measure 32
00000100
00000010
00000000
00000001
00000010
00000000
00001000
00001000
00000000
00000100
00000000
00000010
00000000
00000001
00000000
00000100
,  // measure 33
00000100
00000010
00000000
00000100
00001000
00010000
00001000
00100000
00000000
01000000
10000000
00000000
01000000
00010000
00001000
00000000
,  // measure 34
00000010
00000100
00000100
00001000
00000001
00000000
00000100
00000100
00000000
00000010
00000000
00010000
00000000
00001000
00010000
00100000
,  // measure 35
01000000
00010000
00000000
10000000
01000000
00000000
00100000
00010000
00000000
10000000
00100000
01000000
00010000
00000000
00000000
01001000
,  // measure 36
00000000
00000000
00010100
00000000
00000100
00001000
00000000
00000001
00000100
00000010
00010000
00000000
00000000
00010010
00000000
00000000
,  // measure 37
00101000
00000000
00000000
00100010
00000000
00000000
00011000
00000000
01001000
00000000
00010100
00000000
00000000
01000100
00000000
00000000
,  // measure 38
00011000
00000000
00000000
00000000
00000000
00000000
00000000
00000000
00000000
00000000
00000000
00000000
00000000
00000000
00000000
00000000
00000000
00000000
00000000
00000000
00000000
00000000
00000000
00000000
00101000
00000000
00000000
00000000
00000000
00000000
00000000
00000000
00000000
00000000
00000000
00000000
00000000
00000000
00000000
00000000
00000000
00000000
00000000
00000000
00000000
00000000
00000000
00000000
00010010
00000000
00000000
00000000
00000000
00000000
00000000
00000000
00000000
00000000
00000000
00000000
00000000
00000000
00000000
00000000
00000000
00000000
00010000
00000000
00000000
00000000
00000000
00000000
00000000
00000000
00000000
00000000
00000000
00000000
00000000
00000000
00000000
00000000
00000000
00000000
00001000
00000000
00000000
00000000
00000000
00000000
00000000
00000000
00000000
00000000
00000000
00000000
00101000
00000000
00000000
00000000
00000000
00000000
00000000
00000000
00000000
00000000
00000000
00000000
00000000
00000000
00000000
00000000
00000000
00000000
00001000
00000000
00000000
00000000
00000000
00000000
00000000
00000000
00000000
00000000
00000000
00000000
00000000
00000000
00000000
00000000
00000000
00000000
00010000
00000000
00000000
00000000
00000000
00000000
00000000
00000000
00000000
00000000
00000000
00000000
00001000
00000000
00000000
00000000
00000000
00000000
00000000
00000000
00100000
00000000
00000000
00000000
00000000
00000000
00000000
00000000
00010000
00000000
00000000
00000000
00000000
00000000
00000000
00000000
10000000
00000000
00000000
00000000
00000000
00000000
00000000
00000000
00100000
00000000
00000000
00000000
00000000
00000000
00000000
00000000
01000000
00000000
00000000
00000000
00000000
00000000
00000000
00000000
,  // measure 39
00020000
00000000
00000000
00000000
00000000
00000000
00000000
00000000
00000000
00130000
00000000
01100000
00000000
01000000
10000000
00000000
,  // measure 40
00010000
00000000
01000000
00000000
00001000
00010000
00000000
00100000
00010000
00000000
00001000
00000010
00000100
00001000
00000000
00000001
,  // measure 41
00000100
00000010
00000000
00001000
00000001
00000000
00000010
00000100
00000000
00000010
00001000
00010000
00001000
00000000
00010000
00100000
,  // measure 42
01000000
00000000
00010000
10000000
00000000
01000000
00100000
00000000
01000000
10000000
00100000
01000000
00000000
00010000
01000000
00001000
,  // measure 43
00000000
00010000
00000100
00000000
00000010
00000100
00000000
00000010
00001000
00010000
00100000
00000000
01000000
00010000
00100000
00000000
,  // measure 44
01000000
10000000
00000000
00010000
01000000
00000000
00100000
00010000
00001000
00010000
00000000
00001000
00000010
00000100
00000000
00001000
,  // measure 45
00000001
00000000
00000100
00000010
00000000
00000100
00001000
00010000
00001000
00000000
00100000
01000000
10000000
00000000
00100000
01000000
,  // measure 46
00000000
00000000
00000000
00010000
00000000
00000000
01000000
00000000
00000000
00000000
00000000
00000000
00001000
00000000
00000000
00010000
00000000
00000000
00100000
00000000
00000000
01000000
00000000
00000000
00000000
00000000
00000000
00000000
00000000
10000000
00000000
00000000
00000000
00000000
00000000
00000000
00000000
01000000
00000000
00000000
00000000
00000000
00000000
00000000
00000000
00100000
00000000
00000000
,  // measure 47
00000000
00000000
00000000
00000000
00000000
00010000
00000000
00000000
00000000
00000000
00000000
00000000
00000000
00001000
00000000
00000000
00000000
00000000
00000000
00000000
00000000
00000000
00000000
00000000
00000100
00000000
00000000
00000000
00000010
00000000
00000000
00000000
00001000
00000000
00000000
00000000
00000001
00000000
00000000
00000000
00001000
00000000
00000000
00000000
00000100
00000000
00000000
00000000
,  // measure 48
00000010
00000001
00001000
00000001
00000100
00000010
00010000
00001000
00100000
00000000
00010000
00000000
10000000
00000000
00100000
00000000
01000000
00000000
00010000
00000000
10000000
01000000
00100000
00010000
,  // measure 49
10000000
00010000
01000000
00001000
00010000
00000000
00000100
00000000
00001000
00000000
00000001
00000000
00000100
00000000
00000010
00000000
00001000
00000001
00000010
00000001
00001000
00000010
00010000
00001000
,  // measure 50
00100000
00000000
01000000
00000000
10000000
00000000
00010000
00000000
01000000
00000000
00100000
00000000
10000000
01000000
00100000
00010000
01000000
00001000
00010000
00000000
00001000
00000000
00000010
00000000
,  // measure 51
00000001
00000000
00000100
00000000
00000010
00000000
00001000
00000000
00000010
00000100
00000010
00010000
00001000
00100000
01000000
00100000
00010000
00000000
00100000
00000000
10000000
00000000
00100000
00000000
,  // measure 52
00010000
00000000
01000000
00000000
00100000
01000000
00001000
00010000
00000100
00000010
00000100
00001000
00000001
00000000
00000100
00000000
00001000
00000000
00010000
00000000
01000000
00000000
10000000
00000000
,  // measure 53
00100000
00000000
01000000
00000000
00010000
00000000
00100000
00000000
01000000
00000000
10000000
00000000
00010000
00000000
01000000
00000000
00001000
00000000
00000000
00000000
00010000
00000000
00000000
00000000
00001000
00000000
00000000
00000000
00000010
00000000
00000000
00000000
00000001
00000000
00000000
00000000
00000100
00000000
00000000
00000000
00000110
00000000
00000000
00000000
00000000
00001010
00000000
00000000
,  // measure 54
00000000
00000000
00010010
00000000
00000000
00000000
00000000
00101000
00000000
00000000
00000000
00000000
00110000
00000000
00000000
00000000
00000000
21000000
00000000
00000000
00000000
00000000
00000000
00000000
00000000
00000000
00000000
00000000
00000000
00000000
00000000
00000000
00000000
00000000
00000000
00000000
00000000
00000000
00000000
00000000
00000000
00000000
00000000
00000000
00000000
00000000
00000000
00000000
,  // measure 55
00000000
00000000
00000000
00000000
30020000
00000000
00000000
00000000
01030000
00100000
10000000
00000000
10100000
00000000
00000000
00110000
,  // measure 56
00000000
00000000
00011000
00000000
00000000
00010000
00000010
00001000
00000001
00001000
00000000
00001100
00000000
00000000
00000101
00000000
,  // measure 57
00000000
00000011
00000000
00000000
00000001
00001000
00000010
00010000
00001000
00000000
00101000
00000000
00000000
00110000
00000000
00000000
,  // measure 58
10100000
00000000
00000000
10000000
01000000
10000000
00010000
01000000
00000000
01100000
00000000
00000000
00011000
00000000
00000000
00000110
,  // measure 59
00000000
00000000
00000001
00001000
00000010
00001000
00000001
00000000
00000011
00000000
00000000
00001100
00000000
00000000
00110000
00000000
,  // measure 60
00000000
00010000
10000000
00100000
01000000
10000000
00000000
11000000
00000000
00000000
01010000
00000000
00000000
00001100
00000000
00000000
,  // measure 61
00000101
00000000
00000001
00000010
00000100
00000010
00001000
00010000
00100000
01000000
00100000
10000000
01000000
00100000
01000000
00010000
,  // measure 62
00001000
00000100
00000010
00000100
00000001
00000100
00001000
00010000
00100000
01000000
00010000
10000000
01000000
00010000
00001000
00000100
,  // measure 63
00000000
00000000
00000000
00000020
00000000
00000000
00000000
00000030
00000000
00000000
00000000
00000000
00000000
00000000
00000000
00000000
00000000
00000000
00000000
00000000
00000000
00000000
00000000
00000000
00000000
00000000
00000000
00000000
00000000
00000000
00000000
00000000
00000000
00000000
00000000
00000000
00000000
00000000
00000000
00000000
00000000
00000000
00000000
00000000
00000000
00000000
00000000
00000000
00000000
00000000
00000000
00000000
00000000
00000000
00000000
00000000
00000000
00000000
00000000
00000000
00000000
00000000
00000000
00000000
;
