#TITLE:0verfl0w_err0r;
#SUBTITLE:;
#ARTIST:Karl with a K;
#TITLETRANSLIT:;
#SUBTITLETRANSLIT:;
#ARTISTTRANSLIT:Karl with a K;
#GENRE:POLYRHYTHMIC TECHNO;
#CREDIT:skeleton made by Karl with a K;
#BANNER:0verfl0w_err0r.png;
#BACKGROUND:0verfl0w_err0r-bg.png;
#LYRICSPATH:;
#CDTITLE:../_YSD cdtitles/ysd sale1 cdtitle.png;
#MUSIC:0verfl0w_err0r.ogg;
#OFFSET:-0.025000;
#SAMPLESTART:86.761002;
#SAMPLELENGTH:12.387000;
#SELECTABLE:YES;
#BPMS:0.000000=155.000000
;
#STOPS:
;
#BGCHANGES:;
#KEYSOUNDS:;
#ATTACKS:;

//---------------dance-single - ----------------
#NOTES:
     dance-single:
     :
     Beginner:
     3:
     0.131885,0.152709,0.000000,0.000000,0.000000,133.000000,133.000000,0.000000,0.000000,0.000000,0.000000,0.131885,0.152709,0.000000,0.000000,0.000000,133.000000,133.000000,0.000000,0.000000,0.000000,0.000000:
// measure 0
0000
0000
0000
0000
,  // measure 1
0000
0000
0000
0000
,  // measure 2
0000
0000
0000
0000
,  // measure 3
0000
0000
0000
0000
,  // measure 4
1000
0000
0000
0000
,  // measure 5
0001
0000
0000
0000
,  // measure 6
1000
0000
0000
0000
,  // measure 7
0010
0000
0000
0000
,  // measure 8
0100
0000
0000
0000
,  // measure 9
0001
0000
0000
0000
,  // measure 10
0100
0000
0000
0000
,  // measure 11
0010
0000
0000
0000
,  // measure 12
1000
0000
0000
0000
,  // measure 13
0100
0000
0000
0000
,  // measure 14
1000
0000
0000
0000
,  // measure 15
0010
0000
0000
0000
,  // measure 16
0100
0000
0001
0000
,  // measure 17
0100
0000
0001
0000
,  // measure 18
1000
0000
0001
0000
,  // measure 19
0010
0000
0001
0000
,  // measure 20
1000
0000
0100
0000
,  // measure 21
1000
0000
0100
0000
,  // measure 22
1000
0000
0001
0000
,  // measure 23
0010
0000
0100
0000
,  // measure 24
1000
0000
0001
0000
,  // measure 25
0100
0000
0001
0000
,  // measure 26
1000
0000
0100
0000
,  // measure 27
0010
0000
0001
0000
,  // measure 28
0100
0000
0001
0000
,  // measure 29
1000
0000
0100
0000
,  // measure 30
1000
0000
0001
0000
,  // measure 31
0010
0000
0001
0000
,  // measure 32
0100
0000
0000
0000
,  // measure 33
0001
0000
0000
0000
,  // measure 34
0100
0000
0000
0000
,  // measure 35
0010
0000
0000
0000
,  // measure 36
1000
0000
0000
0000
,  // measure 37
0100
0000
0000
0000
,  // measure 38
0010
0000
0000
0000
,  // measure 39
0001
0000
0000
0000
,  // measure 40
0100
0000
0000
0000
,  // measure 41
0010
0000
0000
0000
,  // measure 42
1000
0000
0000
0000
,  // measure 43
0100
0000
0000
0000
,  // measure 44
1000
0000
0000
0000
,  // measure 45
0001
0000
0000
0000
,  // measure 46
0100
0000
0000
0000
,  // measure 47
0010
0000
0000
0000
,  // measure 48
1000
0000
0000
0000
,  // measure 49
0100
0000
0000
0000
,  // measure 50
0010
0000
0000
0000
,  // measure 51
0001
0000
0000
0000
,  // measure 52
0100
0000
0000
0000
,  // measure 53
0010
0000
0000
0000
,  // measure 54
1000
0000
0000
0000
,  // measure 55
0001
0000
0000
0000
,  // measure 56
1000
0000
0100
0000
,  // measure 57
1000
0000
0001
0000
,  // measure 58
0100
0000
0001
0000
,  // measure 59
0010
0000
0100
0000
,  // measure 60
1000
0000
0001
0000
,  // measure 61
0100
0000
0001
0000
,  // measure 62
1000
0000
0100
0000
,  // measure 63
0010
0000
0001
0000
,  // measure 64
0100
0000
0001
0000
,  // measure 65
1000
0000
0100
0000
,  // measure 66
1000
0000
0001
0000
,  // measure 67
0010
0000
0100
0000
,  // measure 68
1000
0000
0001
0000
,  // measure 69
0100
0000
0001
0000
,  // measure 70
1000
0000
0100
0000
,  // measure 71
0010
0000
0001
0000
,  // measure 72
0100
0000
0001
0000
,  // measure 73
1000
0000
0001
0000
,  // measure 74
0100
0000
0001
0000
,  // measure 75
0010
0000
0100
0000
,  // measure 76
1000
0000
0100
0000
,  // measure 77
1000
0000
0001
0000
,  // measure 78
0100
0000
0001
0000
,  // measure 79
0010
0000
0100
0000
,  // measure 80
1000
0000
0001
0000
,  // measure 81
0100
0000
0001
0000
,  // measure 82
1000
0000
0100
0000
,  // measure 83
0010
0000
0100
0000
,  // measure 84
1000
0000
0001
0000
,  // measure 85
0100
0000
0001
0000
,  // measure 86
1000
0000
0100
0000
,  // measure 87
0010
0000
0001
0000
,  // measure 88
0100
0000
0000
0000
;

//---------------dance-single - ----------------
#NOTES:
     dance-single:
     :
     Easy:
     10:
     0.381772,0.396197,0.000000,0.013883,0.208239,385.000000,385.000000,0.000000,2.000000,0.000000,0.000000,0.381772,0.396197,0.000000,0.013883,0.208239,385.000000,385.000000,0.000000,2.000000,0.000000,0.000000:
0000
0000
0000
0000
,
0000
0000
0000
0000
,
0000
0000
0000
0000
,
0000
0000
0000
0000
,
1000
0010
0100
0001
,
1000
0100
0010
0001
,
0100
0010
1000
0001
,
0010
0100
1000
0001
,
0100
0000
0010
0100
0010
0000
0100
0000
,
0001
0000
0000
0000
1000
0000
0000
0010
1000
0000
0000
0000
0010
1000
0000
0000
,
0001
0000
0100
0000
0010
0000
1000
0001
,
1000
0000
0000
0000
0100
0000
0000
0000
0010
0001
0000
0000
0010
0000
0000
0001
,
0010
0000
0100
0000
1000
0001
1000
0000
,
0001
0000
0000
0000
0100
0000
0000
0000
0010
0000
0000
1000
0010
0000
0000
0000
,
1000
0010
0000
0000
0100
0000
0000
0000
0001
0000
0000
0000
1000
0000
0000
0000
,
0100
0000
0010
0000
0100
0000
0000
0000
1000
0000
0000
0000
0001
0100
0000
0000
,
0001
0000
0000
0100
0001
0000
0000
0000
1000
0000
0000
0000
0100
0000
1000
0000
,
0100
0000
0000
0000
0010
0000
0000
0000
0001
0000
0000
0000
1000
0000
0000
0010
,
1000
0000
0000
0000
0010
1000
0000
0000
0001
0000
0000
0000
1000
0000
0000
0000
,
0100
0000
0010
0001
0010
0000
0100
0000
,
1000
0001
0000
0000
1000
0000
0000
0001
1000
0000
0000
0000
0001
0000
0000
0000
,
0100
0010
0100
0000
0001
0000
1000
0000
,
0100
0000
0000
1000
0001
0000
0000
0000
1000
0001
0000
0000
1000
0000
0000
0000
,
0010
0000
0100
0000
0001
0100
0001
0000
,
1000
0000
0000
0000
0100
0010
0000
0000
0100
0000
0000
0010
0100
0000
0000
0000
,
1000
0000
0001
0100
0010
0000
0100
0000
,
0001
0000
0000
0000
1000
0000
0000
0100
1000
0000
0000
0000
0001
1000
0000
0000
,
0001
0000
0100
0000
0010
0000
1000
0001
,
0010
0000
0000
0000
0001
0000
0000
0000
1000
0001
0000
0000
0010
0000
0000
0001
,
1000
0000
0010
0000
0100
0001
1000
0000
,
0100
0000
0000
0000
0010
0000
0000
0000
0001
0000
0000
1000
0010
0000
0000
0000
,
0100
0001
0000
0000
1000
0000
0000
0000
0100
0000
0000
0000
0010
0000
0000
0000
,
0001
0100
0010
1000
,
0010
0100
0001
1000
,
0100
0010
0001
0010
,
0100
1000
0001
0100
,
0010
1000
0001
0010
,
0100
1000
0001
1000
,
0010
0100
0001
1000
,
0100
0010
0001
1000
,
0010
0000
0000
0000
0000
0000
0100
0000
0000
0000
0000
0001
0000
0000
0000
0000
,
1000
0000
0000
0000
0000
0000
0100
0000
0000
0000
0000
0010
0000
0000
0000
0000
,
0001
0000
0000
0100
0000
0000
0010
0000
,
0000
1000
0000
0000
0000
0000
0000
0100
0000
0000
0000
0000
0010
0000
0000
0000
,
0001
0000
0000
0000
0000
0000
0100
0000
0000
0000
0000
0010
0000
0000
0000
0000
,
1000
0000
0000
0000
0000
0000
0001
0000
0000
0000
0000
0010
0000
0000
0000
0000
,
0100
0000
0000
1000
0000
0000
0010
0000
,
0000
0100
0000
0000
0000
0000
0000
0001
0000
0000
0000
0000
1000
0000
0000
0000
,
0100
0000
0000
0000
0000
0000
0010
0000
0000
0000
0000
0001
0000
0000
0000
0000
,
1000
0000
0000
0000
0000
0000
0010
0000
0000
0000
0000
0100
0000
0000
0000
0000
,
0001
0000
0000
0010
0000
0000
0100
0000
,
0000
1000
0000
0000
0000
0000
0000
0010
0000
0000
0000
0000
0100
0000
0000
0000
,
0001
0000
0000
0000
0000
0000
0010
0000
0000
0000
0000
0100
0000
0000
0000
0000
,
1000
0000
0000
0000
0000
0000
0001
0000
0000
0000
0000
0100
0000
0000
0000
0000
,
0000
0020
0000
0000
0000
0000
2030
0000
0000
0000
0000
0000
0000
0000
0000
0000
,
0000
0000
0000
0001
0000
0000
3001
0000
,
1000
0000
0000
0000
0100
0000
0000
0010
0001
0000
0000
0000
0100
0001
0000
0000
,
1000
0000
0010
0000
0100
0000
0001
1000
,
0100
0000
0000
0000
0010
0000
0000
0000
0100
1000
0000
0000
0100
0000
0000
0010
,
0001
0000
0100
0000
0010
1000
0001
0000
,
0010
0000
0000
0000
0100
0000
0000
0000
0010
0000
0000
0001
1000
0000
0000
0000
,
0010
1000
0000
0000
0001
0000
0000
0000
0100
0000
0000
0000
0010
0000
0000
0000
,
1000
0000
0001
0000
0100
0000
0000
0000
0001
0000
0000
0000
1000
0100
0000
0000
,
0010
0000
0000
0001
1000
0000
0000
0000
0010
0000
0000
0000
0100
0000
0001
0000
,
1000
0000
0000
0000
0100
0000
0000
0000
0010
0000
0000
0000
0001
0000
0000
0100
,
0010
0000
0000
0000
1000
0001
0000
0000
1000
0000
0000
0000
0100
0000
0000
0000
,
0010
0000
0100
1000
0001
0000
0100
0000
,
0010
1000
0000
0000
0001
0000
0000
0010
0100
0000
0000
0000
1000
0000
0000
0000
,
0001
0100
0010
0000
0100
0000
0001
0000
,
1000
0000
0000
0100
0010
0000
0000
0000
0001
1000
0000
0000
0010
0000
0000
0000
,
0100
0000
0001
0000
0010
0100
1000
0000
,
0010
0000
0000
0000
0100
0001
0000
0000
1000
0000
0000
0100
0010
0000
0000
0000
,
0001
0100
0010
1000
,
0100
0010
0001
1000
,
0010
0100
0001
0010
,
0100
1000
0001
0100
,
0001
0010
0100
1000
,
0001
0100
0010
1000
,
0100
1000
0010
1000
,
0001
0100
0001
0010
,
0100
0000
1000
0001
0100
0000
0010
0000
,
1000
0000
0000
0000
0001
0000
0000
0010
0100
0000
0000
0000
1000
0001
0000
0000
,
0100
0000
0010
0000
0100
0000
0001
1000
,
0100
0000
0000
0000
0010
0000
0000
0000
0100
1000
0000
0000
0001
0000
0000
0100
,
0010
0000
1000
0000
0001
0010
0100
0000
,
1000
0000
0000
0000
0001
0000
0000
0000
0100
0000
0000
0001
1000
0000
0000
0000
,
0100
0010
0000
0000
0001
0000
0000
0000
1000
0000
0000
0000
0010
0000
0000
0000
,
0100
0000
0001
0000
1000
0000
0000
0000
0100
0000
0000
0000
0010
0001
0000
0000
;

//---------------dance-single - ----------------
#NOTES:
     dance-single:
     :
     Medium:
     14:
     0.636617,0.670964,0.000000,0.013883,0.246417,642.000000,642.000000,0.000000,2.000000,0.000000,0.000000,0.636617,0.670964,0.000000,0.013883,0.246417,642.000000,642.000000,0.000000,2.000000,0.000000,0.000000:
0000
0000
0000
0000
,
0000
0000
0000
0000
,
0000
0000
0000
0000
,
0000
0000
0000
0000
,
1000
0001
0100
0001
1000
0100
0010
0000
,
0001
0100
0010
1000
0100
0010
0001
0000
,
1000
0010
0100
0001
0010
0100
1000
0000
,
0001
0100
1000
0100
0001
1000
0100
0000
,
0010
0001
1000
0010
0100
0001
1000
0000
,
0100
0000
0010
0000
0001
0000
0010
0001
1000
0000
0010
0000
0100
0001
0000
0000
,
1000
0100
0010
0001
1000
0010
0100
0001
,
0010
0000
0100
0000
1000
0000
0001
0000
0100
0010
1000
0000
0001
0000
0000
1000
,
0010
0100
0001
1000
0100
0010
0001
0000
,
0100
0000
0001
0000
0010
0000
0100
0000
1000
0000
0001
0100
0010
0000
0000
0000
,
1000
0001
0100
0000
0010
0000
1000
0000
0100
0000
0010
0000
0001
0000
0000
0000
,
0100
0000
1000
0000
0100
0000
0001
0000
0010
0000
0100
0000
1000
0001
0000
0000
,
0100
0000
0001
1000
0100
0000
0010
0000
0001
0000
0100
0000
0010
0000
1000
0000
,
0001
0000
0010
0000
0100
0000
0010
0000
0001
0000
1000
0000
0010
0000
0100
0001
,
1000
0000
0100
0000
0010
0001
1000
0000
0010
0000
0100
0000
0001
0000
0010
0000
,
0100
0001
0100
1000
0001
0100
0010
1000
,
0001
0010
0100
0000
1000
0000
0010
0100
0001
0000
1000
0000
0100
0000
0010
0000
,
0001
0100
0010
1000
0001
0010
0100
0010
,
0001
0000
1000
0010
0100
0000
0001
0000
1000
0100
0010
0000
0001
0000
0100
0000
,
0010
0001
0010
1000
0100
0010
0001
0100
,
0010
0000
1000
0000
0001
0010
0100
0000
0010
0000
0001
1000
0010
0000
0100
0000
,
0001
1000
0100
0010
0001
1000
0010
0100
,
0001
0000
0010
0000
0100
0000
1000
0001
0100
0000
0010
0000
1000
0001
0010
0000
,
0100
0010
0001
0100
1000
0100
0001
0010
,
0100
0000
1000
0000
0001
0000
0100
0000
0010
1000
0001
0000
0010
0000
0100
0010
,
0001
1000
0010
0100
0001
0010
0100
1000
,
0001
0000
0100
0000
0010
0000
0100
0000
0001
0000
1000
0100
0010
0000
0001
0000
,
0100
0010
1000
0000
0100
0000
0001
0000
0100
0000
1000
0000
0001
0000
0100
0000
,
0010
1000
0100
0010
,
0001
0100
0010
1000
,
0001
0010
0100
1000
,
0010
0100
0001
1000
,
0100
0010
0001
0100
,
0010
1000
0001
0010
,
0100
1000
0010
0100
,
0001
1000
0100
0010
,
1000
0000
0000
0000
0010
0000
0100
0000
0001
0000
0000
1000
0100
0000
0000
0000
,
0010
0000
0000
0000
0100
0000
1000
0000
0001
0000
0000
0100
0001
0000
0000
0000
,
1000
0000
0010
0100
0001
0000
0010
0000
,
0100
1000
0000
0000
0001
0000
0000
1000
0010
0000
0000
0000
0100
0000
0000
0000
,
0001
0000
0000
0000
0010
0000
0100
0000
1000
0000
0000
0001
1000
0000
0000
0000
,
0001
0000
0000
0000
0100
0000
0001
0000
1000
0000
0000
0100
0010
0000
0000
0000
,
0001
0000
0100
0010
1000
0000
0100
0000
,
0010
0001
0000
0000
1000
0000
0000
0010
0100
0000
0000
0000
0001
0000
0000
0000
,
1000
0000
0000
0000
0100
0000
1000
0000
0010
0000
0000
0100
0001
0000
0000
0000
,
0010
0000
0000
0000
0100
0000
1000
0000
0010
0000
0000
0100
0001
0000
0000
0000
,
0010
0000
0001
0100
0010
0000
1000
0000
,
0100
1000
0000
0000
0010
0000
0000
1000
0001
0000
0000
0000
0100
0000
0000
0000
,
0001
0000
0000
0000
1000
0000
0100
0000
0010
0000
0000
0001
1000
0000
0000
0000
,
0001
0000
0000
0000
0100
0000
0010
0000
1000
0000
0000
0100
0010
0000
0000
0000
,
0000
0002
0000
0000
0000
0000
0203
0000
0000
0000
0000
0000
0000
0000
0000
0000
,
0000
0000
0000
1000
0000
0000
0301
0000
,
1000
0000
0100
0000
0010
0000
0001
1000
0010
0000
0100
0000
0001
1000
0100
0000
,
0010
0000
0100
0000
1000
0000
0001
0000
0100
0000
0010
1000
0001
0000
0010
0000
,
0100
1000
0001
0000
0100
0000
0010
0000
0100
0001
1000
0000
0100
0000
0010
0000
,
0100
1000
0001
0000
0100
0000
1000
0000
0100
0000
0001
0000
1000
0000
0100
0000
,
0010
0000
0001
0000
0100
0000
0010
0000
1000
0000
0001
0010
0100
0000
1000
0000
,
0001
0100
0010
0000
0100
0000
0001
0000
1000
0000
0100
0010
0001
0000
1000
0000
,
0010
0000
0100
0000
0001
0000
0010
0000
0100
0000
1000
0000
0001
0100
0010
0000
,
0100
0001
1000
0001
1000
0000
0010
0100
0001
0000
0100
0000
1000
0000
0100
0000
,
0001
0000
1000
0000
0010
0000
1000
0000
0001
0000
0010
0100
1000
0000
0001
0100
,
0010
0000
0100
0000
0001
1000
0100
0000
0010
0000
0001
0100
0010
0000
0100
0000
,
0001
1000
0100
0010
0001
0100
0010
1000
,
0100
0010
0001
0000
0100
0000
0010
1000
0001
0000
0010
0000
1000
0000
0010
0000
,
0001
0000
0100
0000
0010
0000
1000
0000
0100
0000
0010
0001
1000
0000
0010
0000
,
0100
0000
0001
1000
0100
0000
0010
0000
0100
1000
0001
1000
0001
0000
0100
0000
,
0010
0100
0001
0010
0100
1000
0001
0100
,
0010
0100
0001
0000
1000
0100
0010
0100
0010
0000
0001
1000
0010
0000
0100
0000
,
0001
1000
0100
0010
0100
1000
0001
0100
,
0010
0100
0001
1000
0100
0010
0001
1000
,
0010
0100
0001
0010
0100
1000
0001
0100
,
1000
0100
0001
0010
0100
1000
0001
0100
,
0010
1000
0100
0010
0001
0010
0100
1000
,
0001
0100
0010
0100
0001
1000
0100
0010
,
0001
1000
0010
0100
0001
0010
0001
0100
,
1000
0100
0001
0010
0100
1000
0001
0100
,
0010
1000
0001
0010
0100
0010
0001
0100
,
0010
0000
1000
0000
0001
0000
0010
0100
1000
0000
0010
0000
0100
0001
1000
0000
,
0100
0010
0001
1000
0010
0100
0001
0010
,
1000
0000
0010
0000
0001
0000
0100
0000
0010
1000
0001
0000
0010
0000
0100
1000
,
0001
0100
0010
0100
0001
1000
0100
0010
,
0001
0000
1000
0000
0010
0000
0100
0000
0001
0000
0010
0100
1000
0000
0010
0000
,
0100
0001
1000
0000
0100
0000
0010
0000
0001
0000
0100
0000
0010
0000
1000
0000
,
0100
0000
0001
0000
0100
0000
1000
0000
0010
0000
0100
0000
0001
1000
0100
0000
;

//---------------dance-single - ----------------
#NOTES:
     dance-single:
     :
     Hard:
     17:
     0.799242,0.854562,0.000000,0.000000,1.329261,806.000000,806.000000,0.000000,0.000000,0.000000,0.000000,0.799242,0.854562,0.000000,0.000000,1.329261,806.000000,806.000000,0.000000,0.000000,0.000000,0.000000:
0000
0000
0000
0000
,
0000
0000
0000
0000
,
0000
0000
0000
0000
,
0000
0000
0000
0000
,
1000
0001
0000
1000
0001
1000
0000
0010
0000
0100
0001
0000
1000
0100
1000
0100
,
0000
0010
0001
0000
0010
0001
0010
0000
0001
0000
1000
0010
0000
0100
0001
0100
,
0001
0000
1000
0100
0000
1000
0100
1000
0000
0010
0000
0100
0001
0000
0010
0001
,
0100
0010
0000
1000
0001
0000
0010
0100
0001
0000
0100
0000
0010
0001
0000
1000
,
0001
1000
0001
0000
1000
0001
0000
0010
0100
1000
0000
0001
0000
0100
0001
0000
,
0100
0010
1000
0010
0000
1000
0010
0000
1000
0001
0010
0000
0100
0000
1000
0100
,
0000
1000
0001
0100
0001
0000
0100
0010
0000
1000
0001
0100
0000
0010
0000
1000
,
0100
0000
0010
0001
0100
0010
0000
0001
0010
0000
0100
0001
1000
0000
0100
0000
,
0010
0000
0000
0001
0100
0010
1000
0010
0000
0000
0100
0001
1000
0001
0000
0000
,
0100
0000
0000
0001
0000
0000
0010
0100
1000
0100
0010
0000
0000
0001
0100
0010
,
0100
0000
0000
0001
0000
0000
1000
0000
0000
0100
0010
0100
0000
1000
0000
0000
,
0001
0100
0000
1000
0000
0000
0100
0000
0000
0001
0000
0000
0010
0100
1000
0001
,
0100
0000
0000
0001
0010
0100
1000
0000
0000
0010
0000
0000
0100
0000
0000
0001
,
0010
0001
1000
0010
0000
0000
0100
0010
1000
0010
0000
0000
1000
0000
0000
0100
,
0000
0000
0010
0001
1000
0010
0100
0000
0000
0001
0010
0100
1000
0000
0000
0001
,
1000
0000
0010
0000
0000
0001
0010
0100
0001
1000
0000
0000
0100
0010
0001
1000
,
0000
0000
0010
0000
0000
0100
0000
0000
0001
1000
0100
0010
0001
0000
0000
1000
,
0010
0100
0001
0000
0000
0010
0000
0000
0100
0000
0000
0010
0001
0010
0100
1000
,
0000
0000
0001
0000
0100
0010
0000
0000
1000
0000
0000
0001
0000
0000
0010
0100
,
1000
0010
0100
0000
0000
1000
0100
0010
1000
0000
0000
0001
0000
0000
0010
0000
,
0000
0100
0010
0001
0100
0000
0000
0000
0010
1000
0100
0010
0000
0000
0001
0000
,
0000
0100
0000
0000
0001
0010
0100
1000
0001
0000
0000
0100
0001
0010
0100
0000
,
0000
1000
0000
0000
0001
0000
0000
0100
0010
0100
0001
1000
0000
0000
0100
0010
,
0001
0100
0000
0000
1000
0000
0000
0100
0000
0000
0001
0010
0100
1000
0001
0000
,
0000
0100
0010
1000
0100
0000
0000
0010
0000
0000
0001
0000
0000
0100
0010
1000
,
0001
0010
0000
0000
0100
1000
0001
0100
0000
0000
0010
0000
0000
0100
0000
0000
,
0001
0010
0100
1000
0010
0000
0000
0100
0001
0010
0100
0000
0000
1000
0000
0000
,
0001
0000
0000
0100
1000
0100
0010
1000
0000
0000
0100
0010
0001
1000
0000
0000
,
0001
0100
0010
0100
,
1000
0100
0010
0100
,
0001
0010
0100
0010
,
1000
0010
0100
0010
,
0001
1000
0010
0001
,
1000
0100
0001
0010
,
1000
0001
0100
1000
,
0010
0001
1000
0100
,
0001
1000
0000
0001
1000
0001
0000
0100
0000
0010
1000
0000
0001
0010
0001
0010
,
0000
0100
1000
0000
0100
1000
0100
0000
1000
0000
0001
0100
0000
0010
1000
0010
,
1000
0000
0001
0010
0000
0001
0010
0001
0000
0100
0000
0010
1000
0000
0100
1000
,
0010
0100
0000
0001
1000
0000
0100
0010
0001
0000
0100
0000
0010
1000
0000
0001
,
1000
0001
1000
0000
0001
1000
0000
0100
0010
0001
0000
1000
0000
0010
1000
0000
,
0010
0100
0001
0100
0000
0001
0100
0000
0001
1000
0100
0000
0010
0000
0001
0010
,
0000
0001
1000
0010
1000
0000
0010
0100
0000
0001
1000
0010
0000
0100
0000
0001
,
0010
0000
0100
1000
0010
0100
0000
0001
0010
0000
0100
1000
0001
0000
0010
0000
,
0100
0000
0000
1000
0010
0100
0001
0100
0000
0000
0010
1000
0001
1000
0000
0000
,
0010
0000
0000
1000
0000
0000
0100
0010
0001
0010
0100
0000
0000
1000
0010
0100
,
0010
0000
0000
1000
0000
0000
0001
0000
0000
0010
0100
0010
0001
1000
0000
0000
,
0010
1000
0001
0010
0000
0000
0100
0000
0000
1000
0000
0000
0100
0010
0001
1000
,
0010
0000
0000
1000
0100
0010
0001
0000
0000
0100
0000
0000
0010
0000
0000
1000
,
0100
1000
0001
0100
0000
0000
0010
0100
0001
0100
0000
0000
0001
0000
0000
0010
,
0000
0000
0100
1000
0001
0100
0010
0000
0000
1000
0100
0010
0001
0000
0000
1000
,
0000
0000
0100
0000
0000
1000
0100
0010
0001
1000
0000
0000
0010
0100
0001
1000
,
0001
0000
0100
0000
0000
0010
0000
0000
1000
0001
0010
0100
1000
0000
0000
0001
,
0100
0010
1000
0000
0000
0100
0000
0000
0010
0000
0000
0100
1000
0100
0010
0001
,
0000
0000
1000
0010
0100
0001
0000
0000
1000
0000
0000
0100
0000
0000
0010
0001
,
1000
0010
0100
0000
0000
1000
0100
0001
1000
0000
0000
0100
0000
0000
0010
0000
,
0000
0100
1000
0001
0100
0010
0000
0000
1000
0100
0010
0001
0000
0000
1000
0000
,
0000
0010
0000
0000
1000
0100
0010
0001
1000
0000
0000
0010
1000
0100
0010
0000
,
0000
0001
0000
0000
1000
0000
0000
0010
0100
0010
1000
0001
0000
0000
0010
0100
,
1000
0010
0000
0000
0001
0000
0000
0010
0000
0000
1000
0100
0010
0001
1000
0000
,
0000
0010
0100
0001
0010
0000
0000
0100
0000
0000
1000
0000
0000
0010
0100
0001
,
1000
0100
0000
0000
0010
0001
1000
0010
0000
0000
0100
0000
0000
0010
0000
0000
,
1000
0100
0010
0001
0100
0000
0000
0010
1000
0100
0010
0000
0000
0001
0000
0000
,
1000
0000
0000
0010
0001
0010
0100
0001
0000
0000
0010
0100
1000
0001
0000
0000
,
0100
0000
0000
0001
0000
0000
0010
0100
1000
0001
0100
0000
0000
0010
1000
0100
,
0010
0000
0000
0100
0000
0000
1000
0000
0000
0010
1000
0100
0010
0001
0000
0000
,
1000
0010
1000
0100
0000
0000
0010
0000
0000
0001
0000
0000
0100
0010
1000
0100
,
0010
0000
0000
0001
0100
0000
1000
0000
0000
0100
0000
0000
0001
0000
0000
0010
,
0100
0010
0001
1000
0000
0010
0000
0100
0001
0000
1000
0100
1000
0100
0000
0010
,
0001
0000
0100
0001
1000
0000
0100
0000
0010
0100
0000
1000
0100
0010
0001
0000
,
0100
0001
0000
0010
0100
1000
0000
0001
0000
0100
0001
0000
0010
0100
1000
0001
,
0000
0100
0010
0000
1000
0100
0010
0000
1000
0000
0010
0001
0000
1000
0010
0100
,
0001
0000
1000
0100
0000
0010
0100
1000
0000
0001
0000
0100
0010
0000
1000
0100
,
0010
0001
0000
0100
0001
0000
0010
0100
1000
0000
0010
0000
0100
0010
0000
1000
,
0100
0010
0001
0000
0100
0001
0000
1000
0100
0010
0000
0001
0000
0100
0010
0000
,
1000
0001
0010
0100
0000
0001
0100
0000
1000
0010
0100
0000
0001
0000
0010
0100
,
0000
1000
0010
0100
0001
0000
0010
0100
0000
0010
0001
1000
0010
0100
0000
0001
,
1000
0000
0100
0010
0001
1000
0000
0010
0100
0000
0001
0100
0001
0000
0010
0000
,
0100
1000
0000
0001
0100
0010
1000
0000
0100
1000
0000
0010
1000
0001
0000
0010
,
0000
0100
0001
0000
0100
1000
0001
0100
0000
0010
0100
0000
0001
0010
0100
0000
,
1000
0000
0000
0001
0100
0001
0010
0100
1000
0000
0001
0100
0010
1000
0001
0000
,
0010
0100
0000
1000
0100
0000
0010
0001
0100
0010
1000
0001
1000
0100
0010
0001
,
1000
0010
0000
0100
0001
0000
1000
0000
0100
0010
0100
1000
0001
0100
0000
0010
,
1000
0100
0001
0100
0010
0000
0001
0100
0010
1000
0001
0000
0010
0100
1000
0010
;

//---------------dance-double - ----------------
#NOTES:
     dance-double:
     :
     Beginner:
     4:
     0.126927,0.152709,0.000000,0.000000,0.000000,128.000000,128.000000,0.000000,0.000000,0.000000,0.000000,0.126927,0.152709,0.000000,0.000000,0.000000,128.000000,128.000000,0.000000,0.000000,0.000000,0.000000:
00000000
00000000
00000000
00000000
,
00000000
00000000
00000000
00000000
,
00000000
00000000
00000000
00000000
,
00000000
00000000
00000000
00000000
,
00010000
00000000
00000000
00000000
,
00001000
00000000
00000000
00000000
,
01000000
00000000
00000000
00000000
,
00010000
00000000
00000000
00000000
,
10000000
00000000
00000000
00000000
,
01000000
00000000
00000000
00000000
,
00100000
00000000
00000000
00000000
,
00001000
00000000
00000000
00000000
,
00010000
00000000
00000000
00000000
,
00000010
00000000
00000000
00000000
,
00001000
00000000
00000000
00000000
,
00000001
00000000
00000000
00000000
,
00000100
00000000
00000001
00000000
,
00000100
00000000
00000000
00000000
,
00000001
00000000
00001000
00000000
,
00000001
00000000
00000000
00000000
,
00001000
00000000
00000100
00000000
,
00001000
00000000
00000000
00000000
,
00000100
00000000
00010000
00000000
,
00000100
00000000
00000000
00000000
,
00010000
00000000
00001000
00000000
,
00010000
00000000
00001000
00000000
,
00100000
00000000
00010000
00000000
,
10000000
00000000
00000000
00000000
,
00010000
00000000
01000000
00000000
,
00010000
00000000
01000000
00000000
,
00001000
00000000
00010000
00000000
,
00000100
00000000
00000000
00000000
,
00001000
00000000
00000000
00000000
,
00000001
00000000
00000000
00000000
,
00000100
00000000
00000000
00000000
,
00000010
00000000
00000000
00000000
,
00001000
00000000
00000000
00000000
,
00000100
00000000
00000000
00000000
,
00010000
00000000
00000000
00000000
,
00001000
00000000
00000000
00000000
,
01000000
00000000
00010000
00000000
,
01000000
00000000
00000000
00000000
,
00010000
00000000
10000000
00000000
,
00010000
00000000
00000000
00000000
,
10000000
00000000
00100000
00000000
,
10000000
00000000
00000000
00000000
,
00010000
00000000
00100000
00000000
,
00010000
00000000
00000000
00000000
,
00100000
00000000
00001000
00000000
,
00100000
00000000
00000000
00000000
,
00001000
00000000
00010000
00000000
,
00001000
00000000
00000000
00000000
,
00010000
00000000
00000010
00000000
,
00010000
00000000
00000000
00000000
,
00000010
00000000
00000000
00000000
,
00001000
00000000
00000000
00000000
,
00000001
00000000
00000010
00000000
,
00000001
00000000
00000010
00000000
,
00000100
00000000
00010000
00000000
,
00001000
00000000
00000000
00000000
,
00010000
00000000
00001000
00000000
,
00010000
00000000
00001000
00000000
,
00100000
00000000
00010000
00000000
,
10000000
00000000
00000000
00000000
,
00100000
00000000
01000000
00000000
,
00010000
00000000
01000000
00000000
,
00001000
00000000
00010000
00000000
,
00000100
00000000
00000000
00000000
,
00001000
00000000
00000001
00000000
,
00001000
00000000
00000010
00000000
,
00010000
00000000
00001000
00000000
,
00100000
00000000
00000000
00000000
,
01000000
00000000
10000000
00000000
,
01000000
00000000
00100000
00000000
,
01000000
00000000
00100000
00000000
,
00001000
00000000
00000000
00000000
,
00010000
00000000
00000010
00000000
,
00000100
00000000
00000010
00000000
,
00001000
00000000
00000001
00000000
,
00001000
00000000
00000000
00000000
,
00000100
00000000
00000010
00000000
,
00000001
00000000
00000100
00000000
,
00000010
00000000
00010000
00000000
,
00001000
00000000
00100000
00000000
,
01000000
00000000
10000000
00000000
,
00010000
00000000
01000000
00000000
,
00100000
00000000
01000000
00000000
,
00001000
00000000
00010000
00000000
,
00000100
00000000
00000000
00000000
;

//---------------dance-double - ----------------
#NOTES:
     dance-double:
     :
     Easy:
     11:
     0.381772,0.396197,0.000000,0.013883,0.208239,385.000000,385.000000,0.000000,2.000000,0.000000,0.000000,0.381772,0.396197,0.000000,0.013883,0.208239,385.000000,385.000000,0.000000,2.000000,0.000000,0.000000:
00000000
00000000
00000000
00000000
,
00000000
00000000
00000000
00000000
,
00000000
00000000
00000000
00000000
,
00000000
00000000
00000000
00000000
,
00010000
00000100
00001000
00000001
,
00000100
00000010
00010000
00001000
,
01000000
00010000
00100000
01000000
,
10000000
00100000
01000000
00001000
,
00010000
00000000
00000010
00010000
00000010
00000000
00010000
00000000
,
00000100
00000000
00000000
00000000
00001000
00000000
00000000
00000001
00001000
00000000
00000000
00000000
00000001
00001000
00000000
00000000
,
00000100
00000000
00010000
00000000
00001000
00000000
01000000
00100000
,
01000000
00000000
00000000
00000000
00001000
00000000
00000000
00000000
00100000
00010000
00000000
00000000
00100000
00000000
00000000
00010000
,
00100000
00000000
00001000
00000000
00010000
00000100
00010000
00000000
,
00000100
00000000
00000000
00000000
00001000
00000000
00000000
00000000
00000010
00000000
00000000
00000100
00000010
00000000
00000000
00000000
,
00000100
00000010
00000000
00000000
00010000
00000000
00000000
00000000
00001000
00000000
00000000
00000000
00100000
00000000
00000000
00000000
,
01000000
00000000
10000000
00000000
01000000
00000000
00000000
00000000
00100000
00000000
00000000
00000000
00010000
10000000
00000000
00000000
,
00010000
00000000
00000000
10000000
00010000
00000000
00000000
00000000
01000000
00000000
00000000
00000000
00001000
00000000
01000000
00000000
,
00001000
00000000
00000000
00000000
00010000
00000000
00000000
00000000
00000010
00000000
00000000
00000000
00001000
00000000
00000000
00000001
,
00001000
00000000
00000000
00000000
00000001
00001000
00000000
00000000
00000010
00000000
00000000
00000000
00001000
00000000
00000000
00000000
,
00000100
00000000
00000010
00000001
00000010
00000000
00000100
00000000
,
00010000
00001000
00000000
00000000
00010000
00000000
00000000
00001000
00010000
00000000
00000000
00000000
00001000
00000000
00000000
00000000
,
01000000
00010000
01000000
00000000
00100000
00000000
10000000
00000000
,
00010000
00000000
00000000
10000000
00100000
00000000
00000000
00000000
10000000
00100000
00000000
00000000
10000000
00000000
00000000
00000000
,
00010000
00000000
01000000
00000000
00001000
01000000
00001000
00000000
,
00010000
00000000
00000000
00000000
00000100
00000010
00000000
00000000
00000100
00000000
00000000
00000010
00000100
00000000
00000000
00000000
,
00001000
00000000
00000010
00010000
00001000
00000000
00010000
00000000
,
00000100
00000000
00000000
00000000
00001000
00000000
00000000
00000001
00001000
00000000
00000000
00000000
00000100
00001000
00000000
00000000
,
00000100
00000000
00010000
00000000
00001000
00000000
01000000
00010000
,
00100000
00000000
00000000
00000000
00010000
00000000
00000000
00000000
01000000
00010000
00000000
00000000
00100000
00000000
00000000
00010000
,
01000000
00000000
00001000
00000000
00100000
01000000
10000000
00000000
,
00010000
00000000
00000000
00000000
01000000
00000000
00000000
00000000
00001000
00000000
00000000
00010000
00000100
00000000
00000000
00000000
,
00000010
00000001
00000000
00000000
00001000
00000000
00000000
00000000
00000010
00000000
00000000
00000000
00010000
00000000
00000000
00000000
,
00000100
00001000
00000001
00000100
,
00000001
00001000
00000010
00010000
,
00001000
00100000
01000000
00100000
,
00010000
10000000
01000000
00100000
,
00001000
00010000
00000010
00001000
,
00000100
00010000
00001000
00010000
,
00000100
00001000
00000001
00000010
,
00000100
00010000
00001000
01000000
,
00010000
00000000
00000000
00000000
00000000
00000000
00100000
00000000
00000000
00000000
00000000
00001000
00000000
00000000
00000000
00000000
,
01000000
00000000
00000000
00000000
00000000
00000000
00010000
00000000
00000000
00000000
00000000
10000000
00000000
00000000
00000000
00000000
,
00100000
00000000
00000000
01000000
00000000
00000000
00001000
00000000
,
00000000
00010000
00000000
00000000
00000000
00000000
00000000
00000010
00000000
00000000
00000000
00000000
00001000
00000000
00000000
00000000
,
00000001
00000000
00000000
00000000
00000000
00000000
00000010
00000000
00000000
00000000
00000000
00000100
00000000
00000000
00000000
00000000
,
00010000
00000000
00000000
00000000
00000000
00000000
00001000
00000000
00000000
00000000
00000000
00100000
00000000
00000000
00000000
00000000
,
01000000
00000000
00000000
10000000
00000000
00000000
00010000
00000000
,
00000000
01000000
00000000
00000000
00000000
00000000
00000000
00001000
00000000
00000000
00000000
00000000
00010000
00000000
00000000
00000000
,
00000100
00000000
00000000
00000000
00000000
00000000
00001000
00000000
00000000
00000000
00000000
00000001
00000000
00000000
00000000
00000000
,
00000100
00000000
00000000
00000000
00000000
00000000
00000010
00000000
00000000
00000000
00000000
00001000
00000000
00000000
00000000
00000000
,
00000100
00000000
00000000
00010000
00000000
00000000
00001000
00000000
,
00000000
00100000
00000000
00000000
00000000
00000000
00000000
00010000
00000000
00000000
00000000
00000000
10000000
00000000
00000000
00000000
,
00100000
00000000
00000000
00000000
00000000
00000000
01000000
00000000
00000000
00000000
00000000
00001000
00000000
00000000
00000000
00000000
,
00010000
00000000
00000000
00000000
00000000
00000000
00000010
00000000
00000000
00000000
00000000
00001000
00000000
00000000
00000000
00000000
,
00000000
00000200
00000000
00000000
00000000
00000000
00020300
00000000
00000000
00000000
00000000
00000000
00000000
00000000
00000000
00000000
,
00000000
00000000
00000000
00000010
00000000
00000000
00030010
00000000
,
00010000
00000000
00000000
00000000
00001000
00000000
00000000
01000000
00010000
00000000
00000000
00000000
10000000
00010000
00000000
00000000
,
00100000
00000000
00001000
00000000
01000000
00000000
00010000
00100000
,
00001000
00000000
00000000
00000000
01000000
00000000
00000000
00000000
00001000
00100000
00000000
00000000
00001000
00000000
00000000
01000000
,
00100000
00000000
10000000
00000000
00010000
01000000
00001000
00000000
,
00010000
00000000
00000000
00000000
00000100
00000000
00000000
00000000
00010000
00000000
00000000
00000010
00000100
00000000
00000000
00000000
,
00000001
00000100
00000000
00000000
00000010
00000000
00000000
00000000
00010000
00000000
00000000
00000000
00000100
00000000
00000000
00000000
,
00001000
00000000
00000001
00000000
00000100
00000000
00000000
00000000
00000001
00000000
00000000
00000000
00000010
00000100
00000000
00000000
,
00001000
00000000
00000000
00000010
00010000
00000000
00000000
00000000
00001000
00000000
00000000
00000000
01000000
00000000
00010000
00000000
,
10000000
00000000
00000000
00000000
00100000
00000000
00000000
00000000
01000000
00000000
00000000
00000000
00010000
00000000
00000000
00100000
,
00001000
00000000
00000000
00000000
00010000
00000100
00000000
00000000
00010000
00000000
00000000
00000000
00001000
00000000
00000000
00000000
,
01000000
00000000
00001000
00100000
00010000
00000000
10000000
00000000
,
00100000
01000000
00000000
00000000
00001000
00000000
00000000
00010000
00000010
00000000
00000000
00000000
00000100
00000000
00000000
00000000
,
00000001
00001000
00000010
00000000
00001000
00000000
00000100
00000000
,
00010000
00000000
00000000
00001000
01000000
00000000
00000000
00000000
00010000
10000000
00000000
00000000
01000000
00000000
00000000
00000000
,
00100000
00000000
00001000
00000000
00010000
00000100
00001000
00000000
,
00000001
00000000
00000000
00000000
00000100
00000010
00000000
00000000
00010000
00000000
00000000
00001000
01000000
00000000
00000000
00000000
,
00010000
00100000
00001000
00010000
,
00000100
00000010
00000001
00001000
,
00000010
00010000
00001000
00100000
,
01000000
10000000
00010000
01000000
,
00010000
10000000
00100000
01000000
,
00001000
00010000
00000100
00001000
,
00000001
00001000
00000010
00001000
,
00000100
00010000
00000100
00000010
,
00000001
00000000
00001000
00000100
00010000
00000000
00001000
00000000
,
00100000
00000000
00000000
00000000
01000000
00000000
00000000
10000000
00010000
00000000
00000000
00000000
01000000
00001000
00000000
00000000
,
00010000
00000000
00000010
00000000
00010000
00000000
00001000
00100000
,
00010000
00000000
00000000
00000000
10000000
00000000
00000000
00000000
00010000
01000000
00000000
00000000
00001000
00000000
00000000
00010000
,
00000010
00000000
00001000
00000000
00000100
00010000
00001000
00000000
,
01000000
00000000
00000000
00000000
00100000
00000000
00000000
00000000
10000000
00000000
00000000
00100000
01000000
00000000
00000000
00000000
,
00001000
00010000
00000000
00000000
00000010
00000000
00000000
00000000
00000100
00000000
00000000
00000000
00000001
00000000
00000000
00000000
,
00001000
00000000
00000100
00000000
00010000
00000000
00000000
00000000
00000010
00000000
00000000
00000000
00001000
00000100
00000000
00000000
;

//---------------dance-double - ----------------
#NOTES:
     dance-double:
     :
     Medium:
     15:
     0.636617,0.670964,0.000000,0.013883,0.246417,642.000000,642.000000,0.000000,2.000000,0.000000,0.000000,0.636617,0.670964,0.000000,0.013883,0.246417,642.000000,642.000000,0.000000,2.000000,0.000000,0.000000:
00000000
00000000
00000000
00000000
,
00000000
00000000
00000000
00000000
,
00000000
00000000
00000000
00000000
,
00000000
00000000
00000000
00000000
,
00010000
00001000
01000000
00001000
00010000
00000010
00000100
00000000
,
00000001
00001000
00000100
00010000
00001000
00100000
00010000
00000000
,
10000000
01000000
00100000
00001000
00010000
00000010
00001000
00000000
,
00000001
00000100
00001000
00000100
00000010
00010000
00001000
00000000
,
00100000
01000000
10000000
00010000
00100000
01000000
10000000
00000000
,
00010000
00000000
01000000
00000000
00001000
00000000
01000000
00001000
00010000
00000000
00000010
00000000
00000100
00000001
00000000
00000000
,
00000010
00000100
00010000
00001000
00100000
00010000
10000000
01000000
,
00100000
00000000
00001000
00000000
00010000
00000000
00000100
00000000
00000010
00000001
00001000
00000000
00000100
00000000
00000000
00001000
,
00000010
00010000
00001000
01000000
00100000
10000000
00010000
00000000
,
00100000
00000000
00010000
00000000
01000000
00000000
00001000
00000000
00100000
00000000
00010000
01000000
00001000
00000000
00000000
00000000
,
00010000
00000100
00001000
00000000
00000001
00000000
00000010
00000000
00000100
00000000
00010000
00000000
00000010
00000000
00000000
00000000
,
00000100
00000000
00001000
00000000
00000100
00000000
00000001
00000000
00001000
00000000
00000010
00000000
00010000
00001000
00000000
00000000
,
01000000
00000000
00001000
00100000
00010000
00000000
10000000
00000000
01000000
00000000
00100000
00000000
00010000
00000000
01000000
00000000
,
00001000
00000000
00010000
00000000
00000100
00000000
00010000
00000000
00001000
00000000
01000000
00000000
00010000
00000000
10000000
00100000
,
01000000
00000000
00001000
00000000
00010000
00000010
00001000
00000000
00000100
00000000
00010000
00000000
00000010
00000000
00001000
00000000
,
00000100
00000001
00000100
00001000
00000010
00010000
00001000
00100000
,
00010000
10000000
01000000
00000000
00100000
00000000
00010000
01000000
00001000
00000000
00010000
00000000
00000010
00000000
00001000
00000000
,
00000001
00000100
00000010
00010000
00001000
00100000
00010000
00100000
,
01000000
00000000
10000000
00100000
01000000
00000000
00001000
00000000
00010000
00000100
00001000
00000000
00000001
00000000
00000100
00000000
,
00000010
00000001
00000010
00001000
00000100
00010000
00001000
00100000
,
00010000
00000000
01000000
00000000
00001000
00100000
00010000
00000000
00100000
00000000
00001000
01000000
00010000
00000000
10000000
00000000
,
01000000
00100000
00001000
00010000
00000010
00000100
00000001
00001000
,
00000100
00000000
00010000
00000000
00000010
00000000
00001000
00000100
00010000
00000000
00001000
00000000
01000000
00010000
10000000
00000000
,
01000000
10000000
00010000
01000000
10000000
01000000
00010000
00100000
,
00001000
00000000
00010000
00000000
00000010
00000000
00001000
00000000
00000001
00000100
00000010
00000000
00010000
00000000
00001000
00010000
,
00000100
00001000
00000010
00010000
00000100
00001000
00000001
00000100
,
00000010
00000000
00010000
00000000
00001000
00000000
00010000
00000000
00000010
00000000
00001000
00000100
00010000
00000000
00001000
00000000
,
01000000
00100000
10000000
00000000
01000000
00000000
00010000
00000000
01000000
00000000
10000000
00000000
00010000
00000000
00100000
00000000
,
00001000
00010000
00000100
00001000
,
00000010
00000100
00000001
00001000
,
00000100
00010000
00001000
01000000
,
00010000
00100000
00001000
01000000
,
00010000
10000000
01000000
00100000
,
00001000
00010000
00000010
00001000
,
00000001
00000100
00000010
00010000
,
00001000
00100000
00010000
10000000
,
01000000
00000000
00000000
00000000
00001000
00000000
00010000
00000000
00000010
00000000
00000000
00001000
00000100
00000000
00000000
00000000
,
00010000
00000000
00000000
00000000
00000100
00000000
00001000
00000000
00000001
00000000
00000000
00000010
00000001
00000000
00000000
00000000
,
00001000
00000000
00000100
00010000
00001000
00000000
00100000
00000000
,
00010000
01000000
00000000
00000000
00001000
00000000
00000000
01000000
00100000
00000000
00000000
00000000
10000000
00000000
00000000
00000000
,
00010000
00000000
00000000
00000000
00100000
00000000
00001000
00000000
00010000
00000000
00000000
00000100
00010000
00000000
00000000
00000000
,
00000100
00000000
00000000
00000000
00001000
00000000
00000100
00000000
00000010
00000000
00000000
00000001
00001000
00000000
00000000
00000000
,
00000010
00000000
00010000
00001000
01000000
00000000
00100000
00000000
,
10000000
00010000
00000000
00000000
01000000
00000000
00000000
00001000
00010000
00000000
00000000
00000000
00000010
00000000
00000000
00000000
,
00001000
00000000
00000000
00000000
00000001
00000000
00001000
00000000
00000100
00000000
00000000
00010000
00001000
00000000
00000000
00000000
,
01000000
00000000
00000000
00000000
00010000
00000000
00100000
00000000
01000000
00000000
00000000
10000000
00010000
00000000
00000000
00000000
,
00100000
00000000
00010000
01000000
00001000
00000000
00010000
00000000
,
00000010
00010000
00000000
00000000
00001000
00000000
00000000
00010000
00000100
00000000
00000000
00000000
00000010
00000000
00000000
00000000
,
00000100
00000000
00000000
00000000
00010000
00000000
00001000
00000000
01000000
00000000
00000000
00100000
10000000
00000000
00000000
00000000
,
00100000
00000000
00000000
00000000
01000000
00000000
00001000
00000000
00010000
00000000
00000000
00000010
00001000
00000000
00000000
00000000
,
00000000
00000002
00000000
00000000
00000000
00000000
00000203
00000000
00000000
00000000
00000000
00000000
00000000
00000000
00000000
00000000
,
00000000
00000000
00000000
00001000
00000000
00000000
00000301
00000000
,
00000010
00000000
00000100
00000000
00010000
00000000
00001000
01000000
00010000
00000000
00100000
00000000
00001000
01000000
00010000
00000000
,
00100000
00000000
00010000
00000000
10000000
00000000
01000000
00000000
00100000
00000000
00001000
00010000
00000010
00000000
00001000
00000000
,
00000001
00000100
00000010
00000000
00001000
00000000
00000100
00000000
00001000
00000010
00010000
00000000
00001000
00000000
01000000
00000000
,
00001000
00100000
00010000
00000000
01000000
00000000
10000000
00000000
01000000
00000000
00010000
00000000
00100000
00000000
00001000
00000000
,
00010000
00000000
00000010
00000000
00000100
00000000
00000001
00000000
00001000
00000000
00000100
00010000
00001000
00000000
01000000
00000000
,
00010000
10000000
00100000
00000000
10000000
00000000
00010000
00000000
00100000
00000000
00001000
00010000
00000100
00000000
00000010
00000000
,
00000001
00000000
00000100
00000000
00000010
00000000
00010000
00000000
00001000
00000000
01000000
00000000
00010000
10000000
00100000
00000000
,
10000000
01000000
00100000
01000000
00100000
00000000
00001000
01000000
00010000
00000000
01000000
00000000
10000000
00000000
01000000
00000000
,
00010000
00000000
00100000
00000000
01000000
00000000
00100000
00000000
00001000
00000000
00010000
00000010
00001000
00000000
00000001
00000100
,
00000010
00000000
00000100
00000000
00000001
00000010
00000100
00000000
00010000
00000000
00001000
01000000
00010000
00000000
01000000
00000000
,
00001000
00010000
00000010
00001000
00000100
00010000
00001000
01000000
,
00010000
00100000
00001000
00000000
00010000
00000000
00000100
00001000
00000001
00000000
00000010
00000000
00001000
00000000
00000010
00000000
,
00000001
00000000
00001000
00000000
00000100
00000000
00010000
00000000
00000010
00000000
00001000
00000100
00010000
00000000
00001000
00000000
,
00100000
00000000
00010000
10000000
01000000
00000000
00100000
00000000
01000000
10000000
00010000
10000000
00010000
00000000
01000000
00000000
,
00001000
01000000
00010000
00100000
00001000
00010000
00000100
00001000
,
00000001
00001000
00000100
00000000
00010000
00001000
00100000
00001000
00100000
00000000
00010000
01000000
00001000
00000000
00010000
00000000
,
00000100
00001000
00000010
00010000
00000010
00000100
00000001
00001000
,
00000100
00001000
00000010
00010000
00000100
00001000
00000001
00000100
,
00000010
00001000
00000100
00010000
00001000
00100000
00010000
01000000
,
10000000
01000000
00010000
00100000
00001000
00010000
00000010
00001000
,
00000001
00000010
00000100
00010000
00001000
00010000
00000100
00000010
,
00000001
00001000
00000010
00001000
00000100
00010000
00001000
01000000
,
00010000
10000000
01000000
00100000
00010000
10000000
00010000
01000000
,
10000000
01000000
00010000
00100000
00001000
00010000
00000100
00001000
,
00000001
00000100
00000010
00001000
00000001
00001000
00000100
00010000
,
00001000
00000000
00100000
00000000
00010000
00000000
10000000
01000000
00100000
00000000
00001000
00000000
00010000
00000100
00001000
00000000
,
00000010
00010000
00001000
00100000
00010000
01000000
00001000
00010000
,
01000000
00000000
00010000
00000000
00001000
00000000
00100000
00000000
00010000
01000000
00001000
00000000
00010000
00000000
00000100
00000010
,
00000001
00001000
00000100
00001000
00000010
00000100
00000001
00000010
,
00000100
00000000
00010000
00000000
00001000
00000000
00100000
00000000
00010000
00000000
10000000
01000000
00100000
00000000
00001000
00000000
,
00010000
00000010
00001000
00000000
00000001
00000000
00000010
00000000
00000100
00000000
00010000
00000000
00001000
00000000
00100000
00000000
,
01000000
00000000
00010000
00000000
01000000
00000000
10000000
00000000
00010000
00000000
00100000
00000000
00001000
00010000
00000100
00000000
;

//---------------dance-double - ----------------
#NOTES:
     dance-double:
     :
     Hard:
     17:
     0.799242,0.854562,0.000000,0.000000,1.329261,806.000000,806.000000,0.000000,0.000000,0.000000,0.000000,0.799242,0.854562,0.000000,0.000000,1.329261,806.000000,806.000000,0.000000,0.000000,0.000000,0.000000:
00000000
00000000
00000000
00000000
,
00000000
00000000
00000000
00000000
,
00000000
00000000
00000000
00000000
,
00000000
00000000
00000000
00000000
,
00010000
00001000
00000000
00010000
00001000
00010000
00000000
00000100
00000000
00000010
00000001
00000000
00000100
00000010
00000100
00000010
,
00000000
00001000
00000100
00000000
00001000
00000100
00001000
00000000
00000100
00000000
00010000
00000010
00000000
00001000
00000100
00001000
,
00000100
00000000
00010000
00000010
00000000
00010000
00000010
00010000
00000000
00001000
00000000
00100000
00010000
00000000
10000000
00010000
,
01000000
00100000
00000000
10000000
00010000
00000000
00100000
01000000
00010000
00000000
01000000
00000000
10000000
00100000
00000000
01000000
,
00100000
01000000
00100000
00000000
01000000
00100000
00000000
10000000
01000000
00100000
00000000
00001000
00000000
00010000
00001000
00000000
,
00010000
00000100
00001000
00000100
00000000
00001000
00000100
00000000
00001000
00000010
00010000
00000000
00000100
00000000
00000010
00000100
,
00000000
00000010
00000001
00001000
00000001
00000000
00001000
00000100
00000000
00010000
00001000
01000000
00000000
00010000
00000000
00100000
,
01000000
00000000
10000000
00010000
01000000
00100000
00000000
00010000
00100000
00000000
01000000
00010000
10000000
00000000
01000000
00000000
,
00100000
00000000
00000000
00001000
00010000
00000100
00001000
00000100
00000000
00000000
00010000
00000010
00001000
00000010
00000000
00000000
,
00000100
00000000
00000000
00000010
00000000
00000000
00010000
00000100
00001000
00000100
00010000
00000000
00000000
00001000
01000000
00010000
,
01000000
00000000
00000000
00001000
00000000
00000000
00010000
00000000
00000000
00000100
00001000
00000100
00000000
00010000
00000000
00000000
,
00000010
00000100
00000000
00001000
00000000
00000000
00000100
00000000
00000000
00000010
00000000
00000000
00001000
00000100
00000010
00000001
,
00001000
00000000
00000000
00000001
00000010
00000100
00001000
00000000
00000000
00000010
00000000
00000000
00000100
00000000
00000000
00000001
,
00001000
00000001
00000010
00000100
00000000
00000000
00001000
00000100
00010000
00000100
00000000
00000000
00010000
00000000
00000000
00001000
,
00000000
00000000
01000000
00010000
10000000
01000000
00100000
00000000
00000000
00001000
00010000
00000010
00001000
00000000
00000000
00000001
,
00001000
00000000
00000010
00000000
00000000
00000001
00000010
00000100
00000001
00001000
00000000
00000000
00000100
00010000
00001000
01000000
,
00000000
00000000
00100000
00000000
00000000
10000000
00000000
00000000
00010000
01000000
00100000
10000000
00010000
00000000
00000000
01000000
,
00001000
00010000
00000010
00000000
00000000
00001000
00000000
00000000
00000100
00000000
00000000
00001000
00000001
00001000
00000010
00000100
,
00000000
00000000
00000001
00000000
00000010
00000100
00000000
00000000
00010000
00000000
00000000
00001000
00000000
00000000
00100000
00010000
,
10000000
00100000
01000000
00000000
00000000
10000000
01000000
00100000
10000000
00000000
00000000
00010000
00000000
00000000
00100000
00000000
,
00000000
01000000
00100000
00010000
10000000
00000000
00000000
00000000
01000000
00100000
00010000
10000000
00000000
00000000
01000000
00000000
,
00000000
00100000
00000000
00000000
01000000
10000000
00010000
01000000
00100000
00000000
00000000
10000000
00100000
01000000
00010000
00000000
,
00000000
00100000
00000000
00000000
00001000
00000000
00000000
01000000
00010000
01000000
00001000
00010000
00000000
00000000
00000100
00001000
,
00000001
00000100
00000000
00000000
00001000
00000000
00000000
00000100
00000000
00000000
00000010
00001000
00000001
00000010
00000100
00000000
,
00000000
00010000
00000010
00001000
00000001
00000000
00000000
00000100
00000000
00000000
00000010
00000000
00000000
00001000
00000100
00000010
,
00000001
00001000
00000000
00000000
00000010
00010000
00001000
00100000
00000000
00000000
01000000
00000000
00000000
00100000
00000000
00000000
,
00010000
01000000
00100000
10000000
00010000
00000000
00000000
01000000
00001000
00010000
00000100
00000000
00000000
00001000
00000000
00000000
,
00000010
00000000
00000000
00000100
00001000
00000100
00000010
00001000
00000000
00000000
00000100
00000010
00000001
00001000
00000000
00000000
,
00000001
00000100
00000010
00000100
,
00001000
00000100
00000001
00000100
,
00000010
00010000
00001000
00010000
,
01000000
00010000
00001000
00010000
,
00000100
00001000
00000010
00000001
,
00001000
00000100
00000001
00000010
,
00001000
00000001
00000100
00001000
,
00000010
00000001
00001000
00000100
,
00000010
00001000
00000000
00000010
00001000
00000010
00000000
00010000
00000000
00001000
01000000
00000000
00010000
10000000
00010000
10000000
,
00000000
00100000
01000000
00000000
00100000
01000000
00100000
00000000
01000000
00000000
00001000
00100000
00000000
00010000
01000000
00010000
,
01000000
00000000
00001000
00100000
00000000
00001000
00100000
00001000
00000000
00010000
00000000
00000100
00001000
00000000
00000001
00001000
,
00000100
00000010
00000000
00000001
00001000
00000000
00000010
00010000
00001000
00000000
00100000
00000000
00010000
01000000
00000000
00001000
,
01000000
00001000
01000000
00000000
00001000
01000000
00000000
00010000
00100000
01000000
00000000
10000000
00000000
00010000
10000000
00000000
,
00010000
01000000
00100000
01000000
00000000
00100000
01000000
00000000
00100000
10000000
00010000
00000000
00100000
00000000
00001000
00100000
,
00000000
00001000
01000000
00010000
01000000
00000000
00010000
00100000
00000000
00001000
01000000
00010000
00000000
10000000
00000000
00100000
,
01000000
00000000
00001000
00010000
00000010
00001000
00000000
00000100
00010000
00000000
00001000
00100000
00010000
00000000
01000000
00000000
,
00100000
00000000
00000000
10000000
00010000
01000000
00100000
01000000
00000000
00000000
00010000
00100000
00001000
00100000
00000000
00000000
,
00010000
00000000
00000000
00100000
00000000
00000000
00001000
01000000
00010000
01000000
00001000
00000000
00000000
00010000
00000100
00001000
,
00000100
00000000
00000000
00010000
00000000
00000000
00001000
00000000
00000000
01000000
00010000
01000000
00100000
10000000
00000000
00000000
,
00010000
10000000
01000000
00100000
00000000
00000000
00010000
00000000
00000000
01000000
00000000
00000000
00010000
00100000
01000000
10000000
,
00010000
00000000
00000000
10000000
00100000
01000000
00010000
00000000
00000000
00100000
00000000
00000000
01000000
00000000
00000000
10000000
,
00010000
10000000
01000000
00100000
00000000
00000000
00010000
00100000
00001000
00100000
00000000
00000000
00001000
00000000
00000000
00010000
,
00000000
00000000
00000010
00001000
00000001
00000100
00000010
00000000
00000000
00010000
00001000
01000000
00010000
00000000
00000000
00100000
,
00000000
00000000
01000000
00000000
00000000
00100000
01000000
10000000
00010000
01000000
00000000
00000000
00001000
00010000
00000010
00001000
,
00000010
00000000
00010000
00000000
00000000
00001000
00000000
00000000
00100000
00010000
10000000
01000000
00100000
00000000
00000000
00001000
,
00010000
00000010
00001000
00000000
00000000
00000001
00000000
00000000
00000100
00000000
00000000
00000001
00001000
00000001
00000010
00000100
,
00000000
00000000
00010000
00001000
01000000
00010000
00000000
00000000
00100000
00000000
00000000
00001000
00000000
00000000
00010000
00000010
,
00001000
00000001
00000100
00000000
00000000
00001000
00000100
00000010
00001000
00000000
00000000
00000100
00000000
00000000
00010000
00000000
,
00000000
00000100
00001000
00000001
00000010
00000100
00000000
00000000
00010000
00001000
00100000
00010000
00000000
00000000
10000000
00000000
,
00000000
01000000
00000000
00000000
10000000
00100000
01000000
00010000
10000000
00000000
00000000
01000000
10000000
00010000
00100000
00000000
,
00000000
00001000
00000000
00000000
00010000
00000000
00000000
00000010
00001000
00000010
00010000
00001000
00000000
00000000
00100000
00010000
,
10000000
00100000
00000000
00000000
00010000
00000000
00000000
00100000
00000000
00000000
01000000
00010000
10000000
01000000
00100000
00000000
,
00000000
00001000
01000000
00010000
10000000
00000000
00000000
00100000
00000000
00000000
01000000
00000000
00000000
00010000
00100000
01000000
,
10000000
00010000
00000000
00000000
01000000
00001000
00010000
00000100
00000000
00000000
00000010
00000000
00000000
00000100
00000000
00000000
,
00001000
00000010
00000100
00000001
00001000
00000000
00000000
00000100
00010000
00001000
01000000
00000000
00000000
00010000
00000000
00000000
,
10000000
00000000
00000000
00100000
00010000
00100000
01000000
00010000
00000000
00000000
00100000
01000000
10000000
00010000
00000000
00000000
,
01000000
00000000
00000000
00010000
00000000
00000000
00100000
01000000
10000000
00010000
00100000
00000000
00000000
00001000
00010000
00000100
,
00001000
00000000
00000000
00000100
00000000
00000000
00000010
00000000
00000000
00000001
00000010
00000100
00001000
00000001
00000000
00000000
,
00000010
00000100
00000010
00000001
00000000
00000000
00001000
00000000
00000000
00000100
00000000
00000000
00010000
00001000
00100000
00010000
,
10000000
00000000
00000000
00100000
01000000
00000000
10000000
00000000
00000000
01000000
00000000
00000000
00100000
00000000
00000000
10000000
,
00010000
10000000
01000000
00100000
00000000
00001000
00000000
00010000
00000100
00000000
00001000
00000001
00001000
00000001
00000000
00000100
,
00000010
00000000
00010000
00000010
00001000
00000000
00000001
00000000
00000010
00000001
00000000
00001000
00000001
00000010
00000100
00000000
,
00010000
00000100
00000000
00001000
00000010
00010000
00000000
00000100
00000000
00001000
00000100
00000000
00010000
00000010
00001000
00000001
,
00000000
00000100
00000010
00000000
00001000
00000100
00000010
00000000
00001000
00000000
00000010
00000100
00000000
00001000
00000010
00010000
,
00001000
00000000
00100000
00010000
00000000
10000000
00010000
00100000
00000000
00001000
00000000
00010000
00000100
00000000
00001000
00000001
,
00000010
00000100
00000000
00010000
00000100
00000000
00001000
00000010
00010000
00000000
00001000
00000000
00100000
00001000
00000000
01000000
,
00100000
10000000
00010000
00000000
00100000
00010000
00000000
10000000
00100000
01000000
00000000
00001000
00000000
00010000
00000100
00000000
,
00001000
00000001
00000010
00000100
00000000
00000001
00000100
00000000
00001000
00000010
00000100
00000000
00000001
00000000
00000010
00000100
,
00000000
00010000
00001000
00100000
00010000
00000000
10000000
01000000
00000000
10000000
00100000
01000000
00010000
10000000
00000000
01000000
,
00100000
00000000
00001000
00010000
00000100
00001000
00000000
00000010
00010000
00000000
00000100
00010000
00000100
00000000
00000010
00000000
,
00000001
00001000
00000000
00000100
00010000
00001000
00100000
00000000
00010000
00100000
00000000
00001000
00100000
00010000
00000000
10000000
,
00000000
01000000
00010000
00000000
01000000
10000000
00010000
00100000
00000000
00001000
00100000
00000000
00010000
01000000
00001000
00000000
,
00010000
00000000
00000000
00000100
00001000
00000100
00000010
00000001
00001000
00000000
00000100
00010000
00001000
00100000
00010000
00000000
,
10000000
00100000
00000000
01000000
00100000
00000000
10000000
01000000
00100000
00010000
10000000
00100000
10000000
00010000
00100000
01000000
,
10000000
00010000
00000000
00100000
00001000
00000000
01000000
00000000
00010000
00100000
00010000
10000000
00100000
01000000
00000000
00010000
,
00100000
01000000
00010000
01000000
00100000
00000000
00010000
01000000
00100000
10000000
00010000
00000000
00100000
00001000
00010000
00000010
;
