#VERSION:0.83;
#TITLE:the worst song anyone ever composed 1 + 2;
#SUBTITLE:;
#ARTIST:satzukaze;
#TITLETRANSLIT:;
#SUBTITLETRANSLIT:;
#ARTISTTRANSLIT:;
#GENRE:PIANO BULLSHIT;
#CREDIT:;
#MUSIC:worst song ever.ogg;
#BANNER:;
#BACKGROUND:;
#CDTITLE:yosefu-cdtitle-v3.png;
#SAMPLESTART:6.978000;
#SAMPLELENGTH:2.000000;
#SELECTABLE:YES;
#OFFSET:0.000000;
#BPMS:0.000000=240.770000
,28.000000=240.000000
,61.000000=228.000000
,63.000000=240.000000
,84.000000=260.000000
,85.000000=243.000000
,86.000000=240.000000
;
#STOPS:;
#SPEEDS:0.000000=1.000000=0.000000=0;
#SCROLLS:0.000000=1.000000;
#TICKCOUNTS:0.000000=4;
#TIMESIGNATURES:0.000000=4=4;
#LABELS:0.000000=Song Start;
#COMBOS:0.000000=1;
#ORIGIN:Shitpost Release (2023);
#TAGS:;
#PREVIEWVID:;
#JACKET:;
#CDIMAGE:;
#DISCIMAGE:;
#BGCHANGES:;
#FGCHANGES:;

//--------------- dance-single - ----------------
#NOTEDATA:;
#STEPSTYPE:dance-single;
#DESCRIPTION:;
#DIFFICULTY:Challenge;
#METER:20;
#RADARVALUES:0,0,0,0,0;
#NOTES:
1000
0100
0010
0001
1000
0001
0010
0100
1000
0100
0010
0001
1000
0001
0010
0100
,
1000
0100
0010
0001
1000
0001
0100
0010
1000
0001
0100
0010
1000
0100
0010
0001
,
1000
0010
0100
0001
1000
0100
0010
0001
1000
0010
0100
0001
1000
0100
0010
0001
,
0100
0001
1000
0100
0010
0001
0100
0010
1000
0001
0010
0100
1000
0010
0100
0001
,
1000
0000
0100
0010
0001
0000
0100
0010
1000
0000
0100
0010
0001
0000
1000
0010
,
0100
0000
0001
0010
0100
0000
1000
0001
0100
0010
1000
0001
0010
0100
1000
0001
,
0100
0000
0000
0000
0001
0000
0100
0010
1000
0000
0000
0000
0100
0000
0000
0000
,
1000
0100
0010
0001
1000
0100
0010
0001
1000
0100
0010
0001
1000
0100
0010
0001
,
1000
0010
0100
0001
1000
0010
0100
0001
1000
0010
0100
0001
1000
0000
0000
0000
,
0001
0010
0100
1000
0001
0010
0100
1000
0001
0100
0010
1000
0001
0100
0010
1000
,
0001
0010
0100
1000
0010
0100
0001
1000
0100
0010
0001
0100
0010
1000
0001
0010
,
0100
0000
0000
0000
0000
0000
0000
0000
1001
0000
0000
0000
0001
0100
0010
0100
,
0001
0000
0000
0000
1001
0000
0000
0000
1000
0000
0100
0000
0010
0001
0010
0100
,
1000
0001
0100
0010
1000
0001
0010
0100
0010
0001
1000
0010
0100
0001
1000
0010
,
1000
0100
0010
0001
1000
0010
0100
0001
0010
0100
1000
0001
0100
0010
1000
0001
,
1000
0000
0000
0000
0000
0010
1000
0010
,
0100
0000
0001
1000
0100
0000
0010
0000
0001
1000
0010
0000
0100
0001
1000
0000
,
0010
0000
0000
0000
1000
0001
0010
0100
1000
0001
0100
0010
1000
0001
0010
0100
,
1000
0010
0100
0001
1000
0100
0010
0100
1000
0001
0100
0001
0010
0100
1000
0001
,
0100
0001
0010
0100
1000
0001
1000
0010
1000
0100
1000
0010
1000
0001
0100
0001
,
0010
0100
1000
0001
0100
0010
1000
0001
0010
0100
1000
0001
0100
0010
1000
0001
,
0000
0000
0000
0000
0000
0010
0000
0000
0000
0000
0000
0000
0100
0000
0000
0000
0000
0000
0000
0000
0000
0000
0000
0000
1000
0000
0000
0100
0000
0000
0010
0000
0000
0001
0000
0000
0100
0000
0000
0001
0000
0000
1000
0000
0000
0001
0000
0000
,
0010
0100
1000
0010
1000
0001
0010
0100
0010
0001
1000
0010
0100
0010
1000
0001
,
0010
0100
1000
0010
0100
0001
1000
0100
0010
0001
1000
0010
0100
0010
1000
0001
,
0010
0100
1000
0001
0100
0001
0010
0100
1000
0001
1000
0010
1000
0100
0010
0001
,
1000
0001
0100
0001
0010
0100
1000
0010
0100
0001
1000
0100
0010
0001
0100
0010
,
1000
0001
0010
0100
1000
0001
1000
0010
1000
0100
1000
0010
1000
0001
0100
0001
,
0010
0100
1000
0001
1000
0010
0100
0001
1000
0100
0010
0001
0100
0010
1000
0001
,
0010
0100
1000
0001
0100
0010
1000
0100
0010
0001
0100
0001
1000
0010
1000
0100
,
0010
0001
1000
0001
0100
0010
1000
0001
0010
0100
1000
0100
0010
0001
0100
0010
,
1000
0001
0010
0100
1000
0010
0100
0001
0010
0100
0010
0001
0100
0010
1000
0100
,
1000
0001
0010
0100
1000
0001
0100
0000
0000
0000
0000
0000
0000
0000
0000
0000
;
