#VERSION:0.83;
#TITLE:非決定的抽象計算機;
#SUBTITLE:;
#ARTIST:1/8 feat.kyou1110;
#TITLETRANSLIT:hi ketteiteki chuusho keisanki;
#SUBTITLETRANSLIT:;
#ARTISTTRANSLIT:;
#GENRE:;
#CREDIT:;
#MUSIC:hi ketteiteki chuusho keisanki.ogg;
#BANNER:;
#BACKGROUND:;
#CDTITLE:../yosefu_katakana_cdtitle.png;
#SAMPLESTART:20.802000;
#SAMPLELENGTH:12.000000;
#SELECTABLE:YES;
#OFFSET:0.000000;
#BPMS:0.000000=140.000000;
#STOPS:;
#SPEEDS:0.000000=1.000000=0.000000=0;
#SCROLLS:0.000000=1.000000,
111.000000=0.300000,
111.750000=1.000000,
112.250000=0.300000,
112.750000=1.000000,
113.250000=0.300000,
114.750000=1.000000,
115.250000=0.300000,
115.500000=1.000000,
116.000000=0.300000,
116.500000=1.000000,
117.000000=0.300000,
118.750000=1.000000,
119.250000=0.300000,
119.500000=1.000000,
120.000000=0.300000,
121.000000=1.000000,
121.500000=0.300000,
122.000000=1.000000,
122.500000=0.300000,
123.000000=1.000000,
123.500000=0.300000,
125.750000=1.000000,
126.250000=0.300000,
127.000000=1.000000,
127.500000=0.300000,
130.500000=1.000000,
131.000000=0.300000,
131.750000=1.000000,
132.250000=0.300000,
132.500000=1.000000,
133.000000=0.300000,
134.750000=1.000000,
135.250000=0.300000,
136.000000=1.000000,
136.500000=0.300000,
137.250000=1.000000,
137.750000=0.300000,
138.750000=1.000000,
139.250000=0.300000,
139.500000=1.000000,
140.000000=0.300000,
140.500000=1.000000,
141.000000=0.300000,
143.250000=1.000000,
143.750000=0.300000,
144.000000=1.000000,
144.500000=0.300000,
147.250000=1.000000,
147.750000=0.300000,
148.250000=1.000000,
148.750000=0.300000,
149.500000=1.000000,
150.000000=0.300000,
152.000000=1.000000,
152.500000=0.300000,
152.750000=1.000000,
153.250000=0.300000,
154.500000=1.000000,
155.000000=0.300000,
155.750000=1.000000,
156.250000=0.300000,
156.500000=1.000000,
157.000000=0.300000,
159.500000=1.000000,
160.500000=0.300000,
161.250000=1.000000,
161.750000=0.300000,
163.250000=1.000000,
163.750000=0.300000,
164.500000=1.000000,
165.500000=0.300000,
167.250000=1.000000,
168.250000=0.300000,
169.000000=1.000000,
170.000000=0.300000,
170.750000=1.000000,
171.250000=0.300000,
173.750000=1.000000,
174.750000=0.300000,
175.500000=1.000000,
176.000000=0.300000,
178.000000=1.000000,
179.000000=0.300000,
179.500000=1.000000,
180.000000=0.300000,
181.250000=1.000000,
181.750000=0.300000,
182.000000=1.000000,
182.500000=0.300000,
185.500000=1.000000,
186.000000=0.300000,
186.250000=1.000000,
187.250000=0.300000,
187.750000=1.000000,
188.250000=0.300000,
189.250000=1.000000,
189.750000=0.300000,
192.500000=1.000000,
193.000000=0.300000,
193.250000=1.000000,
193.750000=0.300000,
196.000000=1.000000,
196.500000=0.300000,
197.000000=1.000000,
197.500000=0.300000,
197.750000=1.000000,
198.250000=0.300000,
213.750000=2.000000,
214.000000=1.000000
;
#TICKCOUNTS:0.000000=4;
#TIMESIGNATURES:0.000000=7=4,
35.000000=6=4,
41.000000=15=8,
48.500000=7=4,
97.500000=6=4,
103.500000=15=8,
111.000000=1=63,
112.250000=1=64,
113.250000=1=65,
115.250000=1=66,
116.000000=1=67,
117.000000=1=68,
119.250000=1=69,
120.000000=1=70,
121.500000=1=71,
122.500000=1=72,
123.500000=1=73,
126.250000=1=74,
127.500000=1=75,
131.000000=1=76,
132.250000=1=77,
133.000000=1=78,
135.250000=1=79,
136.500000=1=80,
137.750000=1=81,
139.250000=1=82,
140.000000=1=83,
141.000000=1=84,
143.750000=1=85,
144.500000=1=86,
147.750000=1=87,
148.750000=1=88,
150.000000=1=89,
152.500000=1=90,
153.250000=1=91,
155.000000=1=92,
156.250000=1=93,
157.000000=1=94,
160.000000=1=95,
160.500000=1=96,
161.750000=1=97,
163.750000=1=98,
165.000000=1=99,
165.500000=1=100,
167.750000=1=101,
168.250000=1=102,
169.500000=1=103,
170.000000=1=104,
171.250000=1=105,
174.250000=1=106,
174.750000=1=107,
176.000000=1=108,
178.500000=1=109,
179.000000=1=110,
180.000000=1=111,
181.750000=1=112,
182.500000=1=113,
186.000000=1=114,
186.750000=1=115,
187.250000=1=116,
188.250000=1=117,
189.750000=1=118,
193.000000=1=119,
193.750000=1=120,
196.500000=1=121,
197.500000=1=122,
198.250000=1=123,
214.000000=15=16,
217.750000=7=4,
238.750000=6=4,
244.750000=15=8,
252.000000=4=4
;
#LABELS:0.000000=Song Start;
#COMBOS:0.000000=1;
#JACKET:;
#DISCIMAGE:;
#CDIMAGE:;
#TAGS:;
#PREVIEWVID:;
#BGCHANGES:;
#FGCHANGES:;

//--------------- dance-single - FS+++++ ----------------
#NOTEDATA:;
#STEPSTYPE:dance-single;
#DESCRIPTION:FS+++++;
#DIFFICULTY:Challenge;
#METER:17;
#RADARVALUES:0.912698,0.934071,0.413346,0.035943,1.410767,711,665,46,4,0,0,0,2,0,0.912698,0.934071,0.413346,0.035943,1.410767,711,665,46,4,0,0,0,2,0;
#CHARTNAME:;
#CHARTSTYLE:Pad Singles;
#CREDIT:ヨセフ;
#METERF:0;
#CHARTHASH:329970699;
#BANNER:;
#LASTSECONDHINT:108.000000;
#NOTES:
0000
0000
0000
0000
,
0000
0000
0000
0000
,
0000
0000
0000
0000
,
0000
0000
1001
1001
,
1001
0000
0000
1000
0001
0000
0100
0000
0001
1000
0000
1100
0000
0000
1100
0000
,
0100
0100
0100
0100
0001
0000
0000
0000
0101
0000
0000
0000
0101
0000
0000
0100
,
0010
0000
1010
0000
1000
0001
0000
0101
0000
0000
0100
0100
1000
0100
0100
0100
,
1000
0000
0000
0000
1010
0000
0000
0000
1010
0000
0000
0010
0100
0000
0110
0000
,
0010
1000
0000
1100
0000
0000
1100
0000
0100
0100
0100
0100
0001
0000
0000
0000
,
0011
0000
0000
0000
0011
0000
0000
0001
1000
0000
1010
0000
0010
0100
0000
0101
,
0000
0000
0101
0000
0101
0000
0100
0100
1000
0100
0100
0100
1000
0100
0100
0001
,
0100
0001
0100
0100
0100
0100
1000
0100
0100
0001
0200
0000
0000
0000
0000
0000
,
0000
0310
1000
0000
0000
0000
1001
0000
0000
0000
0001
0000
0010
0010
1000
0000
,
0100
0000
1000
0001
0000
0010
0000
0010
0010
0000
0100
0100
0100
0100
0001
0000
,
0000
0000
0101
0000
0000
0000
0100
0010
0010
0001
1000
0000
0100
0000
0001
0100
,
0000
1000
0000
0010
0010
0100
0000
0100
0100
0100
0001
0000
0000
0000
1001
0000
,
0000
0000
1000
0000
0010
0010
0001
0000
1000
0000
0001
0100
0000
0010
0010
0000
,
0001
0000
0100
0100
0100
0100
1000
0000
0000
0000
1010
0000
0010
0010
0001
0000
,
0000
1000
0010
0000
0100
0000
0001
0100
0100
0000
0100
0000
0100
0100
0100
0100
,
0100
0100
0001
0000
0000
0000
1001
0000
0000
0000
1000
0000
0010
0010
0001
0000
,
0100
0000
0001
1000
0000
0010
0000
0010
0010
0000
0100
0100
0100
0100
1000
0000
,
0000
0000
1100
0000
0000
0000
0100
0010
0010
1000
0001
0000
0100
0000
1000
0100
,
0000
0001
0000
0010
0010
0100
0000
0100
0100
0100
1000
0000
0000
0000
1001
0000
,
0000
0000
0001
0000
0010
0010
1000
0000
0001
0000
1000
0100
0000
0010
0010
0000
,
1000
0000
0100
0100
0100
0100
0001
0000
0000
0000
0011
0000
0010
0010
1000
0000
,
0000
0001
0010
0000
0100
0000
1000
0010
0010
0010
0010
0000
0001
0000
0101
0000
,
0100
0100
1000
0100
0100
0100
1000
0100
0100
0001
0100
0001
0100
0100
0100
0100
,
1000
0100
0100
0001
2000
0000
0000
0000
0000
0000
0000
0000
3100
0100
0100
0100
,
0000
0100
0100
0100
0000
0100
0100
0100
0100
0100
0100
0100
0000
0100
0100
0000
,
0100
0100
0100
0000
0100
0100
0100
0100
0100
0100
0100
0100
0000
0100
0100
0000
,
0100
0100
0100
0100
0100
0000
0100
0100
0100
0000
0100
0100
0100
0000
0100
0100
,
0100
0100
0100
0100
0100
0100
0100
0100
0000
0100
0100
0100
0100
0000
0100
0100
,
0100
0100
0100
0100
0100
0100
0100
0100
0100
0100
0100
0000
0100
0100
0100
0100
,
0000
0100
0100
0000
0100
0100
0100
0100
0100
0100
0100
0100
0000
0100
0100
0100
,
0100
0000
0100
0100
0100
0100
0000
0100
0100
0100
0100
0100
0000
0100
0100
0000
,
0100
0100
0100
0000
0100
0100
0100
0100
0100
0100
0100
0100
0100
0100
0000
0100
,
0100
0000
0100
0100
0100
0100
0100
0100
0100
0100
0100
0100
0100
0100
0000
0100
,
0100
0100
0000
0100
0100
0100
0100
0000
0100
0100
0100
0100
0100
0100
0100
0100
,
0100
0000
0100
0100
0000
0100
0100
0100
0100
0100
0100
0000
0100
0100
0100
0100
,
0000
0100
0100
0000
0100
0100
0100
0100
0100
0100
0100
0100
0100
0100
0100
0000
,
0100
0000
0100
0100
0100
0100
0000
0100
0100
0100
0100
0100
0100
0100
0000
0100
,
0100
0100
0100
0000
0100
0000
0100
0100
0100
0100
0100
0100
0100
0100
0000
0100
,
0000
0100
0100
0100
0100
0000
0100
0000
0100
0100
0100
0100
0000
0100
0100
0100
,
0100
0100
0100
0100
0100
0100
0100
0100
0000
0100
0000
0100
0100
0100
0100
0000
,
0100
0100
0100
0100
0100
0100
0100
0100
0100
0000
0100
0000
0100
0100
0100
0000
,
0100
0100
0100
0100
0100
0100
0000
0100
0100
0000
0100
0100
0100
0100
0100
0100
,
0100
0100
0100
0100
0100
0100
0100
0000
0100
0100
0000
0100
0000
0100
0100
0100
,
0000
0100
0100
0100
0100
0100
0000
0100
0100
0100
0100
0100
0100
0100
0100
0100
,
0100
0100
0100
0000
0100
0100
0000
0100
0100
0100
0100
0100
0100
0100
0100
0100
,
0100
0000
0100
0100
0100
0000
0100
0100
0000
0100
0100
0100
0100
0100
0100
0100
,
0100
0100
0100
0100
0100
0100
0100
0100
0100
0100
0100
0100
0100
0100
0100
0100
,
0100
0100
0100
0100
0100
0100
0100
0100
0100
0100
0100
0100
0100
0100
0100
0100
,
0100
0100
0100
0100
0100
0100
0100
0100
0100
0100
0100
0100
0100
0100
0100
0100
,
0100
0100
0100
0100
0100
0100
0100
0100
0020
0000
0000
0000
0000
0000
0000
0000
,
0000
0000
0000
0000
0000
0000
0000
0000
0000
0000
0000
0000
0000
0000
0000
0000
0000
0000
0000
0000
0000
0000
0000
0000
0000
0000
0000
0000
0000
0000
0000
0000
0000
0000
0000
0030
00L0
0000
0000
0000
0000
0000
0000
0000
0000
0000
0000
0000
0000
0000
0000
0000
0000
0000
0000
0000
0000
0000
0000
0000
0000
0000
0000
0000
0000
0000
0000
0000
0000
0000
0000
0000
0000
0000
0000
0000
0000
0000
0000
0000
0000
0000
0000
0000
1001
0000
0000
0000
0000
0000
0000
0000
0000
0000
0000
0000
0000
0000
0000
0000
0000
0000
0000
0000
0000
0000
0000
0000
0000
0000
0000
0000
0000
0000
0000
0000
0000
0000
0000
0000
0000
0000
0000
0000
0000
0000
0000
0000
0000
0000
0000
0000
1001
0000
0000
0000
0000
0000
0000
0000
0000
0000
0000
0000
0000
0000
0000
0000
0000
0000
0000
0000
0000
0000
0000
0000
0000
0000
0000
0000
0000
0000
0000
0000
0000
0000
0000
0000
0000
0000
0000
0000
0000
0000
0000
0000
0000
0000
0000
0000
1001
0000
0000
0000
0000
0000
0000
0000
0000
0000
0000
0000
,
0000
1000
0001
0010
0000
0100
0000
1000
0001
0000
0101
0000
0000
0101
0000
0100
,
0100
0100
0100
1000
0000
0000
0000
1001
0000
0000
0000
0001
0010
0010
1000
0000
,
0000
1100
0000
0100
1000
0000
1010
0000
0010
0100
0100
1000
0100
0100
0100
1000
,
0000
0000
0000
1010
0000
0000
0000
1010
0000
0010
0010
0001
0000
1001
0000
1000
,
0001
0000
1000
0010
0000
0110
0000
0100
0100
0100
0100
1000
0000
0000
0000
1010
,
0000
0010
0010
0001
0000
0000
1001
0000
0000
1001
0000
1000
0010
0010
0010
0000
,
0000
0101
0000
0101
0000
0100
0100
1000
0100
0100
0100
1000
0100
0100
0001
0100
,
0001
0000
0000
0000
0000
0000
0000
0000
0000
0000
0000
0000
0100
0000
0000
0000
0000
0000
0000
0000
0000
0000
0000
0000
0100
0000
0000
0000
0000
0000
0000
0000
0000
0000
0000
0000
0100
0000
0000
0000
0000
0000
0000
0000
0000
0000
0000
0000
0100
0000
0000
0000
0000
0000
0000
0000
0000
0000
0000
0000
1000
0000
0000
0000
0000
0000
0000
0000
0000
0000
0000
0000
0100
0000
0000
0000
0000
0000
0000
0000
0000
0000
0000
0000
0100
0000
0000
0000
0000
0000
0000
0000
0000
0000
0000
0000
0001
0000
0000
0000
0000
0000
0000
0000
0000
0000
0000
0000
0200
0000
0000
0000
0000
0000
0000
0000
0000
0000
0000
0000
0000
0000
0000
0000
0000
0000
0000
0000
0000
0000
0000
0000
0000
0000
0000
0000
0000
0000
0000
0000
0000
0000
0000
0000
0000
0000
0000
0000
0000
0000
0000
0000
0000
0000
0000
0000
0000
0000
0000
0000
0000
0000
0000
0000
0000
0000
0000
0000
0000
0000
0000
0000
0000
0000
0000
0000
0000
0000
0000
0000
0000
0000
0000
0000
0000
0000
0000
0000
0000
0000
0000
0300
,
0L00
0000
0000
0000
;
