#VERSION:0.83;
#TITLE:This Is Club Musik feat. 大久保紅葉;
#SUBTITLE:;
#ARTIST:REMO-CON;
#TITLETRANSLIT:This Is Club Musik feat. Momiji Okubo;
#SUBTITLETRANSLIT:;
#ARTISTTRANSLIT:;
#GENRE:;
#CREDIT:;
#MUSIC:This Is Club Musik feat. Momiji Okubo.ogg;
#BANNER:This Is Club Musik feat. Okubo Momiji.png;
#BACKGROUND:This Is Club Musik feat. Okubo Momiji-bg.png;
#CDTITLE:cdtitle.png;
#SAMPLESTART:50.500832;
#SAMPLELENGTH:15.000000;
#SELECTABLE:YES;
#OFFSET:-0.308995;
#BPMS:0.000000=165.000000;
#STOPS:;
#SPEEDS:0.000000=1.000000=0.000000=0;
#SCROLLS:0.000000=1.000000;
#TICKCOUNTS:0.000000=4;
#TIMESIGNATURES:0.000000=2=4,
2.000000=4=4
;
#LABELS:0.000000=Song Start;
#COMBOS:0.000000=1;
#FAKES:318.020833=8.000000;
#ORIGIN:;
#TAGS:;
#PREVIEWVID:;
#JACKET:This Is Club Musik feat. Okubo Momiji-jacket.png;
#CDIMAGE:;
#DISCIMAGE:;
#BGCHANGES:;
#FGCHANGES:;

//--------------- dance-single - ----------------
#NOTEDATA:;
#STEPSTYPE:dance-single;
#DESCRIPTION:;
#DIFFICULTY:Hard;
#METER:13;
#RADARVALUES:0.582719,0.648567,0.122371,0.146845,0.432378,500,485,15,18,0,0,0,0,0,0.582719,0.648567,0.122371,0.146845,0.432378,500,485,15,18,0,0,0,0,0;
#CHARTNAME:;
#CHARTHASH:3668267361;
#BANNER:;
#CHARTSTYLE:;
#METERF:0.000000;
#LASTSECONDHINT:115.944359;
#CREDIT:YOSEFU;
#NOTES:
0000
0000
0000
0000
,
0000
0000
0000
0000
,
0000
0000
0000
0000
0000
0000
0000
0000
1001
0000
0000
0000
0001
0100
0000
0001
,
1000
0000
0000
0000
0001
0010
0000
0001
1000
0000
0000
0000
0001
0100
0000
0001
,
1000
0000
0000
0000
0001
0010
0000
0001
1000
0000
0000
0000
0100
1000
0001
0000
,
0100
0000
0000
0000
0010
1000
0001
0000
0020
0000
0000
0000
0000
0000
0000
0000
,
0000
0000
0000
0000
0000
0000
0000
0000
0130
0000
0100
0000
1000
0000
0001
0100
,
0010
0000
0000
0000
1000
0000
0001
0010
0100
0000
1000
0000
0001
0100
0010
0000
,
1000
0000
0001
0100
0010
0000
1000
0000
0001
0000
0000
0000
0001
0000
0000
0010
,
0000
0000
0000
0010
0000
0000
0000
0000
0100
0000
0000
0000
1000
0000
0000
0000
0001
0000
0000
0000
1000
0000
0001
0000
0000
0000
1000
0000
0001
0000
0000
0000
,
1000
0001
0200
0000
0320
0000
0000
0000
,
0000
0000
0000
0000
,
0000
0000
2030
0000
,
0000
0000
0000
0000
,
0000
3000
1001
0001
,
1000
0100
0010
0000
0011
0000
0001
0000
,
0100
0010
1000
0000
1010
0000
0010
0000
,
0110
0100
0101
1001
,
1100
0000
1001
0000
1000
0010
1000
0100
,
1000
0010
1000
0001
0100
0001
0010
0001
,
0100
0010
1000
0100
0020
0030
0001
0100
,
0001
0000
0010
0000
0001
0000
1000
0000
0010
0000
0000
0000
0100
0001
0000
0100
,
0001
0000
0000
0000
1000
0100
0000
1000
0100
0000
0010
0000
0001
1000
0000
0000
,
0100
0000
0010
0000
0001
1000
0000
0000
0010
0000
0100
0000
0001
1000
0000
0000
,
0010
0000
0100
0000
0001
1000
0000
0000
0100
0000
0010
0000
0001
1000
0000
0000
,
0010
0000
0100
0000
0001
1000
0000
0000
0010
0000
0000
0100
0000
1000
0000
0100
,
0010
0000
0000
1000
0000
0001
0000
0010
0200
0000
0000
0000
2300
0000
0000
0000
,
3020
0000
0230
0000
0301
0010
0001
0100
,
0010
0000
0000
0010
0000
0000
0010
0000
1000
0000
0100
0000
0010
0000
0000
0000
,
0001
1000
0010
0000
0100
0001
0010
0001
,
0100
0000
0000
0100
0000
0000
0100
0000
0010
0000
1000
0000
0100
0000
1000
0000
,
0010
0000
0000
0010
0000
0000
0010
0000
0100
0000
0001
0000
0010
0000
0001
0000
,
0100
0000
0000
0100
0000
0000
0100
0000
0010
0000
1000
0000
0100
0000
1000
0000
,
0010
0000
0000
0010
0000
0000
0010
0000
0100
0000
0001
0000
1000
0000
0000
0000
,
0100
0010
0001
0000
1000
0010
1000
0100
,
1000
0010
0100
0001
0010
0001
0100
0001
,
0010
0001
0100
0010
2000
3000
0001
0010
,
0001
0000
0100
0000
0001
0000
0010
0000
0001
0000
0000
0000
1000
0010
0000
1000
,
0010
0000
0000
0000
0100
0001
0100
0000
0001
0000
0010
0000
0001
0000
0100
0000
,
0001
1000
0001
0010
0001
0100
0010
1000
,
0100
1000
0010
1000
0001
1000
0100
1000
,
0010
0000
0100
0000
0001
0000
0010
0000
0100
0000
0000
0001
0000
0100
0000
0010
,
0001
0000
0000
1000
0000
0010
0000
0100
0002
0000
0000
0000
0000
0000
0000
0000
,
0000
0000
0000
0000
,
0000
0000
0000
0000
0000
0000
0000
0000
2003
0000
0000
0100
0000
0000
0001
0000
,
0000
0000
0000
3020
0000
0000
0230
0000
,
0302
0000
0003
0000
1001
1000
0010
0000
,
0100
0100
0001
0000
1000
1000
0100
0000
,
0010
0010
0001
0000
0100
0010
0100
0000
,
0001
1000
0001
0000
0010
0000
0010
0000
,
0100
0100
1002
2003
,
3020
0000
0230
0000
0310
1000
0100
1000
,
0010
0000
0000
0010
0000
0000
0010
0000
0100
0000
0001
0000
1000
0000
0000
0000
,
0100
0010
0001
0000
0100
0001
0010
0001
,
0100
0000
0000
0100
0000
0000
0100
0000
0010
0000
1000
0000
0001
0000
0000
0000
,
0010
0000
0000
0010
0000
0000
0010
0000
0100
0000
1000
0000
0001
0000
0000
0000
,
0100
0000
0000
0100
0000
0000
0100
0000
0010
0000
1000
0000
0001
0000
0000
0000
,
0010
0000
0000
0010
0000
0000
0010
0000
0100
0000
1000
0000
0001
0000
0000
0000
,
0100
0000
0000
0100
0000
0000
0100
0000
0110
0000
0010
0000
1000
0000
0000
0000
,
0101
0001
1000
0000
0100
0010
0100
1000
,
0100
0010
0100
1000
0010
0001
0010
1000
,
0010
0001
0010
1000
0001
0010
0100
1000
,
0010
0000
0000
0100
0000
0000
0001
0000
0000
0000
0000
0000
1000
0000
0000
0000
0010
0000
0000
0000
0110
0000
0000
0000
,
0100
0001
0100
0001
0100
0001
1000
0000
0100
0000
0110
0000
,
0010
0000
0001
0000
0100
0000
0000
0000
0010
0000
1000
0000
0200
0000
0000
0000
0000
0000
0310
0000
0000
0001
0000
0000
,
1000
0000
0010
0000
0100
0000
0002
0000
0000
0000
0000
0000
,
0000
0000
0000
0000
0000
0000
0000
0000
1003
0000
0001
1000
0000
0001
1000
0000
,
0001
1000
0020
0000
0130
0001
0010
0001
,
0100
0000
0000
1000
0000
0100
0000
0001
0010
0000
0001
0000
0100
0000
0001
0000
,
0010
0000
0000
1000
0000
0010
0000
0001
0100
0000
0001
0000
0010
0000
0001
0000
,
0100
0000
0000
1000
0000
0100
0000
0001
1000
0000
0000
0000
0100
0000
0000
0000
,
0010
0000
0000
0000
0001
0000
0000
0000
0100
0000
0000
1000
0000
0100
0000
0001
,
1000
0000
0000
0100
0000
0001
0000
0100
1000
0000
0000
0001
0000
0010
0000
1000
,
0010
0000
0000
0001
0000
1000
0000
0010
0001
0000
0010
0000
0100
0000
0010
0000
,
1000
0000
0100
0000
0010
0000
0100
0000
0001
0000
0000
0100
0000
1000
0000
0001
,
0100
0000
0000
0010
0000
1000
0000
0001
0000
0010
0100
0000
1000
0001
0000
1000
,
0001
0000
0000
0000
0000
0000
0001
0000
0000
0000
0000
0000
0001
0000
0000
0000
0200
0000
0000
0300
0200
0000
0000
0000
0301
0000
0010
0000
0000
0000
0001
0000
,
1000
0000
0001
0000
1000
0010
0000
1000
0002
0000
0000
0000
0103
0000
0001
0000
,
0010
0000
0000
0000
0100
0000
1000
0000
0010
0000
0000
0000
1000
0000
0000
0100
,
0000
0000
0000
0100
0000
0000
0000
0000
0010
0000
0000
0000
0001
0000
0000
0000
0100
0000
0000
0000
0000
0000
0000
0000
0000
0000
0000
0000
0000
0000
0000
0000
;

//--------------- dance-single - ----------------
#NOTEDATA:;
#STEPSTYPE:dance-single;
#DESCRIPTION:;
#DIFFICULTY:Challenge;
#METER:16;
#RADARVALUES:0.737723,0.859045,0.269216,0.318165,0.925941,633,600,33,39,7,0,0,0,0,0.737723,0.859045,0.269216,0.318165,0.925941,633,600,33,39,7,0,0,0,0;
#CHARTNAME:;
#CHARTHASH:2643952526;
#BANNER:;
#CHARTSTYLE:Pad Singles;
#METERF:0.000000;
#LASTSECONDHINT:118.126183;
#CREDIT:YOSEFU;
#NOTES:
0000
0000
0000
0000
,
0000
0000
0000
0000
,
0000
0000
0000
0000
0000
0000
0000
0000
1000
0000
1000
0000
0001
0100
0000
0001
,
0010
0000
0001
0000
1000
0100
0000
1000
0010
0000
0010
0000
1000
0100
0000
1000
,
0010
0000
1000
0000
0001
0100
0000
0001
0010
0000
0001
0000
0100
0010
1000
0000
,
0001
0000
0010
0000
0100
1000
0001
0000
0200
0000
0000
0000
0000
0000
0000
0000
,
0000
0000
0000
0000
0000
0000
0000
0000
0300
0000
0000
0000
0000
0000
0000
0000
0220
0000
0000
0330
0220
0000
0000
0330
0010
0000
1000
0000
0001
0000
1000
0000
,
0010
0000
0010
0000
0100
0001
1000
0001
0100
0000
0100
0000
0001
0010
0100
0000
,
0100
0000
1000
0010
0100
0010
1000
0000
0001
0010
0000
0001
0010
0000
0100
1000
,
0000
0000
0000
0100
0000
0000
0000
0000
0100
0000
0000
0000
1000
0000
0001
0000
0100
0000
0000
0000
0010
0000
0100
0000
0000
0000
0010
0000
0100
0000
0010
0000
,
0100
0010
0200
0000
0302
0000
0000
0000
,
0000
0000
0000
0000
,
0000
0000
2003
0000
,
0000
0000
0000
0000
,
0000
3000
1001
0001
,
0010
0000
0100
0000
0000
1000
0000
0000
1001
0000
0000
0000
0001
0000
0000
0000
,
0100
0000
0010
0000
0000
1000
0000
0000
1010
0000
0000
0010
0000
0000
0100
0000
,
0101
0000
0000
0001
0000
0000
1000
0000
1010
0000
0000
0000
1001
0000
0000
0000
,
1100
0000
0000
0000
1000
0001
1000
0001
1000
0000
0010
0100
0001
0000
1000
0100
,
0010
0000
0001
1000
0010
0000
0100
0001
1000
0000
0100
0010
0001
0000
1000
0010
,
0100
0000
0001
1000
0100
0000
0010
0001
0200
0000
0300
0000
0001
0000
1000
0010
,
0100
0000
0001
1000
0100
0000
0010
0001
1000
0001
0100
0000
0010
1000
0000
0001
,
0010
0000
0100
1000
0001
0100
0000
0001
0010
0001
0100
0000
0010
1000
0000
0000
,
0100
1000
0010
0000
0100
0001
0000
0000
0010
0100
1000
0000
0010
0100
0000
0000
,
0001
0100
0010
0000
1000
0100
0000
0000
0010
0001
0100
0000
0010
1000
0000
0000
,
0100
0010
0001
0000
0100
0010
0000
0000
0001
0010
0000
1000
0000
0001
0000
0010
,
0100
1000
0000
0001
0000
0100
0000
0010
1000
0000
0001
0000
0020
0000
0000
0000
,
2030
0000
0000
0000
3010
0000
0100
1000
0001
0000
0100
0000
1000
0000
0100
0000
,
0001
0000
0000
0001
0000
0000
0001
0000
1000
0000
0010
0000
0100
0000
0000
0000
,
0001
0010
0100
0000
1000
0010
0001
0010
,
1000
0000
0000
1000
0000
0000
1000
0000
0001
0000
0010
0000
1000
0000
0010
0000
,
0001
0000
0000
0001
0000
0000
0001
0000
1000
0000
0010
0000
0001
0000
0010
0000
,
1000
0000
0000
1000
0000
0000
1000
0000
0001
0000
0100
0000
1000
0000
0100
0000
,
0001
0000
0000
0001
0000
0000
0001
0000
1000
0010
0100
0001
0010
0000
0100
0000
,
1000
0000
0001
0000
0100
0000
0000
0000
0010
0000
1000
0100
0010
0000
0001
0100
,
0010
0000
1000
0001
0010
0000
0100
1000
0001
0000
0100
0001
0010
0000
0100
1000
,
0010
0000
0100
0001
1000
0000
0100
0010
0002
0000
0003
0000
0100
0000
0010
1000
,
0100
0000
0010
0001
1000
0000
0010
0100
0001
1000
0100
0000
0010
0001
0000
1000
,
0010
0000
0100
0001
1000
0100
0000
1000
0001
0000
1000
0010
0100
0000
1000
0100
,
0010
0000
1000
0001
0100
0000
0010
1000
0001
0000
1000
0100
0010
0000
1000
0010
,
0100
0000
1000
0001
0100
0000
0010
0100
0001
0000
1000
0010
0100
0000
1000
0100
,
0010
0000
1000
0001
0010
0000
0100
0010
1000
0010
0000
0001
0000
1000
0000
0001
,
0100
0010
0000
1000
0000
0001
0000
0010
0200
0000
0000
0000
0000
0000
0000
0000
,
0000
0000
0000
2300
0000
0000
3020
0000
,
0230
0000
0000
0000
0000
0000
0000
0000
0302
0000
0000
1000
0000
0000
0010
0000
,
0000
0000
0000
0203
0000
0000
0320
0000
,
2030
0000
3000
0000
1010
0010
1000
0000
,
0001
0001
0010
0000
0100
0100
1000
0000
,
0010
0000
0010
0000
0100
0000
0000
0000
0001
1000
0100
0000
0010
0001
1000
0000
,
0001
0100
0010
0000
1000
0001
0100
0000
0010
0000
0000
0000
0010
0000
0000
0000
,
0010
0000
0010
0000
1001
1000
0020
0000
,
0032
0000
0000
0000
0023
0000
0130
0001
1000
0000
0100
0000
0001
0000
0100
0000
,
1000
0000
0000
1000
0000
0000
1000
0000
1001
0000
0001
0000
0010
0000
0000
0000
,
0100
1000
0010
0000
0100
1000
0100
0001
,
1000
0000
0000
1000
0000
0000
1000
0000
1001
0000
0001
0000
0010
0000
0000
0000
,
0100
1000
0010
0000
1001
1000
0010
0000
,
0100
0001
0010
0000
1001
0001
0200
0000
,
0320
0000
0000
1000
0000
0000
1030
0000
1001
0000
0001
0000
0010
0000
0000
0000
,
0100
0000
0000
0100
0000
0000
0100
0000
1001
0000
1000
0000
1100
0000
0000
0000
,
1001
0001
0101
0000
0001
0010
1000
0010
,
0001
0000
0010
0000
1000
0000
0010
0100
1100
0000
1000
0000
1001
0000
1000
0000
,
1010
1000
1001
1000
0100
0001
0100
1000
,
0001
0000
0000
0000
0000
0000
0100
0000
0000
0010
0000
0000
1000
0000
0000
0000
0000
0000
0000
0000
0000
0000
0000
0000
1010
0000
0000
0000
0000
0000
0000
0000
1010
0000
0000
0000
0000
0000
0000
0000
1010
0000
0000
0000
0000
0000
0000
0000
,
1000
0100
0001
0100
1000
0001
0011
0000
0011
0000
0011
0000
,
0010
0000
0000
0000
0001
0000
0000
0000
0100
0000
0000
0000
0000
0000
0000
0000
1000
0000
0000
0000
0100
0000
0000
0000
0002
0000
0000
0000
0000
0000
0000
0000
0000
0000
0000
0000
0013
0000
0000
0100
0000
0000
0010
0000
0000
0100
0000
0000
,
1000
0000
1100
0000
0101
0000
2002
0000
0000
0000
0000
0000
,
0000
0000
0000
3000
0000
0000
0003
0000
1000
0000
0001
1000
0000
0001
1000
0001
,
1000
0000
0001
0000
1000
0000
0000
0000
0001
0100
0010
0000
1000
0100
0010
0000
,
1000
0010
0000
0001
0000
1000
0000
0001
0100
0010
1000
0000
0100
0010
0001
0000
,
0100
1000
0000
0100
0000
0001
0000
1000
0100
0010
0001
0000
0100
0010
1000
0000
,
0100
0001
0000
0100
0000
1000
0000
0001
0200
0000
0000
0000
0000
0000
0000
0000
,
0000
0000
0000
0000
0301
0000
0000
0000
1000
0100
0000
0001
0000
0100
0000
1000
,
0001
0100
0000
1000
0000
0100
0000
0001
1000
0010
0000
0001
0000
0010
0000
1000
,
0001
0010
0000
1000
0000
0010
0000
0001
1000
0010
0000
0001
0010
1000
0000
0001
,
1000
0100
0000
0001
0100
1000
0000
0010
0100
1000
0000
0100
0000
0001
0000
1000
,
0100
0010
0000
0001
0000
0100
0000
0010
0000
2000
3010
0000
0100
0001
0000
0010
,
0001
0000
0000
0000
1000
0000
0100
0000
1000
0000
0001
0000
0100
0000
0001
0000
0020
0000
0000
0030
0020
0000
0000
0000
0031
0000
0100
0000
0000
0000
0001
0000
,
0010
0000
0001
0000
1000
0100
0000
1000
0020
0000
0000
0000
0130
0001
0000
1000
,
0100
0000
0100
0000
0010
0001
0000
1000
0010
0100
0000
0000
0001
1000
0000
0001
,
1000
0000
0000
0000
0000
0000
0000
0000
0000
0000
0000
0000
0000
0000
0000
0000
0000
0000
0100
0000
0000
0000
0000
0000
0000
0000
0000
0000
0000
0000
0000
0000
0000
0000
0000
0000
0000
0000
0000
0000
0000
0000
0000
0000
0000
0000
0000
0000
0100
0000
0000
0000
0000
0000
0000
0000
0000
0000
0000
0000
0000
0000
0000
0000
0000
0000
0000
0000
0000
0000
0000
0000
0010
0000
0000
0000
0000
0000
0000
0000
0000
0000
0000
0000
0001
0000
0000
0000
0000
0000
0000
0000
0000
0000
0000
0000
0100
M000
0000
0000
0000
0000
0000
0000
0000
0000
0000
0000
0000
0000
0000
0000
0000
0000
0000
0000
0000
0000
0000
0000
0000
0000
0000
0000
0000
0000
0000
0000
0000
0000
0000
0000
0000
0000
0000
0000
0000
0000
0000
0000
0000
0000
0000
0000
000M
0000
0000
0000
0000
0000
0000
0000
0000
0000
0000
0000
0000
0000
0000
0000
0000
0000
0000
0000
0000
0000
0000
0000
0000
0000
0000
0000
0000
0000
0000
0000
0000
0000
0000
0000
0000
0000
0000
0000
0000
0000
0000
0000
0000
0000
0000
0000
,
M000
000M
M000
000M
,
M000
0000
0000
0000
;
