#VERSION:0.83;
#TITLE:SPARKING;
#SUBTITLE:;
#ARTIST:神前 暁;
#TITLETRANSLIT:;
#SUBTITLETRANSLIT:;
#ARTISTTRANSLIT:Kōsaki Satoru;
#GENRE:ROCK;
#ORIGIN:TEKKEN 5 (鉄拳5) (PS2 Version, 2005);
#TAGS:;
#CREDIT:;
#BANNER:SPARKING.png;
#BACKGROUND:SPARKING-bg.png;
#PREVIEWVID:;
#JACKET:SPARKING-jacket.png;
#CDIMAGE:;
#DISCIMAGE:;
#LYRICSPATH:;
#CDTITLE:cdtitle.png;
#MUSIC:SPARKING.ogg;
#OFFSET:-0.183000;
#SAMPLESTART:45.834999;
#SAMPLELENGTH:16.695999;
#SELECTABLE:YES;
#BPMS:0.000000=115.000000
;
#STOPS:;
#DELAYS:;
#WARPS:;
#TIMESIGNATURES:0.000000=4=4
;
#TICKCOUNTS:0.000000=4
;
#COMBOS:0.000000=1
;
#SPEEDS:0.000000=1.000000=0.000000=0
;
#SCROLLS:0.000000=1.000000
;
#FAKES:;
#LABELS:0.000000=Song Start
;
#BGCHANGES:-0.3=SPARKING.avi=1.000=0=0=0=StretchNoLoop====,
99999=-nosongbg-=1.000=0=0=0 // don't automatically add -songbackground-
;
#KEYSOUNDS:;
#ATTACKS:
;

//---------------dance-single - ----------------
#NOTEDATA:;
#CHARTNAME:;
#CHARTHASH:2147483647;
#STEPSTYPE:dance-single;
#BANNER:;
#DESCRIPTION:;
#CHARTSTYLE:;
#DIFFICULTY:Beginner;
#METER:1;
#METERF:0.000000;
#LASTSECONDHINT:106.356911;
#RADARVALUES:0.079584,0.137138,0.134779,0.044926,0.008985,62.000000,47.000000,15.000000,5.000000,0.000000,0.000000,0.000000,0.000000,0.000000,0.079584,0.137138,0.134779,0.044926,0.008985,62.000000,47.000000,15.000000,5.000000,0.000000,0.000000,0.000000,0.000000,0.000000;
#CREDIT:YOSEFU;
#NOTES:
0000
0000
0000
0000
,
0000
0000
0000
0000
,
0000
0000
0000
0000
,
0000
0000
0000
0000
,
0000
0000
0000
0000
,
1000
0000
0000
0000
,
0001
0000
0000
0000
,
0100
0000
0000
0000
,
0010
0000
0000
0000
,
0110
0000
0000
0000
0000
0000
0000
0000
0000
0000
0000
0000
0000
0000
0000
1000
,
0000
0000
0000
0000
,
1001
0000
0000
0000
0000
0000
0000
0000
0000
0000
0000
0000
0000
0000
0000
0001
,
0000
0000
0000
0000
,
0110
0000
0000
0000
,
1000
0000
0000
0000
,
0010
0000
0000
0000
,
0100
0000
0000
0000
,
0001
0000
0000
0000
,
1001
0000
0000
0000
,
1000
0000
0000
0000
,
0100
0000
0000
0000
,
0010
0000
0000
0000
,
0110
0000
0000
0000
,
1000
0000
0000
0000
,
0001
0000
0000
0000
,
0100
0000
0000
0000
,
0110
0000
0000
0000
,
0100
0000
0000
0000
,
0001
0000
0000
0000
,
1000
0000
0000
0000
,
1001
0000
0000
0000
,
0001
0000
0000
0000
,
0010
0000
0000
0000
,
0100
0000
0000
0000
,
2000
0000
3000
0000
,
0001
0000
0000
0000
,
2002
0000
0000
3003
,
1000
0000
0000
0000
,
0001
0000
0000
0000
,
0100
0000
0000
0000
,
0010
0000
0000
0000
,
1000
0000
0000
0000
,
0100
0000
0000
0000
,
0010
0000
0000
0000
,
0001
0000
0000
0000
,
1001
0000
0000
0000
,
0110
0000
0000
0000
,
1001
0000
0000
0000
,
0110
0000
0000
0000
,
1001
0000
0000
0000
,
0110
0000
0000
0000
0000
0000
0220
0330
;

//---------------dance-single - ----------------
#NOTEDATA:;
#CHARTNAME:;
#CHARTHASH:480629314;
#STEPSTYPE:dance-single;
#BANNER:;
#DESCRIPTION:;
#CHARTSTYLE:;
#DIFFICULTY:Easy;
#METER:5;
#METERF:0.000000;
#LASTSECONDHINT:106.487350;
#RADARVALUES:0.209229,0.274613,0.287529,0.242603,0.031449,163.000000,131.000000,32.000000,27.000000,0.000000,0.000000,0.000000,0.000000,0.000000,0.209229,0.274613,0.287529,0.242603,0.031449,163.000000,131.000000,32.000000,27.000000,0.000000,0.000000,0.000000,0.000000,0.000000;
#CREDIT:YOSEFU;
#NOTES:
0000
0000
0000
0000
,
0000
0000
0000
0000
,
0000
0000
0000
0000
,
0000
0000
0000
0000
,
0000
0000
1000
0010
,
0200
0000
0000
0000
,
0302
0000
1003
0100
,
0020
0000
0230
0000
,
1300
0000
0001
0100
,
0110
0000
0000
0000
0000
0000
0000
0000
0010
0000
0000
0000
1000
0000
0000
0001
,
0000
1001
1000
0010
,
0110
0000
0000
0000
0000
0000
0000
0000
0100
0000
0000
0000
0001
0000
0000
1000
,
0000
1001
0001
0010
,
0110
0000
0000
1001
0000
0000
0001
0000
,
1000
0100
0020
0000
,
0031
0100
0020
0000
,
1030
0100
0002
0000
,
0103
1000
0002
0000
,
0103
0010
2000
0000
,
3100
0010
0002
0000
,
1003
0010
0002
0000
,
0013
0100
0001
1000
,
1001
0001
0100
0000
,
0110
0010
1000
0000
,
1001
0001
0010
0000
,
0110
0100
1000
0000
,
1010
0010
0100
0000
,
0101
0001
1000
0000
,
1100
0100
0010
0000
,
0011
0000
0000
1100
0000
0000
0011
0000
,
1001
1000
0020
0000
,
0130
0001
0020
0000
,
1030
0010
0001
1000
,
0010
0000
0100
0001
,
0020
0000
0230
0000
,
1300
0000
0010
0000
,
0110
0000
0000
0202
0000
0000
0303
0000
,
0002
0000
0013
0100
,
2000
0000
3010
0100
,
0002
0000
1003
0100
,
0020
0000
0031
0100
,
0020
0000
1030
0001
,
0020
0000
0130
1000
,
0020
0000
0031
0010
,
2000
0000
3000
0000
,
1001
0000
0000
0000
0000
0000
0000
0110
0000
0000
0000
0000
0000
0000
0000
0000
,
1001
0000
0000
0000
0000
0000
0000
0101
0000
0000
0000
0000
0000
0000
0000
0000
,
1001
0000
0000
0000
0000
0000
0000
1100
0000
0000
0000
0000
0000
0000
0000
0000
,
0110
0000
0000
0000
0000
0000
0000
0011
0000
0000
0000
0000
0000
0000
0000
0000
,
1001
0000
0000
0110
0000
0000
1001
0000
,
0110
0000
0000
0000
0000
0000
0000
0000
0000
0000
0000
0000
2002
0000
0003
3000
;

//---------------dance-single - ----------------
#NOTEDATA:;
#CHARTNAME:;
#CHARTHASH:2147483647;
#STEPSTYPE:dance-single;
#BANNER:;
#DESCRIPTION:;
#CHARTSTYLE:;
#DIFFICULTY:Medium;
#METER:8;
#METERF:0.000000;
#LASTSECONDHINT:106.356911;
#RADARVALUES:0.336307,0.434270,0.233618,0.125794,0.265066,262.000000,236.000000,26.000000,14.000000,0.000000,0.000000,0.000000,0.000000,0.000000,0.336307,0.434270,0.233618,0.125794,0.265066,262.000000,236.000000,26.000000,14.000000,0.000000,0.000000,0.000000,0.000000,0.000000;
#CREDIT:YOSEFU;
#NOTES:
0000
0000
0000
0000
,
0000
0000
0000
0000
,
0000
0000
0000
0000
,
0000
0000
0000
0000
,
0000
0000
1000
0010
,
0200
0000
0000
0000
,
0302
0000
0000
0000
0000
0000
0000
0000
0013
0000
0000
0100
0000
0000
1000
0000
,
0020
0000
0032
0000
,
0023
0000
1030
0100
,
0110
0000
0000
0000
0010
0000
0001
0000
1000
0000
0000
0000
0001
0000
0000
0100
,
0000
0100
0000
0000
0001
0000
1000
0000
0010
0000
0100
0000
0000
0001
0000
0000
,
1001
0000
0000
0000
1000
0000
0100
0000
0010
0000
0000
0000
0011
0000
0000
0001
,
0000
0001
0000
0000
0100
0000
0010
0000
1000
0000
0001
0000
0000
0010
0000
0000
,
0110
0000
0000
0110
0000
0000
1001
0000
0000
1001
0000
0000
0001
0000
0000
0000
,
1000
0000
0010
0000
0100
0001
1000
0000
,
0001
0000
0100
0000
0010
1000
0001
0000
,
1000
0000
0100
0000
0010
0001
0100
0000
,
0010
0000
0001
0000
0010
0100
0001
0000
,
1001
0000
1000
0000
0010
0100
0001
0000
,
0010
0000
0100
0000
1000
0001
0100
0000
,
0010
0000
0100
0000
1000
0100
0010
0000
,
0100
0000
0000
0001
0000
0000
1000
0000
0100
0000
0000
0000
0010
0000
0001
0000
,
0100
0000
0010
1000
0100
0000
0010
0001
,
0100
0000
0010
1000
0001
0000
1000
0100
,
0010
0000
0000
0011
0000
0000
1000
0000
0000
1010
0000
0000
0010
0000
0100
0000
,
0001
0000
0000
0101
0000
0000
1000
0000
0000
1100
0000
0000
0100
0000
0010
0000
,
0001
0000
0000
0000
1000
0000
0010
0000
0100
0000
0000
0001
0000
0000
0010
0000
,
0100
0000
0000
0000
1000
0000
0010
0000
0100
0000
0000
0001
0000
0000
1000
0000
,
0100
0000
0000
0110
0000
0000
0001
0000
0000
1001
0000
0000
1000
0000
0010
0000
,
0110
0000
0000
0101
0000
0000
1001
0000
0000
1100
0000
0000
0110
0000
0000
0000
,
0010
0000
0000
0001
0000
0000
0100
0000
0000
0000
0000
0000
0010
0000
0000
0000
,
1000
0000
0000
0100
0000
0000
0010
0000
0000
0000
0000
0000
0001
0000
0100
0000
,
0010
0000
0000
0001
0000
0000
0010
0000
0100
0000
0000
0001
0000
0000
1000
0000
,
0100
0000
0000
0000
0000
0000
0000
0000
0010
0000
0000
0001
0000
0000
1000
0000
,
0010
0000
1000
0000
,
0100
0000
0010
0000
0001
0000
1000
0000
0010
0000
0100
0000
,
0001
0000
0000
1000
0000
0000
2200
0000
0000
0000
0000
0000
3300
0000
0000
0000
,
2000
0000
0000
0000
3100
0000
0010
0001
,
2000
0000
0000
0000
3010
0000
0100
0001
,
1000
0000
0000
0010
0000
0000
0100
0000
0001
0000
0100
0000
0010
0000
0000
0000
,
1000
0000
0000
0001
0000
0000
0000
0000
1000
0000
0100
0000
0010
0000
0000
0000
,
0001
0000
0100
0000
0010
1000
0001
0000
,
1000
0000
0100
0000
0010
0001
1000
0000
,
0010
0000
0100
0000
0001
0100
0010
0000
,
1000
0000
0001
0000
0010
0100
1000
0000
,
1001
0000
0000
1000
0000
1000
0000
0000
0001
0000
0010
0000
0100
0000
1000
0000
,
0001
0000
0000
0101
0000
0000
0000
0100
0000
0010
0000
1000
0000
0010
0000
0000
,
0110
0000
0000
0100
0000
0100
0000
0001
0000
0010
0000
0100
0000
1000
0000
0000
,
0001
0000
0000
0011
0000
0000
0000
0010
0000
0100
0000
1000
0000
0001
0000
0000
,
0020
0030
0000
0020
0030
0000
0020
0030
0000
0020
0030
0000
0020
0030
0000
0000
,
0001
0000
0000
0010
0000
0001
0000
1000
0000
0010
0000
0000
1010
0000
0101
0000
;

//---------------dance-single - ----------------
#NOTEDATA:;
#CHARTNAME:;
#CHARTHASH:2147483647;
#STEPSTYPE:dance-single;
#BANNER:;
#DESCRIPTION:;
#CHARTSTYLE:;
#DIFFICULTY:Hard;
#METER:12;
#METERF:0.000000;
#LASTSECONDHINT:106.487350;
#RADARVALUES:0.444130,0.549226,0.179706,0.341441,0.471728,346.000000,326.000000,20.000000,38.000000,0.000000,0.000000,0.000000,0.000000,0.000000,0.444130,0.549226,0.179706,0.341441,0.471728,346.000000,326.000000,20.000000,38.000000,0.000000,0.000000,0.000000,0.000000,0.000000;
#CREDIT:Yosefu @ The King of Iron Fist Tournament 5;
#NOTES:
// measure 0
0000
0000
0000
0000
,  // measure 1
0000
0000
0000
0000
,  // measure 2
0000
0000
0000
0000
,  // measure 3
0000
0000
0000
0000
,  // measure 4
0000
0000
0000
0001
2000
0000
3020
0000
,  // measure 5
0230
0010
0000
0001
,  // measure 6
0320
0000
0000
0000
1030
0000
0000
0000
0002
0000
0000
0023
0000
0000
0130
0000
,  // measure 7
0002
0000
0000
0103
2000
0000
0001
0000
,  // measure 8
0000
0100
3010
0100
,  // measure 9
0101
0000
0000
0000
0001
0000
1000
0000
0100
1000
0000
1000
0001
0000
0000
0100
,  // measure 10
0000
0101
0000
0001
1000
0000
0100
0000
0010
0001
0000
0001
1000
0010
0000
0000
,  // measure 11
1010
0000
1000
0000
0001
0000
0010
0000
0100
1000
0000
1000
0001
0010
0000
0100
,  // measure 12
0000
1100
0000
1000
0001
0000
0100
0000
0010
1000
0000
1000
0001
0010
0000
0000
,  // measure 13
0100
1000
0000
0100
1000
0000
0001
1000
0000
0001
1000
0000
0001
0100
0010
0000
,  // measure 14
1000
0010
0100
0002
0000
1003
0100
0000
,  // measure 15
0010
0001
1000
0020
0000
0130
0001
0000
,  // measure 16
1000
0001
0010
0200
0000
0301
0100
0000
,  // measure 17
1000
0100
0010
0002
0000
1003
0010
0100
,  // measure 18
0001
1000
0100
0020
0000
0031
1000
0000
,  // measure 19
0010
0100
0001
2000
0000
3100
0010
0000
,  // measure 20
0100
1000
0010
0200
0000
1300
0100
0000
,  // measure 21
0002
0000
0000
0023
0000
0000
1030
0000
0020
0000
0000
0000
0130
0000
1000
0000
,  // measure 22
1001
0000
0000
0000
0001
0100
0001
0000
1000
0100
0000
0000
0010
0000
0001
0000
,  // measure 23
0011
0000
0000
0000
0001
1000
0001
0000
1000
0010
0000
0000
1000
0000
0100
0000
,  // measure 24
0110
0000
0010
0001
0000
0001
1000
0000
1000
0010
0000
0000
0100
0001
0100
0000
,  // measure 25
0010
0000
1000
0001
0000
0001
0010
0000
0010
0100
0000
0000
1000
0100
0010
0000
,  // measure 26
0011
0000
0000
0000
0001
0000
0100
0000
0010
0000
1000
0001
0000
0001
0010
0000
,  // measure 27
0110
0000
0000
0000
0100
0000
1000
0000
0010
0000
0100
0001
0000
0001
1000
0000
,  // measure 28
1100
0000
0100
0010
0000
0010
0001
0000
0001
1000
0000
0000
0010
0000
0100
0000
,  // measure 29
0001
0000
1000
0100
0000
0100
0010
0000
0010
0001
0000
0000
1001
0000
0000
0000
,  // measure 30
0001
0000
0000
0010
0000
0000
0200
0000
0000
0000
0310
0000
0001
0000
0000
0000
,  // measure 31
0200
0000
0000
0320
0000
0000
2030
0000
0000
0000
3001
0000
1000
0000
0010
0000
,  // measure 32
0002
0000
0000
0023
0000
0000
0130
0000
0002
0000
0000
0023
0000
0000
0130
0000
,  // measure 33
0020
0000
0000
0000
0031
0000
1000
0000
0020
0000
0000
0230
0000
0000
0310
0000
,  // measure 34
2000
0000
3100
0010
0001
0000
1001
0000
,  // measure 35
1000
0000
0010
0000
0100
0000
0001
0000
0010
0000
0100
0000
,  // measure 36
1100
0000
0000
1001
0000
0000
0202
0000
0000
0000
0000
0000
0303
0000
0001
0000
,  // measure 37
2000
0000
0100
0000
0001
0000
3010
0100
,  // measure 38
0002
0000
0100
0000
1000
0000
0013
0100
,  // measure 39
1000
0000
0000
0001
0000
0000
0100
0000
0010
0000
1000
0000
0010
0100
0000
0000
,  // measure 40
0001
0000
0000
0000
0000
0000
0000
0000
0000
1000
0000
0000
0000
0000
0000
0000
0000
0000
0000
0000
0000
0000
0000
0000
0001
0000
0000
0000
0100
0000
0000
0000
0010
0000
0000
0000
1000
0000
0000
0000
0001
0000
0000
0000
0010
0000
0000
0000
,  // measure 41
0200
0000
0000
0000
0010
0000
0000
0000
1000
0000
0000
0000
0310
0000
0000
0001
,  // measure 42
1000
0000
0000
0010
0000
0000
0100
0000
0000
2000
0000
0000
0000
0000
0000
0000
0000
0000
3100
0000
0000
0010
0000
1000
,  // measure 43
0000
0000
0000
0000
0010
0000
0000
0000
0000
0000
0000
0000
0020
0000
0000
0000
0000
0000
0000
0000
0000
0000
0000
0000
0000
0000
0000
0000
0000
0000
0000
0000
0000
0000
0000
0000
0230
0000
0000
0000
0000
0000
0000
0000
0000
0301
0000
0000
,  // measure 44
1000
0000
0100
0000
0010
0001
1000
0000
,  // measure 45
0010
0100
0001
1000
0000
0100
0000
1000
0001
0000
0100
0000
1000
0100
0010
0000
,  // measure 46
0100
0001
0000
0101
0000
0100
0000
0110
0000
0010
0000
0001
0010
0100
0000
0000
,  // measure 47
0001
0100
0010
1000
0000
0100
0000
0110
0000
0010
0000
1000
0010
0001
0000
0000
,  // measure 48
1000
0010
0000
0110
0000
1000
0000
1100
0000
0100
0000
0001
0100
1000
0000
0000
,  // measure 49
0001
0010
0000
1000
0010
0000
0001
0010
0000
1000
0010
0000
0001
0010
0000
0000
,  // measure 50
0100
1000
0000
0010
0000
0001
0000
0010
0000
1000
0000
0000
0001
0010
0100
1000
;

//---------------dance-double - ----------------
#NOTEDATA:;
#CHARTNAME:;
#CHARTHASH:59340924;
#STEPSTYPE:dance-double;
#BANNER:;
#DESCRIPTION:;
#CHARTSTYLE:;
#DIFFICULTY:Beginner;
#METER:2;
#METERF:0.000000;
#LASTSECONDHINT:106.356911;
#RADARVALUES:0.079584,0.137138,0.134779,0.044926,0.008985,62.000000,47.000000,15.000000,5.000000,0.000000,0.000000,0.000000,0.000000,0.000000,0.079584,0.137138,0.134779,0.044926,0.008985,62.000000,47.000000,15.000000,5.000000,0.000000,0.000000,0.000000,0.000000,0.000000;
#CREDIT:YOSEFU;
#NOTES:
00000000
00000000
00000000
00000000
,
00000000
00000000
00000000
00000000
,
00000000
00000000
00000000
00000000
,
00000000
00000000
00000000
00000000
,
00000000
00000000
00000000
00000000
,
00010000
00000000
00000000
00000000
,
00000100
00000000
00000000
00000000
,
00001000
00000000
00000000
00000000
,
00000010
00000000
00000000
00000000
,
00000110
00000000
00000000
00000000
00000000
00000000
00000000
00000000
00000000
00000000
00000000
00000000
00000000
00000000
00000000
00000100
,
00000000
00000000
00000000
00000000
,
00000001
00000000
00000000
00000000
00000000
00000000
00000000
00000000
00000000
00000000
00000000
00000000
00000000
00000000
00000000
00000010
,
00000000
00000000
00000000
00000000
,
00000110
00000000
00000000
00000000
,
00001001
00000000
00000000
00000000
,
00001000
00000000
00000000
00000000
,
00000100
00000000
00000000
00000000
,
00010000
00000000
00000000
00000000
,
00011000
00000000
00000000
00000000
,
00001000
00000000
00000000
00000000
,
01000000
00000000
00000000
00000000
,
00010000
00000000
00000000
00000000
,
10010000
00000000
00000000
00000000
,
10000000
00000000
00000000
00000000
,
01000000
00000000
00000000
00000000
,
00100000
00000000
00000000
00000000
,
01100000
00000000
00000000
00000000
,
01000000
00000000
00000000
00000000
,
10000000
00000000
00000000
00000000
,
00010000
00000000
00000000
00000000
,
10010000
00000000
00000000
00000000
,
00010000
00000000
00000000
00000000
,
01000000
00000000
00000000
00000000
,
00001000
00000000
00000000
00000000
,
00020000
00000000
00030000
00000000
,
00000100
00000000
00000000
00000000
,
00000220
00000000
00000000
00000330
,
00000001
00000000
00000000
00000000
,
00001000
00000000
00000000
00000000
,
00000010
00000000
00000000
00000000
,
00000100
00000000
00000000
00000000
,
00000010
00000000
00000000
00000000
,
00010000
00000000
00000000
00000000
,
00001000
00000000
00000000
00000000
,
00100000
00000000
00000000
00000000
,
01100000
00000000
00000000
00000000
,
10010000
00000000
00000000
00000000
,
01100000
00000000
00000000
00000000
,
10010000
00000000
00000000
00000000
,
01100000
00000000
00000000
00000000
,
00011000
00000000
00000000
00000000
00000000
00000000
00022000
00033000
;

//---------------dance-double - ----------------
#NOTEDATA:;
#CHARTNAME:;
#CHARTHASH:353279832;
#STEPSTYPE:dance-double;
#BANNER:;
#DESCRIPTION:;
#CHARTSTYLE:;
#DIFFICULTY:Easy;
#METER:6;
#METERF:0.000000;
#LASTSECONDHINT:106.356911;
#RADARVALUES:0.206662,0.319989,0.260573,0.314485,0.049419,161.000000,132.000000,29.000000,35.000000,0.000000,0.000000,0.000000,0.000000,0.000000,0.206662,0.319989,0.260573,0.314485,0.049419,161.000000,132.000000,29.000000,35.000000,0.000000,0.000000,0.000000,0.000000,0.000000;
#CREDIT:YOSEFU;
#NOTES:
00000000
00000000
00000000
00000000
,
00000000
00000000
00000000
00000000
,
00000000
00000000
00000000
00000000
,
00000000
00000000
00000000
00000000
,
00000000
00000000
00020000
00032000
,
02003000
00000000
00000000
00000000
,
03020000
00000000
00230000
02300000
,
23000000
00000000
30020000
00000000
,
02030000
00000000
03001000
00010000
,
00010100
00000000
00000000
00000000
00000000
00000000
00000000
00000000
00000100
00000000
00000000
00000000
00000010
00000000
00000000
00000001
,
00000000
00001001
00001000
00000010
,
00000110
00000000
00000000
00000000
00000000
00000000
00000000
00000000
00000100
00000000
00000000
00000000
00000001
00000000
00000000
00001000
,
00000000
00001100
00000100
00010000
,
00011000
00000000
00000000
01001000
00000000
00000000
01010000
00000000
,
00010000
10000000
01000000
00000000
,
00100000
00010000
01000000
00000000
,
00001000
00010000
00000100
00000000
,
00000010
00000100
00001000
00000000
,
00000010
00000100
00000001
00000000
,
00000010
00000100
00001000
00000000
,
00000100
00010000
00001000
00000000
,
01000000
00010000
10000000
00100000
,
01100000
01000000
00010000
00000000
,
10010000
10000000
01000000
00000000
,
01100000
00000000
00000000
00110000
00000000
00000000
01100000
00000000
,
00110000
00000000
00000000
00011000
00000000
00000000
00010000
00000000
,
00010100
00000000
00000100
00010000
,
00010010
00000000
00000010
00000100
,
00000101
00000000
00000000
00001001
00000000
00000000
00001100
00000000
,
00010100
00000000
00000000
00011000
00000000
00000000
01001000
00000000
,
01010000
00000000
00000000
00020000
00000000
00000000
10030000
00000000
,
01000000
00000000
00000000
00200000
00000000
00000000
00310000
00000000
,
10000000
00100000
01000000
00001000
,
00010000
00000100
00000010
00000001
,
00002000
00000000
00003020
00000000
,
00000230
00000000
00000302
00000000
,
00001003
00000000
00000000
00002200
00000000
00000000
00003300
00000000
,
00000200
00000000
00020300
00000000
,
00032000
00000000
02003000
00000000
,
03020000
00000000
20030000
00000000
,
32000000
00000000
03200000
00000000
,
00320000
00000000
02030000
00000000
,
03002000
00000000
00023000
00000000
,
00030200
00000000
00000320
00000000
,
00000230
00000000
00002300
00003000
,
00001001
00000000
00000000
00000000
00000000
00000000
00000000
00001000
00000000
00000000
00000000
00000000
00000100
00000000
00000000
00000000
,
00000110
00000000
00000000
00000000
00000000
00000000
00000000
00000001
00000000
00000000
00000000
00000001
00000000
00000000
00000000
00000000
,
00001001
00000000
00000000
00000000
00000000
00000000
00000000
00001000
00000000
00000000
00000000
00001000
00000000
00000000
00000000
00000000
,
00001100
00000000
00000000
00000000
00000000
00000000
00000000
00010000
00000000
00000000
00000000
00010000
00000000
00000000
00000000
00000000
,
00001000
00000000
00000000
00010000
00000000
00000000
00001000
00000000
,
01000000
00000000
00000000
01000000
00000000
00000000
00000000
00000000
00000000
01000000
00000000
00000000
02020000
00000000
03030000
00000000
;

//---------------dance-double - ----------------
#NOTEDATA:;
#CHARTNAME:;
#CHARTHASH:670736858;
#STEPSTYPE:dance-double;
#BANNER:;
#DESCRIPTION:;
#CHARTSTYLE:;
#DIFFICULTY:Medium;
#METER:9;
#METERF:0.000000;
#LASTSECONDHINT:106.356911;
#RADARVALUES:0.338874,0.457127,0.260573,0.107823,0.242603,264.000000,235.000000,29.000000,12.000000,0.000000,0.000000,0.000000,0.000000,0.000000,0.338874,0.457127,0.260573,0.107823,0.242603,264.000000,235.000000,29.000000,12.000000,0.000000,0.000000,0.000000,0.000000,0.000000;
#CREDIT:YOSEFU;
#NOTES:
00000000
00000000
00000000
00000000
,
00000000
00000000
00000000
00000000
,
00000000
00000000
00000000
00000000
,
00000000
00000000
00000000
00000000
,
00000000
00000000
00020000
00032000
,
02003000
00000000
00000000
00000000
,
03020000
00000000
00000000
00000000
00000000
00000000
00000000
00000000
20030000
00000000
00000000
32000000
00000000
00000000
03100000
00000000
,
00020000
00000000
02030000
00000000
,
03100000
10000000
01000000
01100000
,
00011000
00000000
00000000
00000000
00010000
00000000
00000100
00000000
00001000
00000000
00000000
00000000
00001001
00000000
00000000
00000001
,
00000000
00000001
00000000
00000000
00000100
00000000
00000010
00000000
00001000
00000000
00000000
00000000
00000000
00000010
00000000
00000000
,
00010000
00000000
00000000
00000000
00001000
00000000
01000000
00000000
00010000
00000000
00000000
00000000
10010000
00000000
00000000
10000000
,
00000000
10000000
00000000
00000000
01000000
00000000
00100000
00000000
00010000
00000000
00000000
00000000
00000000
00100000
00000000
00000000
,
00101000
00000000
00000000
00011000
00000000
00000000
00010010
00000000
00000000
00011000
00000000
00000000
00001000
00000000
00000000
00000000
,
01000000
00000000
00001000
00000000
00010000
00100000
01000000
00000000
,
00010000
00000000
10000000
00000000
01000000
00100000
00010000
00000000
,
01000000
00000000
00100000
00000000
00010000
00001000
00000010
00000000
,
00000100
00000000
00001000
00000000
00000001
00000100
00000010
00000000
,
00000100
00000000
00001000
00000000
00010000
00000010
00001000
00000000
,
00000100
00000000
00000010
00000000
00000001
00000100
00000010
00000000
,
00000100
00000000
00001000
00000000
00010000
01000000
00100000
00000000
,
00010000
00000000
00000000
10000000
00000000
00000000
00100000
00000000
01000000
00000000
00000000
00000000
00010000
00000000
10000000
00000000
,
01000000
00000000
00100000
00010000
01000000
00000000
00100000
00010000
,
00001000
00000000
00000010
00000100
00001000
00000000
00000010
00000100
,
00000001
00000000
00000000
00000101
00000000
00000000
00001000
00000000
00000000
00001100
00000000
00000000
00010000
00000000
00001000
00000000
,
01000000
00000000
00000000
01001000
00000000
00000000
00001000
00000000
00000000
00011000
00000000
00000000
00010000
00000000
01000000
00000000
,
01100000
00000000
00100000
10000000
00010000
00000000
00100000
01000000
,
00010000
00000000
00001000
00000100
00000010
00000000
00000100
00000001
,
00001000
00000000
00000000
00001100
00000000
00000000
00000001
00000000
00000000
00000110
00000000
00000000
00001000
00000000
00000010
00000000
,
00010010
00000000
00000000
00011000
00000000
00000000
00101000
00000000
00000000
00110000
00000000
00000000
01100000
00000000
00000000
00000000
,
10000000
00000000
00000000
00100000
00000000
00000000
01000000
00000000
00000000
00000000
00000000
00000000
00010000
00000000
00000000
00000000
,
00100000
00000000
00000000
01000000
00000000
00000000
10000000
00000000
00000000
00000000
00000000
00000000
00100000
00000000
00000000
00000000
,
00010000
00000000
00000000
00001000
00000000
00000000
00000100
00000000
00000010
00000000
00000000
00000100
00000000
00000000
00000001
00000000
,
00001000
00000000
00000000
00000000
00000000
00000000
00000000
00000000
00000100
00000000
00000000
00000010
00000000
00000000
00000001
00000000
,
00000200
00000000
00002300
00000000
,
00013000
00000000
00001000
00000000
00100000
00000000
01000000
00000000
00100000
00000000
00010000
00000000
,
01000000
00000000
00000000
00100000
00000000
00000000
20200000
00000000
00000000
00000000
00000000
00000000
30300000
00000000
00000000
00000000
,
10000000
00000000
01000000
00000000
00100000
00010000
10000000
00000000
,
00100000
00000000
01000000
00000000
00001000
00010000
00000100
00000000
,
00001000
00000000
00000000
00000100
00000000
00000000
00000010
00000000
00000001
00000000
00001000
00000000
00000010
00000000
00000000
00000000
,
00000100
00000000
00000000
00000001
00000000
00000000
00000000
00000000
00001000
00000000
00000100
00000000
00000010
00000000
00000000
00000000
,
00000001
00000000
00000100
00000000
00000010
00010000
00001000
00000000
,
00100000
00000000
01000000
00000000
00100000
00010000
10000000
00000000
,
00100000
00000000
00010000
00000000
00001000
00000010
00000100
00000000
,
00001000
00000000
00000010
00000000
00000100
00000001
00001000
00000000
,
00001001
00000000
00000000
00000001
00000000
00000001
00000000
00000000
00000010
00000000
00000100
00000000
00001000
00000000
00000000
00000000
,
00001100
00000000
00000000
00011000
00000000
00000000
00000000
00010000
00000000
00100000
00000000
01000000
00000000
00100000
00000000
00000000
,
10100000
00000000
00000000
10000000
00000000
10000000
00000000
01000000
00000000
00100000
00000000
00001000
00000000
00010000
00000000
00000000
,
00000100
00000000
00000000
00001100
00000000
00000000
00000000
00001000
00000000
00000010
00000000
00000100
00000000
00001000
00000000
00000000
,
00010000
00000000
00000000
00010000
00000000
00000000
00001000
00000000
00000000
00001000
00000000
00000000
00010000
00000000
00000000
00000000
,
00011000
00000000
00000000
00001000
00000000
00010000
00000000
00100000
00000000
01000000
00000000
00000000
10100000
00000000
01010000
00000000
;

//---------------dance-double - ----------------
#NOTEDATA:;
#CHARTNAME:;
#CHARTHASH:1223724258;
#STEPSTYPE:dance-double;
#BANNER:;
#DESCRIPTION:;
#CHARTSTYLE:;
#DIFFICULTY:Hard;
#METER:11;
#METERF:0.000000;
#LASTSECONDHINT:106.487350;
#RADARVALUES:0.405622,0.526342,0.305500,0.179706,0.372890,316.000000,282.000000,34.000000,20.000000,0.000000,0.000000,0.000000,0.000000,0.000000,0.405622,0.526342,0.305500,0.179706,0.372890,316.000000,282.000000,34.000000,20.000000,0.000000,0.000000,0.000000,0.000000,0.000000;
#CREDIT:YOSEFU TAG T... Wait Wrong Game;
#NOTES:
00000000
00000000
00000000
00000000
,
00000000
00000000
00000000
00000000
,
00000000
00000000
00000000
00000000
,
00000000
00000000
00000000
00000000
,
00000000
00000000
00000000
00010000
00001000
00000000
00010000
00000000
,
00000200
00001000
00000000
00000010
,
00001300
00000000
00000000
00000000
00000001
00000000
00000000
00000000
00000100
00000000
00000000
00001000
00000000
00000000
00010000
00000000
,
00002000
01000000
00023000
01000000
,
00032000
01000000
00103000
01100000
,
11000000
00000000
00000000
00000000
10000000
00000000
00100000
00000000
01000000
00000000
00000000
00000000
01001000
00000000
00000000
00001000
,
00000000
00011000
00000000
00000000
00010000
00000000
00000100
00000000
00000010
00000001
00000000
00000001
00001000
00000000
00000000
00000000
,
00000010
00000000
00000100
00000000
00000001
00000000
00001000
00000000
00000010
00000000
00000000
00000000
00000100
00000001
00000000
00000010
,
00000000
00000110
00000000
00000000
00001000
00000000
00000010
00000000
00000100
00001000
00000000
00001000
00010000
00000000
00000000
00000000
,
00001000
01000000
00000000
00001000
00010000
00000000
00000100
00010000
00000000
00001000
00010000
00000000
00001000
01000000
00000000
00000000
,
00100000
10000000
00010000
00200000
00000000
01300000
10000000
00000000
,
00100000
01000000
00001000
00020000
00000000
00030100
00001000
00000000
,
00000001
00000010
00000100
00002000
00000000
00003010
00000100
00000000
,
00001000
00010000
01000000
00200000
00000000
00310000
10000000
00000000
,
00100000
01000000
00010000
20000000
00000000
31000000
00100000
00000000
,
00001000
00010000
00000010
00000200
00000000
00000301
00001000
00000000
,
00000001
00000010
00000100
00000020
00000000
00001030
00010000
00000000
,
00200000
00000000
00000000
02300000
00000000
00000000
03010000
00000000
00100000
00000000
00000000
00000000
01000000
00000000
10000000
00000000
,
11000000
00000000
00000000
00000000
01000000
10000000
01000000
00000000
10000000
00010000
00000000
00010000
01000000
00000000
00001000
00000000
,
00011000
00000000
00000000
00000000
00010000
00000100
00010000
00000000
00000100
00000010
00000000
00000010
00000001
00000000
00000100
00000000
,
00000110
00000000
00000000
00001010
00000000
00000000
00000110
00000000
00000000
00000101
00000000
00000000
00000001
00001000
00000001
00000000
,
00001100
00000000
00000000
00011000
00000000
00000000
01010000
00000000
00000000
00011000
00000000
00000000
00001000
00000000
01000000
00000000
,
01001000
00000000
00000000
00000000
00001000
00000000
00100000
00000000
01000000
00000000
10000000
00100000
00000000
00000000
01000000
00000000
,
01001000
00000000
00000000
00000000
00001000
00000000
00010000
00000000
00000100
00000000
00000010
00000001
00000000
00000000
00000100
00000000
,
00000101
00000000
00000000
00001001
00000000
00000000
00001100
00000000
00000000
00011000
00000000
00000000
01001000
00000000
00001000
00000000
,
00011000
00000000
00000000
00101000
00000000
00000000
00011000
00000000
00000000
00010010
00000000
00000000
00011000
00000000
00000000
00000000
,
00001000
00000000
00000000
01000000
00000000
00000000
00100000
00000000
00000000
00000000
10000000
00000000
00010000
00000000
00000000
00000000
,
10000000
00000000
00000000
01000000
00000000
00000000
00010000
00000000
00000000
00000000
00001000
00000000
00010000
00000000
00100000
00000000
,
01000000
00000000
00000000
00100000
00000000
00000000
00010000
00000000
00001000
00000000
00000000
00000010
00000000
00000000
00000100
00000000
,
00001000
00000000
00000000
00000000
00000001
00000000
00000100
00000000
00000010
00000000
00000000
00000001
00000000
00000000
00000010
00000000
,
00001000
00000000
00000100
00000000
,
00000010
00000000
00000001
00000000
00000100
00000000
00000010
00000000
00010000
00000000
00001000
00000000
,
00011000
00000000
00000000
00110000
00000000
00000000
02200000
00000000
00000000
00000000
00000000
00000000
03300000
00000000
00000000
00000000
,
20000000
00000000
01000000
00010000
,
30200000
00000000
00010000
01000000
,
10300000
00000000
01000000
00000000
00010000
00001000
00010000
00000000
,
00000010
00000000
00000000
00001000
00000000
00000000
00000100
00000010
00000001
00000100
00000010
00001000
,
00000002
00000000
00000000
00000000
00000000
00000000
00000000
00000000
00001000
00000000
00000000
00000000
00000000
00000000
00000000
00000103
,
00000010
00000100
00001000
00020000
00000000
00000000
00000000
01030000
,
00000000
00000000
00000000
00000000
00100000
00000000
00000000
00000000
00000000
00000000
00000000
00000000
00200000
00000000
00000000
00000000
00000000
00000000
00000000
00000000
00000000
00000000
00000000
00000000
00000000
00000000
00000000
00000000
00000000
00000000
00000000
00000000
00000000
00000000
00000000
00000000
00310000
00000000
00000000
00000000
00000000
00000000
00000000
00000000
00000000
01000000
00000000
00000000
,
00001000
00000000
00010000
00000000
00000100
00001000
00000001
00000000
,
00000101
00000000
00000100
00000010
00000000
00001000
00000000
00000010
00000100
00000000
00001000
00000000
00010000
00000000
00001000
00000000
,
00100000
00001000
00000000
00101000
00000000
00000000
00000000
00100000
00000000
01000000
00000000
10000000
00000000
00010000
00000000
00000000
,
01010000
00000000
01000000
00010000
00000000
00100000
00000000
01000000
00000000
00010000
00000000
00001000
00000000
00000100
00000000
00000000
,
00000010
00001000
00000000
00001010
00000000
00000000
00000000
00000010
00000000
00000100
00000000
00001000
00000000
00010000
00000000
00000000
,
00001000
00100000
00000000
00010000
00100000
00000000
01000000
00100000
00000000
10000000
00100000
00000000
00010000
00100000
00000000
00000000
,
01000000
10000000
00000000
00100000
00000000
00010000
00000000
00001000
00000000
00000010
00000000
00000000
00000001
00000010
00000100
00001000
;
