#TITLE:S・A・G・A;
#SUBTITLE:;
#ARTIST:Veeton;
#TITLETRANSLIT:;
#SUBTITLETRANSLIT:;
#ARTISTTRANSLIT:;
#GENRE:;
#CREDIT:;
#MUSIC:SAGA.ogg;
#BANNER:SAGA.png;
#BACKGROUND:SAGA-bg.png;
#CDTITLE:./CDTitles/CS DDR SuperNOVA2.png;
#SAMPLESTART:1.198000;
#SAMPLELENGTH:15.000000;
#SELECTABLE:YES;
#OFFSET:0.000000;
#BPMS:0.000000=200.000000
,100.000000=201.500000
,102.000000=204.500000
,104.000000=208.000000
,106.000000=210.000000
,108.000000=214.600000
,110.000000=218.000000
,112.000000=220.000000
,114.000000=223.000000
,116.000000=227.000000
,118.000000=230.000000
,120.000000=232.000000
,122.000000=236.000000
,124.000000=240.000000
,128.000000=248.000000
,132.000000=200.070000
,144.000000=200.900000
,148.000000=200.000000
;
#STOPS:;
#DISPLAYBPM:200.000000:244.000000;
#BGCHANGES:;
#FGCHANGES:;

//--------------- dance-single - YOSEFU ----------------
#NOTES:
     dance-single:
     YOSEFU:
     Hard:
     13:
     0,0,0,0,0:
0000
0000
0000
0000
,
0000
0000
0000
0000
,
0000
0000
0000
0000
,
0000
0000
0000
0000
,
0000
0000
1001
1001
,
1001
1000
0000
1000
,
0000
1000
0000
1000
,
0000
0001
0000
0001
,
0000
0001
0000
0001
,
0010
0100
0000
0100
0000
0100
0000
0100
,
0000
0100
0000
0100
0000
1000
0000
1000
,
0000
0100
0000
0100
0000
0100
0000
0100
,
0000
0100
0000
0100
0000
0010
0000
0010
,
0000
0001
0000
0001
0000
0001
0000
0001
,
0000
0001
0000
0001
0000
0100
0000
0100
,
0020
0000
0000
0000
0000
1030
1000
1000
,
0001
0000
0010
0100
1100
0000
1100
0000
,
1000
0100
0010
0100
1000
0000
0001
1000
,
0001
0100
0010
0100
0001
0000
1000
0001
,
1000
0010
0100
0010
1000
0000
0001
0010
,
0100
0100
0100
0100
0010
0000
0001
1000
,
1001
0000
1001
0000
1001
0000
0001
0100
,
0010
1000
0010
0100
0001
0000
1000
0100
,
0010
0100
1000
0001
1000
0000
0010
0100
,
0001
1000
0100
0000
0000
0100
0000
0000
,
0010
0001
0010
0100
1000
0000
0010
0100
,
0001
0100
0010
1000
0001
0000
1000
0100
,
0010
0001
0010
0100
1000
0000
0010
0100
,
0001
0100
0010
1000
0001
0000
1000
0100
,
0010
0001
0010
0100
1000
0000
0010
0100
,
0001
0100
0010
1000
0001
0000
1000
0100
,
0010
0001
0010
0100
1000
0000
0010
0100
,
0001
0010
2000
0000
3010
0001
1000
0000
,
1001
0000
1001
0000
,
1001
0000
0000
0000
1000
0001
1000
0000
,
1001
0000
1001
0000
,
1001
0000
0000
0000
0001
1000
0010
0100
,
0001
1000
0010
1000
0001
0000
1000
0100
,
0010
0100
1000
0001
0100
0000
0010
1000
,
0001
0010
0100
0010
0001
0000
1000
0010
,
0100
0001
0000
0100
0001
0000
0000
0000
,
1000
0100
1000
0100
0010
0001
0010
0001
,
1000
0010
1000
0010
0100
0001
0100
0001
,
1000
0100
1000
0100
0010
0001
0010
0001
,
0100
0010
0100
0010
1000
0001
1000
0001
,
0010
0100
0010
0100
1000
0001
1000
0001
,
0100
0010
0100
0010
0001
0010
0001
0010
,
1000
0010
1000
0010
0100
0001
0100
0010
,
1000
0000
1010
0000
1010
0000
0010
0100
,
0001
1000
0000
0001
1000
0000
0001
1000
,
0000
0001
1000
0000
0010
0100
0010
0100
,
0001
1000
0000
0001
1000
0000
0001
1000
,
0000
0001
1000
0000
0100
0010
0100
0010
,
0001
0100
1000
0100
0001
0100
1000
0100
,
0001
0010
1000
0010
0001
0010
1000
0010
,
0001
0100
1000
0001
0010
1000
0001
0010
,
2000
0000
0000
0000
3010
0001
1000
0010
,
0100
1000
0100
0001
1000
0000
0001
1000
,
0100
0001
0100
1000
0001
0000
0100
0010
,
1000
0010
0001
0010
1000
0000
0100
0010
,
0001
0100
1000
0100
0001
0000
1000
0100
,
0010
1000
0010
0001
1000
0000
0001
0100
,
0010
0001
0010
1000
0001
0000
0100
0010
,
1000
0100
0001
0100
1000
0000
0001
0100
,
0010
0001
0010
0100
1000
0100
0001
1000
,
0100
0001
0100
1000
0001
0000
1000
0010
,
0100
1000
0100
0001
1000
0000
0100
0010
,
0001
0100
1000
0100
0001
0000
0100
0010
,
1000
0100
0001
0100
1000
0000
0001
0100
,
0010
0001
0010
1000
0100
0000
0010
0001
,
1000
0010
0001
0010
1000
0000
0100
0010
,
0001
0010
0000
0001
0010
0000
0001
0010
,
0000
0001
0010
0000
0100
1000
0100
1000
,
0001
0100
0000
0001
0100
0000
0001
0100
,
0000
0001
0100
0000
1010
0000
1010
0000
,
1000
0100
0000
1000
0100
0000
1000
0100
,
0000
1000
0100
0000
0010
0001
0010
0001
,
1000
0010
0000
1000
0010
0000
1000
0010
,
0110
0000
0000
0000
0110
0000
0000
0000
0110
0000
0000
0000
2000
0000
0000
3001
;

//--------------- dance-single - YOSEFU ----------------
#NOTES:
     dance-single:
     YOSEFU:
     Challenge:
     16:
     0,0,0,0,0:
0000
0000
0000
0000
,
0000
0000
0000
0000
,
0000
0000
0000
0000
,
0000
0000
0000
0000
,
0000
0000
1001
1001
,
1001
0000
1000
0000
0010
0100
0001
1000
,
0000
0100
0001
0100
0000
1000
0000
1000
,
0001
0100
0000
0010
1000
0001
0010
0001
,
0000
0100
1000
0100
0000
0001
0000
0001
,
0011
0001
0100
0010
0100
0001
0100
0010
,
1000
0100
0001
0100
1000
0010
0100
0001
,
1000
0100
1000
0010
1000
0100
1000
0001
,
1000
0010
0001
0010
0100
0001
0010
0100
,
1000
0001
0010
0100
0010
0001
1000
0010
,
1000
0100
0001
0100
0010
0001
0100
0010
,
1000
0000
0001
0000
0010
0000
0100
1000
0000
0100
2000
0000
0000
0000
3001
0100
,
0010
0000
1000
0000
0001
0000
1000
0100
0010
0000
0000
0000
0011
0000
0000
0000
,
0001
0000
0100
0000
1000
0000
0100
0000
0001
0000
0000
0000
1000
0001
1000
0000
,
0001
0000
0010
0000
1000
0000
0010
0000
0001
0000
0000
0000
1000
0001
1000
0001
,
1000
0000
0100
0000
0001
0000
0100
0000
1000
0000
0000
0000
0001
1000
0001
0000
,
0100
0000
0100
0000
0100
0000
0100
0000
0110
0000
0000
0000
0100
0001
0100
0001
,
0100
0000
0000
0000
0101
0000
0000
0000
0101
0000
0000
0000
0100
0001
0100
0000
,
0001
0000
0010
0000
1000
0000
0010
0000
0001
0000
0000
0000
1000
0001
1000
0001
,
1000
0000
0010
0000
0001
0000
0010
0000
1000
0000
0000
0000
0001
1000
0001
1000
,
0001
0000
0100
0000
0010
0000
1000
0001
0000
1000
0001
0000
0010
0100
0010
0100
,
1000
0000
0100
0000
0001
0000
0100
0000
1000
0000
0000
0000
0001
1000
0001
0000
,
1000
0000
0010
0000
0001
0000
0010
0000
1000
0000
0000
0000
0001
1000
0001
1000
,
0001
0000
0100
0000
1000
0000
0100
0000
0001
0000
0000
0000
1000
0001
1000
0000
,
0001
0000
0010
0000
1000
0000
0010
0000
0001
0000
0000
0000
1000
0001
1000
0001
,
1000
0000
0100
0000
0001
0000
0100
0000
1000
0000
0000
0000
0001
1000
0001
0000
,
1000
0000
0010
0000
0001
0000
0010
0000
1000
0000
0000
0000
0001
1000
0001
1000
,
0001
0000
0100
0000
1000
0000
0100
0000
0001
0000
0000
0000
1000
0001
1000
0000
,
0001
0010
0200
0000
1300
0010
0100
0000
,
0110
0000
0110
0000
,
0110
0000
0000
0000
0100
0100
0100
0010
,
1001
0000
1000
0000
0000
0000
0001
0000
0101
0000
0100
0010
0100
0010
1000
0010
,
1000
0000
1000
0000
1000
0000
0000
0000
0001
0010
0100
0010
0001
0010
0100
0000
,
1000
0000
0100
0000
0001
0000
0100
0000
1000
0000
0000
0000
0001
1000
0001
0000
,
1000
0000
0010
0000
0001
0000
0010
0000
1000
0000
0000
0000
0001
1000
0001
1000
,
0001
0000
0010
0000
1000
0000
0010
0000
0001
0000
0000
0000
1000
0001
1000
0000
,
1001
0001
0000
1000
0001
0000
0000
0000
,
1000
0010
0100
0000
0001
0000
0010
0000
0100
0000
1000
0000
0001
0000
1000
0000
,
0010
0100
0001
0000
0010
0000
0100
0000
0001
0000
0100
0000
1000
0000
0001
0000
,
0100
0010
1000
0000
0001
0000
0010
0000
0100
0000
1000
0000
0010
0000
0100
0000
,
0001
1000
0100
0000
0010
0000
0001
0000
1000
0000
0010
0000
0100
0000
0100
0000
,
0001
0010
0100
0000
1000
0000
0010
0000
0100
0000
0001
0000
1000
0000
0100
0000
,
0010
0001
0100
0000
0010
0000
0001
0000
0010
0000
1000
0000
0001
0000
0010
0000
,
0100
1000
0001
0000
0100
0000
0010
0000
1000
0000
0100
0000
0010
0001
1000
0000
,
1010
0000
0000
0000
1010
0000
0000
0000
1010
0000
0000
0000
1000
0100
1000
0100
,
1000
0100
0000
1000
0100
0000
1000
0100
,
0000
1000
0100
0000
0010
0001
0010
0001
,
1000
0010
0000
1000
0010
0000
1000
0010
,
0000
1000
0010
0000
0100
0001
0100
0001
,
1000
1000
0100
0100
0001
0001
0100
0100
,
1000
1000
0010
0010
0001
0001
0010
0010
,
0100
0001
0100
0001
0100
0001
0100
0001
1000
0100
1000
0100
1000
0100
1000
0100
,
0020
0000
0000
0000
0000
0000
0000
0000
0031
1000
0001
1000
0001
1000
0001
1000
,
0001
0000
0100
0000
1000
0000
0100
0000
0001
0000
1000
0000
0001
0010
0100
0000
,
1000
0000
0100
0000
0001
0000
0100
0000
1000
0000
0001
0000
0100
0010
0100
0010
,
1000
0000
0010
0000
0001
0000
0010
0000
1000
0000
0001
0000
1000
0100
0010
0000
,
0001
0000
0010
0000
1000
0000
0010
0000
0001
0000
1000
0000
0010
0100
0010
0100
,
0001
0000
0100
0000
1000
0000
0100
0000
0001
0000
0010
0000
0001
0100
0010
0000
,
1000
0000
0010
0000
0001
0000
0010
0000
1000
0000
0100
0000
0010
0001
0010
0001
,
1000
0000
0100
0000
0001
0000
0100
0000
1000
0000
0010
0000
0100
0001
1000
0000
,
0001
0010
0100
1000
0001
0010
0100
0000
1000
0010
0100
0001
1000
0010
0100
0000
,
0001
0000
0010
0000
1000
0000
0010
0000
0001
0000
1000
0000
0001
0100
0010
0000
,
1000
0000
0010
0000
0001
0000
0010
0000
1000
0000
0001
0000
0010
0100
0010
0100
,
1000
0000
0100
0000
0001
0000
0100
0000
1000
0000
0001
0000
1000
0010
0100
0000
,
0001
0000
0100
0000
1000
0000
0100
0000
0001
0000
1000
0000
0100
0010
0100
0010
,
0001
0000
0010
0000
1000
0000
0010
0000
0001
0000
0100
0000
0001
0010
0100
0000
,
1000
0000
0100
0000
0001
0000
0100
0000
1000
0000
0010
0000
0100
0001
0100
0001
,
1000
0100
0000
1000
0100
0010
0100
1000
,
0000
0000
0100
0000
0001
0000
0100
0000
1000
0000
0001
0000
1000
0000
0001
1000
,
0010
0100
0000
0001
0100
0010
0100
0001
,
0000
0010
1000
0010
0011
0000
0011
0000
,
0011
0001
0000
1000
0010
0100
0010
1000
,
0000
0100
0001
0100
1000
0010
1000
0010
,
0100
0001
0000
0100
0001
0010
0001
0100
,
0110
0000
0000
0000
0110
0000
0000
0000
0110
0000
0000
0000
0010
1000
0001
0010
;

//--------------- dance-double - YOSEFU ----------------
#NOTES:
     dance-double:
     YOSEFU:
     Hard:
     14:
     0,0,0,0,0:
00000000
00000000
00000000
00000000
,
00000000
00000000
00000000
00000000
,
00000000
00000000
00000000
00000000
,
00000000
00000000
00000000
00000000
,
00000000
00000000
00011000
00011000
,
00011000
00010000
00000000
00010000
,
00000000
00001000
00000000
00001000
,
00000000
00100000
00000000
00100000
,
00000000
00010000
00000000
00010000
,
10000000
00100000
00000000
00100000
00000000
01000000
00000000
01000000
,
00000000
00001000
00000000
00001000
00000000
00010000
00000000
00010000
,
00000000
00000100
00000000
00000100
00000000
00000010
00000000
00000010
,
00000000
00000001
00000000
00000001
00000000
00000100
00000000
00000100
,
00000000
00001000
00000000
00001000
00000000
00010000
00000000
00010000
,
00000000
01000000
00000000
01000000
00000000
10000000
00000000
10000000
,
00010000
00000000
00000000
00000000
00000000
01000000
01000000
01000000
,
00100000
00000000
10000000
00010000
10010000
00000000
10010000
00000000
,
10000000
01000000
00010000
00001000
00010000
00000000
00001000
00000000
,
00010000
00001000
00000010
00000001
00001000
00000000
00000001
00001000
,
00000001
00000100
00001000
00010000
00001000
00000000
00010000
00000000
,
00001000
00001000
00001000
00001000
00010000
00000000
00001000
00100000
,
00110000
00000000
00110000
00000000
00110000
00000000
00010000
10000000
,
00100000
00010000
00001000
00010000
00001000
00000000
00010000
00001000
,
00000010
00000100
00001000
00000001
00000100
00000000
00000010
00001000
,
00000001
00000010
00000100
00000000
00000000
00000100
00000000
00000000
,
00010000
00001000
00000010
00000001
00000100
00000000
00001000
00000000
,
00010000
00100000
10000000
01000000
00010000
00000000
00001000
00000000
,
00000010
00000001
00000100
00001000
00010000
00000000
00100000
00000000
,
10000000
01000000
00010000
00001000
00000010
00000000
00000001
00000000
,
00000100
00001000
00010000
01000000
10000000
00000000
00100000
00000000
,
00010000
00001000
00000010
00000001
00000100
00000000
00001000
00000000
,
00010000
01000000
10000000
00100000
00010000
00000000
00001000
00000000
,
00000010
00000001
00000200
00000000
00000310
00010000
00001000
00000000
,
00011000
00000000
00011000
00000000
,
00011000
00000000
00000000
00000000
00010000
00010000
00010000
00000000
,
00011000
00000000
00011000
00000000
,
00001000
00001000
00001000
00000000
00100000
01000000
00100000
00010000
,
10000000
00100000
01000000
00100000
10000000
00000000
00010000
00000000
,
00100000
01000000
00100000
00001000
00010000
00000000
00000010
00000000
,
00000100
00000001
00000010
00000100
00010000
00000000
00001000
00000000
,
00100000
00001000
00000000
00100000
00001000
00000000
00000000
00000000
,
00010000
00001000
00100000
00010000
10000000
00100000
01000000
00001000
,
00010000
00100000
00010000
00001000
00000010
00000100
00001000
00000001
,
00000100
00000010
00001000
00000100
00000010
00000001
00000100
00000010
,
00001000
00000010
00010000
00001000
00100000
00010000
10000000
10000000
,
00010000
01000000
00100000
01000000
00010000
10000000
01000000
00100000
,
00001000
00010000
00001000
00000010
00000100
00000010
00001000
00010000
,
00000010
00000100
00000001
00000010
00000100
00001000
00000001
00000001
,
00000101
00000000
00000101
00000000
00000101
00000000
00000001
00001000
,
00000100
00001000
00000000
00000100
00001000
00000000
00000100
00001000
,
00000000
00000100
00001000
00000000
00000001
00000100
00000001
00000100
,
00000010
00010000
00000000
00000010
00010000
00000000
00000010
00010000
,
00000000
00000010
00010000
00000000
00001000
00010000
00001000
00010000
,
00001000
00000010
00001000
00000010
00000001
00000100
00000001
00000100
,
00001000
00010000
00001000
00010000
00100000
10000000
00100000
10000000
,
01000000
00010000
00001000
00000100
00000001
00000010
00001000
00010000
,
00200000
00000000
02300000
00000000
,
03010000
10000000
01000000
00100000
01000000
00000000
10000000
00000000
,
00010000
01000000
00100000
00010000
00001000
00000000
00010000
00000000
,
00000100
00000010
00000100
00001000
00000001
00000000
00001000
00000000
,
00000010
00000100
00001000
00010000
00001000
00000000
00100000
00000000
,
01000000
00100000
00010000
10000000
00100000
00000000
01000000
00000000
,
00100000
01000000
00100000
00010000
00001000
00000000
00010000
00000000
,
00000100
00001000
00000001
00001000
00000010
00000000
00000100
00000000
,
00000001
00000100
00001000
00000000
00010000
01000000
10000000
00000000
,
00100000
01000000
00010000
10000000
01000000
00000000
00100000
00010000
,
10000000
00100000
00010000
00001000
00010000
00000000
00001000
00000010
,
00000100
00001000
00000100
00000010
00000001
00000000
00000100
00000010
,
00000100
00001000
00010000
00001000
00100000
00000000
01000000
10000000
,
00100000
01000000
00100000
00010000
00001000
00000000
00010000
00001000
,
00000010
00000100
00001000
00000001
00000100
00000000
00000010
00001000
,
00000001
00000010
00000000
00000001
00000010
00000000
00000001
00000010
,
00000000
00000001
00000010
00000000
00000100
00010000
00000100
00010000
,
00001000
00010000
00000000
00001000
00010000
00000000
00001000
00010000
,
00000000
00001000
00010000
00000000
00011000
00000000
00011000
00000000
,
00001000
01000000
00000000
00001000
01000000
00000000
00001000
01000000
,
00000000
00001000
01000000
00000000
00010000
10000000
00010000
10000000
,
01000000
00100000
00000000
01000000
00100000
00000000
01000000
00100000
,
01100000
00000000
00000000
00000000
01100000
00000000
00000000
00000000
01100000
00000000
00000000
00000000
00010000
00000000
00000000
00001000
;

//--------------- dance-double - YOSEFU ----------------
#NOTES:
     dance-double:
     YOSEFU:
     Challenge:
     16:
     0,0,0,0,0:
00000000
00000000
00000000
00000000
,
00000000
00000000
00000000
00000000
,
00000000
00000000
00000000
00000000
,
00000000
00000000
00000000
00000000
,
00000000
00000000
00011000
00011000
,
00011000
00000000
00010000
00000000
00001000
00000010
00001000
00010000
,
00000000
00100000
10000000
00010000
00000000
10000000
00000000
10000000
,
01000000
00100000
00000000
01000000
00010000
00001000
00010000
00100000
,
00000000
00010000
00001000
00000010
00000000
00000001
00000000
00000001
,
00000100
00000001
00000010
00000001
00000100
00000010
00001000
00000100
,
00010000
00001000
00100000
00010000
10000000
00100000
00010000
00100000
,
01000000
00010000
01000000
00001000
00010000
00000100
00001000
00000001
,
00000100
00000001
00000010
00000001
00000100
00001000
00000100
00000010
,
00000100
00000001
00000010
00000001
00001000
00000100
00010000
00001000
,
01000000
00010000
00100000
01000000
00010000
01000000
10000000
00010000
,
01000000
00000000
00100000
00000000
10000000
00000000
00010000
00100000
00000000
00010000
00200000
00000000
00000000
00000000
00301000
00010000
,
00000010
00000000
00001000
00000000
00000001
00000000
00000010
00000100
00001000
00000000
00000000
00000000
00001001
00000000
00000000
00000000
,
00000001
00000000
00000100
00000000
00001000
00000000
00010000
00000000
00001000
00000000
00000000
00000000
00100000
00010000
00100000
00000000
,
00010000
00000000
01000000
00000000
00100000
00000000
00010000
00000000
00001000
00000000
00000000
00000000
00000010
00000100
00000010
00000100
,
00001000
00000000
00000010
00000000
00000100
00000000
00001000
00000000
00010000
00000000
00000000
00000000
00001000
00100000
00001000
00000000
,
01000000
00000000
01000000
00000000
01000000
00000000
01000000
00000000
01010000
00000000
00000000
00000000
00010000
10000000
00010000
10000000
,
01000000
00000000
00000000
00000000
11000000
00000000
00000000
00000000
11000000
00000000
00000000
00000000
10000000
00010000
10000000
00000000
,
00100000
00000000
00010000
00000000
00001000
00000000
00000010
00000000
00001000
00000000
00000000
00000000
00000010
00000100
00000010
00000100
,
00001000
00000000
00000010
00000000
00000100
00000000
00001000
00000000
00010000
00000000
00000000
00000000
00001000
01000000
00001000
01000000
,
00010000
00000000
10000000
00000000
01000000
00000000
00100000
00001000
00000000
00100000
00001000
00000000
00010000
00001000
00010000
00001000
,
00010000
00000000
00100000
00000000
10000000
00000000
01000000
00000000
00010000
00000000
00000000
00000000
00001000
00010000
00001000
00000000
,
00010000
00000000
01000000
00000000
10000000
00000000
00100000
00000000
00010000
00000000
00000000
00000000
00001000
00010000
00001000
00010000
,
00001000
00000000
00000010
00000000
00000001
00000000
00000100
00000000
00001000
00000000
00000000
00000000
00010000
00001000
00010000
00000000
,
00001000
00000000
00000100
00000000
00000001
00000000
00000010
00000000
00001000
00000000
00000000
00000000
00010000
00001000
00010000
00001000
,
00010000
00000000
01000000
00000000
10000000
00000000
00100000
00000000
00010000
00000000
00000000
00000000
00001000
00010000
00001000
00000000
,
00010000
00000000
00100000
00000000
10000000
00000000
01000000
00000000
00010000
00000000
00000000
00000000
00001000
00010000
00001000
00010000
,
00001000
00000000
00000100
00000000
00000001
00000000
00000010
00000000
00001000
00000000
00000000
00000000
00010000
00001000
00010000
00000000
,
00001000
00000010
00000002
00000000
00000103
00001000
00010000
00000000
,
00011000
00000000
00011000
00000000
,
00011000
00000000
00000000
00000000
00010000
00010000
00010000
00000000
,
00011000
00000000
00000000
00000000
00000000
00000000
00000000
00000000
00001000
00000000
01000000
00010000
01000000
00010000
10000000
00010000
,
10000000
00000000
10000000
00000000
10000000
00000000
00000000
00000000
01000000
00100000
01000000
00100000
01000000
00100000
01000000
00000000
,
10000000
00000000
01000000
00000000
00010000
00000000
00001000
00000000
00010000
00000000
00000000
00000000
00001000
00010000
00001000
00000000
,
00010000
00000000
00100000
00000000
10000000
00000000
01000000
00000000
00010000
00000000
00000000
00000000
00001000
00010000
00001000
00010000
,
00001000
00000000
00000010
00000000
00000001
00000000
00000100
00000000
00001000
00000000
00000000
00000000
00010000
00001000
00010000
00000000
,
00001000
00100000
00000000
00000010
00010000
00000000
00000000
00000000
,
00001000
00010000
00100000
10000000
01000000
00100000
00001000
00010000
,
00001000
00000010
00000100
00001000
00000001
00000100
00001000
00010000
,
01000000
10000000
00100000
00010000
00001000
01000000
00100000
00010000
,
00001000
00000010
00000100
00001000
00000100
00000001
00000100
00010000
,
00001000
00010000
00100000
01000000
00001000
00010000
00100000
01000000
,
00001000
00010000
01000000
10000000
00100000
00010000
00001000
00000010
,
00000001
00000000
00000100
00000000
00001000
00000000
00010000
00000000
00000010
00000000
00000100
00000000
00001000
00010000
00001000
00000000
,
00011000
00011000
00011000
00020000
,
00031000
01000000
00000000
00001000
01000000
00000000
00000100
00010000
,
00000000
00000100
00010000
00000000
00001000
00100000
00001000
00100000
,
00001000
01000000
00000000
00001000
01000000
00000000
00000100
00010000
,
00000000
00000100
00010000
00000000
00000010
00010000
00000010
00010000
,
00001000
00001000
00000010
00000010
00000001
00000001
00000100
00000100
,
00001000
00001000
00010000
00010000
01000000
01000000
10000000
10000000
,
00010000
01000000
00010000
01000000
00010000
01000000
00010000
01000000
00001000
00010000
00001000
00010000
00001000
00010000
00001000
00010000
,
00000200
00000000
00000000
00000000
00000000
00000000
00000000
00000000
00010300
00001000
00010000
00001000
00010000
00001000
00010000
00001000
,
00010000
00000000
01000000
00000000
10000000
00000000
00100000
00000000
00010000
00000000
00000000
00000000
00001000
00010000
00001000
00000000
,
00010000
00000000
00100000
00000000
10000000
00000000
01000000
00000000
00010000
00000000
00000000
00000000
00001000
00010000
00001000
00010000
,
00001000
00000000
00000100
00000000
00000001
00000000
00000010
00000000
00001000
00000000
00000000
00000000
00010000
00001000
00010000
00000000
,
00001000
00000000
00000010
00000000
00000001
00000000
00000100
00000000
00001000
00000000
00000000
00000000
00010000
00001000
00010000
00001000
,
00010000
00000000
00100000
00000000
10000000
00000000
01000000
00000000
00010000
00000000
00000000
00000000
00001000
00010000
00001000
00000000
,
00010000
00000000
01000000
00000000
10000000
00000000
00100000
00000000
00010000
00000000
00000000
00000000
00001000
00010000
00001000
00010000
,
00001000
00000000
00000010
00000000
00000001
00000000
00000100
00000000
00001000
00000000
00000000
00000000
00010000
00001000
00010000
00000000
,
00001000
00100000
01000000
10000000
00010000
00100000
01000000
00000000
10000000
00100000
01000000
00001000
00010000
00001000
00010000
00000000
,
00001000
00000000
00000100
00000000
00000001
00000000
00000010
00000000
00001000
00000000
00000000
00000000
00010000
00001000
00010000
00000000
,
00001000
00000000
00000010
00000000
00000001
00000000
00000100
00000000
00001000
00000000
00000000
00000000
00010000
00001000
00010000
00001000
,
00010000
00000000
01000000
00000000
10000000
00000000
00100000
00000000
00010000
00000000
00000000
00000000
00001000
00010000
00001000
00000000
,
00010000
00000000
00100000
00000000
10000000
00000000
01000000
00000000
00010000
00000000
00000000
00000000
00001000
00010000
00001000
00010000
,
00001000
00000000
00000010
00000000
00000001
00000000
00000100
00000000
00001000
00000000
00000000
00000000
00010000
00001000
00010000
00000000
,
00001000
00000000
00000100
00000000
00000001
00000000
00000010
00000000
00001000
00000000
00000000
00000000
00010000
00001000
00010000
00001000
,
00010000
00000100
00000000
00010000
00000100
00000000
01000000
00001000
,
00000000
01000000
00001000
00000000
00100000
00001000
00100000
00001000
,
00010000
00000100
00000000
00010000
00000100
00000000
01000000
00001000
,
00000000
01000000
00001000
00000000
01000100
00000000
01000100
00000000
,
00010000
00000100
00000000
00010000
00000100
00000000
01000000
00001000
,
00000000
01000000
00001000
00000000
00100000
00001000
00010000
00000010
,
00010000
00000100
00000000
00010000
00000100
00000000
00010000
00001000
,
00011000
00000000
00000000
00000000
00100010
00000000
00000000
00000000
00011000
00000000
00000000
00000000
00010000
00001000
00010000
00001000
;
