#VERSION:0.83;
#TITLE:Psycho;
#SUBTITLE:;
#ARTIST:More Plastic & URBANO;
#TITLETRANSLIT:;
#SUBTITLETRANSLIT:;
#ARTISTTRANSLIT:;
#GENRE:;
#CREDIT:;
#MUSIC:Psycho.ogg;
#BANNER:Psycho.png;
#BACKGROUND:Psycho-bg.png;
#CDTITLE:cdtitle.png;
#SAMPLESTART:44.308692;
#SAMPLELENGTH:29.538462;
#SELECTABLE:YES;
#OFFSET:-0.001000;
#BPMS:0.000000=130.000000;
#STOPS:;
#SPEEDS:0.000000=1.000000=0.000000=0;
#SCROLLS:0.000000=1.000000;
#TICKCOUNTS:0.000000=4;
#TIMESIGNATURES:0.000000=4=4;
#LABELS:0.000000=Song Start;
#COMBOS:0.000000=1;
#ORIGIN:;
#PREVIEWVID:;
#JACKET:Psycho-jcaket.png;
#CDIMAGE:;
#DISCIMAGE:;
#BGCHANGES:;
#FGCHANGES:;

//--------------- dance-single - ----------------
#NOTEDATA:;
#STEPSTYPE:dance-single;
#DESCRIPTION:;
#DIFFICULTY:Hard;
#METER:12;
#RADARVALUES:0,0,0,0,0;
#CHARTNAME:;
#CHARTSTYLE:Pad Singles;
#CREDIT:YOSEFU;
#NOTES:
0000
0000
0000
0000
,
0000
0000
0000
0000
,
0000
0000
0000
0000
,
0000
0000
0000
0000
,
1000
0000
0000
1000
0000
0000
0010
0000
0000
0100
0000
0000
0100
0000
0000
0100
,
0001
0000
0000
0001
0000
0000
0010
0000
0000
0100
0000
0000
0100
0000
1000
0000
,
0001
0000
0000
0001
0000
0000
0100
0000
0000
0010
0000
0000
0010
0000
0000
0010
,
1000
0000
0000
1000
0000
0000
0100
0000
0000
0010
0000
0000
1000
0000
0010
0000
,
0001
0000
0100
0001
0010
0001
0100
0010
,
1000
0000
0100
1000
0010
0100
0001
1000
,
0001
0000
0010
0100
1000
0010
0100
0001
,
1000
0100
1000
0001
0100
0001
0010
0100
,
1000
0000
0010
0100
0010
1000
0001
1000
,
0100
0000
0010
0100
1000
0010
0100
0001
,
1000
0000
0000
0100
0010
0001
1000
0010
,
0100
0000
0000
0000
0000
0001
1000
0000
0100
0000
0010
0000
0001
0000
0100
0000
,
0010
0000
0000
0000
0000
1000
0001
0000
0100
0000
0010
0000
1000
0000
0001
0000
,
1000
0000
0000
0000
0000
0100
0010
0000
0001
0000
1000
0000
0010
0000
0100
0000
,
0001
0000
0000
0000
0000
1000
0100
0000
0010
0000
0001
0000
1000
0000
0001
0000
,
1000
0000
0000
0000
0000
0010
0100
0000
0001
0000
1000
0000
0100
0000
0010
0000
,
0001
0000
1000
0010
0100
0000
0001
0010
,
0100
0000
1000
0010
0100
0000
0001
1000
,
0100
0010
0100
0010
0001
1000
0001
1000
,
0010
0000
0000
0000
1000
1000
0001
0001
,
1002
0000
0000
0000
1003
0010
0100
0000
0001
0010
0000
0100
1000
0000
0001
1000
,
0020
0000
0030
0000
1000
0100
0010
0000
0001
0100
0000
0010
1000
0000
0001
1000
,
0200
0000
0300
0000
1000
0000
0100
0010
0000
1000
0000
0010
0100
0000
1000
0000
,
0002
0000
0003
0000
1000
0000
0010
0100
0000
1000
0000
0100
0010
0000
1000
0000
,
0002
0000
0000
0000
1003
0100
0010
0000
0001
0100
0000
0010
1000
0000
0001
1000
,
0200
0000
0300
0000
1000
0010
0100
0000
0001
0010
0000
0100
1000
0000
0001
1000
,
0020
0000
0030
0000
1000
0000
0001
0010
0000
0100
0000
0001
0100
0000
0010
0000
,
0001
0000
0000
0000
0001
0000
0000
0000
0100
0000
0000
0100
0000
0000
0010
0000
,
2000
0000
0000
0000
3100
0010
0001
0000
0100
1000
0000
0100
0001
0000
1000
0100
,
0020
0000
0030
0000
0001
0100
0010
0000
1000
0100
0000
0010
0001
0000
0100
0010
,
2000
0000
3000
0000
0001
0000
1000
0100
0000
0001
0000
0100
1000
0000
0001
0000
,
0200
0000
0300
0000
0001
0000
1000
0010
0000
0001
0000
0010
1000
0000
0001
0000
,
2000
0000
0000
0000
3010
0100
0001
0000
0010
1000
0000
0010
0001
0000
1000
0010
,
0200
0000
0300
0000
0001
0010
0100
0000
1000
0010
0000
0100
0001
0000
0010
0100
,
2000
0000
3000
0000
0100
0000
1000
0010
0000
0001
0000
0010
1000
0000
0100
0000
,
0000
0000
0000
0000
1000
1000
0001
0001
,
0100
0000
0000
0001
0000
0000
0010
0000
0000
0100
0000
0000
0100
0000
0000
1000
,
0100
0000
0000
1000
0000
0000
0001
0000
0000
0100
0000
0000
1000
0000
0100
0000
,
0001
0000
0000
0010
0000
0000
0100
0000
0000
1000
0000
0000
1000
0000
0000
0001
,
0100
0000
0000
0001
0000
0000
1000
0000
0000
0100
0000
0000
0001
0000
0100
0000
,
1000
0000
0000
0010
0000
0000
0100
0000
0000
0001
0000
0000
0001
0000
0000
0010
,
0100
0000
0000
1000
0000
0000
0001
0000
0000
0100
0000
0000
1000
0000
0100
0000
,
0001
0000
0000
0010
0000
0000
0100
0000
0000
1000
0000
0000
0010
0000
0000
0100
,
0001
0000
1000
0100
0010
0000
0001
0100
,
0020
0000
0000
0000
,
0000
0000
0000
0000
,
0030
0000
0000
0000
;
