#VERSION:0.83;
#TITLE:Parallel Universe Shifter;
#SUBTITLE:;
#ARTIST:かめりあ;
#TITLETRANSLIT:;
#SUBTITLETRANSLIT:;
#ARTISTTRANSLIT:;
#GENRE:;
#CREDIT:;
#MUSIC:Parallel Universe Shifter.ogg;
#BANNER:;
#BACKGROUND:;
#CDTITLE:5grains_cdtitle.png;
#SAMPLESTART:293.115000;
#SAMPLELENGTH:18.240000;
#SELECTABLE:YES;
#OFFSET:-1.000000;
#BPMS:0.000000=150.000000
,84.000000=300.000000
,104.000000=150.000000
,139.000000=145.000000
,141.000000=140.000000
,143.000000=135.000000
,145.000000=130.000000
,147.000000=125.000000
,149.000000=120.000000
,151.000000=115.000000
,153.000000=110.000000
,167.000000=111.000000
,168.000000=112.000000
,169.000000=113.000000
,170.000000=114.000000
,171.000000=115.000000
,172.000000=116.000000
,173.000000=117.000000
,174.000000=118.000000
,175.000000=119.000000
,176.000000=120.000000
,177.000000=121.000000
,178.000000=122.000000
,179.000000=123.000000
,180.000000=124.000000
,181.000000=125.000000
,182.000000=126.000000
,183.000000=127.000000
,184.000000=128.000000
,185.000000=129.000000
,186.000000=130.000000
,187.000000=131.000000
,188.000000=132.000000
,189.000000=133.000000
,190.000000=67.000000
,190.500000=134.000000
,191.000000=268.000000
,196.000000=280.000000
,202.000000=140.000000
,204.000000=141.000000
,205.000000=145.000000
,206.000000=146.000000
,207.000000=147.000000
,208.000000=148.000000
,209.000000=149.000000
,210.000000=150.000000
,211.000000=151.000000
,212.000000=152.000000
,213.000000=153.000000
,214.000000=154.000000
,215.000000=155.000000
,216.000000=156.000000
,217.000000=157.000000
,218.000000=158.000000
,219.000000=159.000000
,220.000000=160.000000
,221.000000=161.000000
,222.000000=162.000000
,223.000000=163.000000
,224.000000=164.000000
,225.000000=165.000000
,226.000000=166.000000
,227.000000=167.000000
,228.000000=168.000000
,229.000000=169.000000
,230.000000=170.000000
,231.000000=171.000000
,232.000000=172.000000
,233.000000=173.000000
,234.000000=174.000000
,235.000000=175.000000
,315.000000=87.500000
,315.500000=175.000000
,316.000000=350.000000
,327.000000=175.000000
,330.000000=170.000000
,332.000000=165.000000
,334.000000=160.000000
,336.000000=155.000000
,338.000000=150.000000
,340.000000=145.000000
,342.000000=140.000000
,344.000000=135.000000
,366.000000=136.000000
,367.000000=137.000000
,368.000000=138.000000
,369.000000=139.000000
,370.000000=140.000000
,371.000000=141.000000
,372.000000=142.000000
,373.000000=143.000000
,374.000000=144.000000
,375.000000=145.000000
,376.000000=146.000000
,377.000000=147.000000
,378.000000=148.000000
,379.000000=149.000000
,380.000000=150.000000
,381.000000=151.000000
,382.000000=152.000000
,383.000000=153.000000
,384.000000=154.000000
,385.000000=155.000000
,386.000000=156.000000
,387.000000=157.000000
,388.000000=158.000000
,389.000000=79.500000
,389.500000=159.000000
,390.000000=318.000000
,395.000000=330.000000
,401.000000=165.000000
,403.000000=166.000000
,404.000000=167.000000
,405.000000=168.000000
,406.000000=169.000000
,407.000000=170.000000
,408.000000=171.000000
,409.000000=172.000000
,410.000000=173.000000
,411.000000=174.000000
,412.000000=175.000000
,413.000000=176.000000
,414.000000=177.000000
,415.000000=178.000000
,416.000000=179.000000
,417.000000=180.000000
,418.000000=181.000000
,419.000000=182.000000
,420.000000=183.000000
,421.000000=184.000000
,422.000000=185.000000
,423.000000=186.000000
,424.000000=187.000000
,425.000000=188.000000
,426.000000=189.000000
,427.000000=190.000000
,428.000000=191.000000
,429.000000=192.000000
,430.000000=193.000000
,431.000000=194.000000
,432.000000=195.000000
,433.000000=196.000000
,434.000000=197.000000
,442.000000=200.000000
,459.000000=201.000000
,461.000000=202.000000
,462.000000=203.000000
,463.000000=204.000000
,464.000000=205.000000
,465.000000=206.000000
,466.000000=207.000000
,467.000000=208.000000
,468.000000=209.000000
,469.000000=210.000000
,470.000000=211.000000
,471.000000=212.000000
,472.000000=213.000000
,473.000000=214.000000
,474.000000=215.000000
,475.000000=216.000000
,476.000000=217.000000
,477.000000=218.000000
,478.000000=219.000000
,479.000000=220.000000
,480.000000=221.000000
,481.000000=222.000000
,482.000000=111.500000
,482.500000=223.000000
,483.000000=446.000000
,488.000000=460.000000
,492.000000=230.000000
,495.000000=231.000000
,496.000000=232.000000
,497.000000=233.000000
,498.000000=234.000000
,499.000000=235.000000
,500.000000=236.000000
,501.000000=237.000000
,502.000000=238.000000
,503.000000=239.000000
,504.000000=240.000000
,505.000000=241.000000
,506.000000=242.000000
,507.000000=243.000000
,508.000000=244.000000
,509.000000=245.000000
,510.000000=246.000000
,511.000000=247.000000
,512.000000=248.000000
,513.000000=249.000000
,514.000000=250.000000
,515.000000=251.000000
,516.000000=252.000000
,517.000000=253.000000
,518.000000=254.001000
,519.000000=255.000000
,520.000000=256.000000
,521.000000=257.000000
,522.000000=258.000000
,523.000000=259.000000
,524.000000=260.000000
,525.000000=261.000000
,526.000000=262.000000
,638.000000=260.000000
,639.000000=250.000000
,640.000000=240.000000
,641.000000=230.000000
,642.000000=220.000000
,643.000000=210.000000
,644.000000=200.000000
,645.000000=190.000000
,646.000000=180.000000
,647.000000=170.000000
,648.000000=160.000000
,649.000000=150.000000
,650.000000=140.000000
,651.000000=130.000000
,652.000000=120.000000
,653.000000=110.000000
,654.000000=100.000000
,670.000000=105.000000
,674.000000=110.000000
,678.000000=115.000000
,682.000000=120.000000
,686.000000=125.000000
,690.000000=130.000000
,694.000000=135.000000
,698.000000=140.000000
,702.000000=150.000000
,742.000000=151.000000
,746.000000=152.000000
,750.000000=153.000000
,754.000000=154.000000
,758.000000=155.000000
,762.000000=156.000000
,766.000000=157.000000
,770.000000=158.000000
,772.000000=159.000000
,774.000000=160.000000
,776.000000=165.000000
,778.000000=170.000000
,780.000000=175.000000
,782.000000=180.000000
,784.000000=190.000000
,786.000000=200.000000
,788.000000=210.000000
,790.000000=220.000000
,792.000000=225.000000
,794.000000=230.000000
,796.000000=235.000000
,798.000000=240.000000
,800.000000=245.000000
,802.000000=250.000000
,1006.000000=255.000000
,1010.000000=260.000000
,1014.000000=265.000000
,1018.000000=270.000000
,1022.000000=275.000000
,1026.000000=280.000000
,1030.000000=142.500000
,1031.000000=285.000000
,1032.000000=570.000000
,1034.000000=579.998000
,1042.000000=590.000000
,1050.000000=600.000000
,1054.000000=300.000000
,1104.000000=300.999000
,1105.000000=302.001000
,1106.000000=303.000000
,1107.000000=304.001000
,1108.000000=305.000000
,1109.000000=306.001000
,1110.000000=307.000000
,1111.000000=308.000000
,1112.000000=309.000000
,1113.000000=310.001000
,1114.000000=311.000000
,1115.000000=312.000000
,1116.000000=313.000000
,1117.000000=314.000000
,1118.000000=315.000000
,1119.000000=316.001000
,1120.000000=317.001000
,1121.000000=318.000000
,1122.000000=319.000000
,1123.000000=320.000000
,1124.000000=321.000000
,1125.000000=322.001000
,1126.000000=322.999000
,1127.000000=324.000000
,1128.000000=325.001000
,1129.000000=326.000000
,1130.000000=327.000000
,1131.000000=328.000000
,1132.000000=329.000000
,1133.000000=330.000000
,1134.000000=331.000000
,1135.000000=332.000000
,1136.000000=333.000000
,1137.000000=333.999000
,1138.000000=335.001000
,1139.000000=336.001000
,1140.000000=336.999000
,1141.000000=338.000000
,1142.000000=339.000000
,1143.000000=339.999000
,1144.000000=341.000000
,1145.000000=341.999000
,1146.000000=343.000000
,1147.000000=343.999000
,1148.000000=345.000000
,1149.000000=346.001000
,1150.000000=346.999000
,1151.000000=348.000000
,1152.000000=349.000000
,1153.000000=349.999000
,1154.000000=351.000000
,1155.000000=351.999000
,1156.000000=352.999000
,1157.000000=353.999000
,1158.000000=355.000000
,1159.000000=356.001000
,1160.000000=178.500000
,1161.000000=357.000000
,1162.000000=714.000000
,1164.000000=719.998000
,1172.000000=729.998000
,1180.000000=370.000000
,1184.000000=371.000000
,1185.000000=372.001000
,1186.000000=373.000000
,1187.000000=374.000000
,1188.000000=375.000000
,1189.000000=376.001000
,1190.000000=377.000000
,1191.000000=378.000000
,1192.000000=379.001000
,1193.000000=379.999000
,1194.000000=381.001000
,1195.000000=382.000000
,1196.000000=383.000000
,1197.000000=384.000000
,1198.000000=385.000000
,1199.000000=386.001000
,1200.000000=386.999000
,1201.000000=388.000000
,1202.000000=388.999000
,1203.000000=390.000000
,1204.000000=390.999000
,1205.000000=392.001000
,1206.000000=392.999000
,1207.000000=394.001000
,1208.000000=394.999000
,1209.000000=396.000000
,1210.000000=396.999000
,1211.000000=397.999000
,1212.000000=399.000000
,1213.000000=400.000000
,1214.000000=401.000000
,1215.000000=401.999000
,1216.000000=403.001000
,1217.000000=404.000000
,1218.000000=405.000000
,1219.000000=406.001000
,1220.000000=407.000000
,1221.000000=408.000000
,1222.000000=409.001000
,1223.000000=410.001000
,1224.000000=411.001000
,1225.000000=412.000000
,1226.000000=413.001000
,1227.000000=413.999000
,1228.000000=415.001000
,1229.000000=415.999000
,1230.000000=417.000000
,1231.000000=417.999000
,1232.000000=419.000000
,1233.000000=420.000000
,1234.000000=420.999000
,1235.000000=422.000000
,1236.000000=423.000000
,1237.000000=424.001000
,1238.000000=425.001000
,1239.000000=426.000000
,1240.000000=427.001000
,1241.000000=428.000000
,1242.000000=429.000000
,1243.000000=430.000000
,1244.000000=431.000000
,1245.000000=432.000000
,1246.000000=433.000000
,1247.000000=434.000000
,1248.000000=435.000000
,1287.000000=439.999000
,1471.500000=430.000000
,1472.500000=420.000000
,1473.500000=410.001000
,1474.500000=400.000000
,1475.500000=390.000000
,1476.500000=379.999000
,1477.500000=370.000000
,1478.500000=359.999000
,1479.500000=349.999000
,1480.500000=339.999000
,1481.500000=330.000000
,1482.500000=320.000000
,1483.500000=310.001000
,1484.500000=300.000000
,1485.500000=295.000000
,1486.500000=289.999000
,1487.500000=285.000000
,1488.500000=280.000000
,1489.500000=275.000000
,1490.500000=270.000000
,1491.500000=265.000000
,1492.500000=260.000000
,1493.500000=255.000000
,1494.500000=250.000000
,1495.500000=245.000000
,1496.500000=240.000000
,1497.500000=235.000000
,1498.500000=230.000000
,1499.500000=225.000000
,1500.500000=220.000000
,1501.500000=215.000000
,1502.500000=210.000000
,1503.500000=205.000000
,1504.500000=200.000000
,1505.500000=195.000000
,1506.500000=190.000000
;
#STOPS:104.000000=0.400000
,165.000000=1.636000
,356.000000=1.333000
,1282.250000=0.069000
,1284.750000=0.069000
,1415.750000=0.068000
,1416.750000=0.068000
,1418.000000=0.068000
,1419.250000=0.068000
,1420.250000=0.068000
,1423.000000=0.068000
,1424.750000=0.068000
,1427.000000=0.068000
,1428.750000=0.068000
;
#SPEEDS:0.000000=1.000000=0.000000=0;
#SCROLLS:0.000000=1.000000;
#TICKCOUNTS:0.000000=4;
#TIMESIGNATURES:0.000000=4=4,
102.000000=3=4,
105.000000=4=4,
165.000000=1=4,
166.000000=4=4,
202.000000=1=4,
203.000000=4=4,
327.000000=1=4,
328.000000=4=4,
356.000000=1=4,
357.000000=4=4,
401.000000=1=4,
402.000000=4=4,
1054.000000=2=4,
1056.000000=4=4,
1280.000000=1=5,
1282.500000=1=6,
1285.000000=2=4,
1287.000000=4=4,
1415.000000=2=4,
1434.500000=4=4
;
#LABELS:0.000000=Song Start;
#COMBOS:0.000000=1;
#DISPLAYBPM:100.000000:440.000000;
#ORIGIN:;
#TAGS:;
#PREVIEWVID:;
#JACKET:;
#CDIMAGE:;
#DISCIMAGE:;
#BGCHANGES:;
#FGCHANGES:;

//--------------- dance-single - XMOD, BR+, BU+ (yes), FS+, XO+, STR (91 Total) ----------------
#NOTEDATA:;
#STEPSTYPE:dance-single;
#DESCRIPTION:XMOD, BR+, BU+ (yes), FS+, XO+, STR (91 Total);
#DIFFICULTY:Challenge;
#METER:20;
#RADARVALUES:1.108268,2.112679,0.488942,0.379512,1.488944,3332,3122,210,163,266,19,0,0,0,1.108268,2.112679,0.488942,0.379512,1.488944,3332,3122,210,163,266,19,0,0,0;
#DISPLAYBPM:100.000000:440.000000;
#CHARTNAME:We must talk about Parallel Universes (COLON D);
#CHARTHASH:3697419638;
#BANNER:;
#CHARTSTYLE:Pad Singles;
#METERF:0.000000;
#LASTSECONDHINT:424.286865;
#CREDIT:Five Parallel Universes;
#NOTES:
0000
0000
0000
0000
,
0000
0000
0000
0000
,
0000
0000
0000
0000
,
0000
0000
0000
0000
,
1001
0000
0000
0000
0000
0000
1000
0001
0100
0000
0000
0001
0000
0000
1010
0000
,
0001
1000
0001
1000
0001
0000
1010
0000
0000
0000
0000
0000
0101
0000
0000
0000
0000
0000
1100
0000
0000
0000
0001
0000
0010
0000
0100
0000
1000
0000
0001
0000
,
1100
0000
0000
0000
0000
0000
0001
1000
0100
0000
0000
0010
0000
0000
0101
0000
,
1000
0001
1000
0001
1000
0000
0011
0000
1000
0000
0001
0000
1010
0000
0100
0000
1000
0000
0102
0000
0000
0000
0000
0000
0000
0000
0000
0000
1003
0000
0000
0000
,
0001
0000
0000
0000
0000
0000
0100
0001
0010
0000
0000
0000
0100
0000
0000
0000
,
0001
0000
0000
0100
0000
0000
1000
0000
0001
0000
0000
0000
0000
0000
0100
0010
,
1000
0100
0010
0100
,
0100
0000
0000
0000
0000
0000
0000
0000
0000
1000
0000
0000
0000
0000
0000
0000
0000
0000
0001
0000
0000
0000
0000
0000
0100
0000
0000
0000
0000
0000
0000
0000
0000
0000
0000
0000
0001
0000
0010
0000
0100
0000
1000
0000
0001
0000
0100
0000
,
0010
0000
0000
0000
0000
0000
0000
0000
0000
0000
0000
0000
0100
0000
0001
0000
1010
0000
0000
0000
0000
0000
0000
0000
0100
0000
0000
0000
0000
0000
1000
0001
,
1100
0000
0000
0000
0000
0000
0011
0000
0000
0000
0000
0000
1010
0000
0000
0000
0101
0000
0000
0000
0000
0000
0000
0000
0000
0000
0010
0001
0010
0000
0100
0000
,
1010
0001
1100
0010
,
0100
0000
0011
0000
0000
1010
0000
0000
0101
0000
0000
1010
0000
0000
0011
0000
,
1100
0001
1010
0100
,
2010
0000
0000
0000
,
3002
0000
0000
0000
,
0000
0000
0000
0000
,
0000
0000
0000
0000
,
MM23
0000
0000
MM00
0000
0000
MM00
0000
,
0000
MM00
0000
0000
MM00
0000
0000
MM00
,
0000
0000
MM00
0000
0000
MM00
0000
0000
,
MM00
0000
0000
MM00
0000
0000
MM00
0000
,
0000
MM00
0000
0000
MM00
0000
0000
MM00
,
0030
1001
0000
1010
,
0000
0000
0000
0000
1000
0000
0000
1000
0000
0000
0100
0000
0000
0100
0000
0000
,
0100
1010
0000
0101
,
0000
0000
0000
0000
1000
0000
0000
1000
0000
0000
0001
0000
0000
0001
0000
0000
,
0100
0011
0000
1100
,
0000
0000
0000
0000
0001
0000
0000
0001
0000
0000
0010
0000
0000
0010
0000
0000
,
0010
0000
0000
0000
0001
0100
0000
0001
0100
0000
0001
1000
0000
0001
1000
0000
,
0010
1000
0000
0010
1000
0000
0001
0010
0000
0001
0010
0000
0100
1000
0001
0100
,
0010
1000
0001
0010
0101
0000
0000
0000
0000
0000
1000
0001
0100
0000
0001
1000
,
0000
0000
0000
0000
0101
0000
0000
0000
1000
0001
1000
0001
1000
0000
0101
0000
0000
0000
0000
0000
1010
0000
0000
0000
0000
0000
0011
0000
0000
0000
1000
0000
,
0010
0100
0001
1000
0101
0000
0000
0000
0000
0000
1000
0001
0100
0000
0001
0010
,
0000
0000
0000
0000
0101
0000
0000
0000
1000
0001
1000
0001
1000
0000
0011
0000
0000
0000
0000
0000
1100
0000
0000
0000
0000
0000
0101
0000
0000
0000
0000
0000
,
2000
0000
0000
0000
3001
0010
0100
0010
0001
1000
0100
0010
0100
0001
0100
1000
,
0001
0100
0010
1000
0001
0010
0100
1000
0001
0000
0010
0000
0100
0000
1000
0000
0001
0000
1000
0000
0010
0000
0100
0000
0010
0000
0001
0000
0010
0000
1000
0000
,
0001
0010
0100
1000
0001
0100
0010
0100
0001
0100
0001
0000
1000
0100
1000
0000
0001
0010
0001
0000
1000
0010
1000
0000
0001
0010
0100
0000
1000
0001
0100
0000
,
0010
1000
0001
0000
0010
0100
1000
0000
0001
0000
0000
0000
0000
0000
0000
0000
1000
0000
0000
0000
0001
0100
0001
0100
0001
0000
0100
0000
0100
0000
0100
0000
,
0010
0000
0100
0000
0100
0000
0100
0000
0011
0000
1000
0000
0100
0000
0000
0000
0010
0000
0000
0000
0001
1000
0001
1000
0001
0000
0100
0000
0100
0000
0100
0000
,
0010
0000
0000
0000
0000
0000
0100
0000
0000
0000
0000
0000
0100
0000
0000
0000
0000
0000
0100
0000
0000
0000
0000
0000
0011
0000
0000
0000
0000
0000
0000
0000
1000
0000
0000
0000
0001
0000
0000
0000
0000
0000
0000
0000
0100
0000
0000
0000
0010
0000
0000
0000
0000
0000
0000
0000
0000
0000
0000
0000
1000
0000
0000
0001
0000
0000
1000
0000
0000
0001
0000
0000
1000
0000
0000
0000
0000
0000
0100
0000
0000
0000
0000
0000
0100
0000
0000
0000
0000
0000
0100
0000
0000
0000
0000
0000
,
0010
0100
0100
0100
1010
0001
0100
0000
0010
1000
0100
0010
0001
0100
0010
1000
,
0100
0000
0001
0000
0100
0000
1000
0000
0001
0000
0100
0000
0010
0000
1000
0000
0001
0000
0000
0000
1000
0010
1000
0010
1000
0000
0100
0000
0100
0000
0100
0000
,
0010
0000
0100
0000
0100
0000
0100
0000
1010
0000
0001
0000
0100
0000
0000
0000
0010
0000
0000
0000
1000
0001
1000
0001
1000
0000
0100
0000
0100
0000
0100
0000
,
0010
0100
0100
0100
1010
0000
0101
0000
2000
0000
0000
0000
3000
0MM0
0000
0000
,
0MM2
0000
0000
0MM0
0000
0000
0MM0
0000
0000
0MM0
0000
0000
0MM0
0000
0000
0MM0
,
0000
0000
0MM0
0000
0000
0MM0
0000
0000
0MM0
0000
0000
0MM0
0000
0000
0MM0
0000
,
0000
0MM0
0000
0000
0MM0
0000
0000
0MM0
0003
0000
0000
0000
1001
0000
0000
0000
,
1000
0000
0001
0000
0100
0001
0010
0000
0100
0000
0001
0000
0100
0000
0000
1000
,
0001
0000
0100
0001
0010
0000
0001
0100
1000
0000
0100
0000
0011
0000
0000
1000
,
0001
0000
0020
0000
0130
1000
0010
0000
0200
0000
0000
0000
0310
1000
0100
0010
,
0001
1000
0010
0100
1000
0100
0001
1000
0100
0010
0001
1000
0011
0000
0000
0100
,
0001
0000
0020
0000
0031
0100
0010
0000
0100
0000
1000
0000
0100
0000
0000
0001
,
1000
0000
0100
0010
0001
0000
1000
0010
0001
0000
0010
0000
1100
0000
0000
0001
,
1000
0000
0200
0000
0310
0001
0100
0000
0010
0000
1000
0000
0002
0000
0000
0000
,
0000
0000
0010
1003
,
0001
0000
0100
0000
0000
0001
1000
0000
0100
0000
0000
0000
0010
0000
0010
0000
,
0001
0000
1000
0000
0010
0100
0001
0000
1000
0000
0000
0000
0100
0000
0000
0000
,
0010
0000
0100
0000
0000
1000
0100
0000
1000
0000
0000
0000
0001
0000
0001
0000
,
0100
0000
0010
0000
1000
0001
0010
0000
0100
0000
0000
0000
1000
0000
0000
0000
,
0001
0000
0100
0000
0000
0001
1000
0000
0100
0000
0000
0000
0010
0000
0010
0000
,
0001
0000
0100
0000
0010
1000
0001
0000
0010
0000
0000
0000
0100
0000
1000
0100
,
0000
1000
0001
0000
0100
0001
0000
0010
0001
0000
1000
0010
0000
0100
0001
0000
,
1000
0100
0000
0010
0001
0100
0010
1000
0001
0010
0100
1000
0002
0000
0000
0000
,
0000
0000
0000
1003
0001
1000
0010
0100
0001
0100
0010
1000
0010
0100
0001
1000
0100
0010
0002
0000
0000
0000
0000
0000
,
0000
0000
0000
0013
0100
1000
0010
0100
0001
1000
0001
0010
0100
0010
0001
1000
0100
0010
0002
0000
0000
0000
0000
0000
,
0100
0000
0000
0000
0000
0000
1000
0000
0000
0000
0000
0000
0010
0000
0000
0000
0000
0000
1003
0010
0100
0001
1000
0100
,
0010
0000
0100
0000
1000
0000
0001
0000
0100
0000
0010
0000
1000
0000
0000
0000
0000
0000
0100
0000
0000
0010
0000
0000
0100
0000
0000
1000
0000
0000
0010
0000
0000
0100
0000
0000
0002
0000
0000
0000
0000
0000
0000
0000
0000
0000
0000
0000
,
0000
0000
0000
0013
0100
1000
0001
0100
0010
1000
0001
0010
0100
0010
0001
1000
0010
0100
0002
0000
0000
0000
0000
0000
,
0000
0000
0000
0013
0100
1000
0010
0100
0001
1000
0100
0010
0001
1000
0010
1000
0100
0010
0001
0000
0000
1100
0000
0000
,
0020
0000
1130
0101
0020
0000
0131
1100
,
0001
1000
0010
0100
0011
0000
1010
0000
0001
0010
0100
1000
0002
0000
0000
0000
,
0000
0000
0000
0000
0000
0000
0000
0000
0000
0000
0000
0000
0013
0100
1000
0010
,
0100
0001
1000
0100
0010
0001
0100
0010
1000
0001
0100
0010
1200
0000
0000
0000
,
0000
0000
0000
0000
0000
0000
0000
0000
0000
0000
0000
0000
0301
1000
0001
0100
,
0010
1000
0100
0010
0001
1000
0010
0100
0001
0010
0100
1000
0020
0000
0000
0000
,
0030
0M0M
0000
0000
2M0M
0000
0000
0M0M
0000
0000
0M0M
0000
0000
0M0M
0000
0000
,
0M0M
0000
0000
0M0M
0000
0000
0M0M
0000
0000
0M0M
0000
0000
0M0M
0000
0000
0M0M
,
0000
0000
0M0M
0000
0000
0M0M
0000
0000
0M0M
0000
0000
0M0M
3000
0000
0000
0000
,
1001
0000
0000
0000
0000
0000
0001
1000
0100
0000
0000
1000
0000
0000
0011
0000
,
0100
0001
0100
0001
0100
0000
0011
0000
0000
0000
0000
0000
1100
0000
0000
0000
0000
0000
0101
0000
0000
0000
1000
0000
0100
0000
0010
0000
0001
0000
1000
0000
,
0011
0000
0000
0000
0000
0000
1000
0001
0100
0000
0000
0010
0000
0000
1100
0000
,
0001
1000
0001
1000
0001
0000
1010
0000
0000
0000
0000
0000
0101
0000
0000
0000
0000
0000
1100
0000
0000
0000
0000
0000
0002
0000
0000
0000
0000
0000
0000
0000
,
1003
0000
0100
0000
0010
0000
0100
0000
1000
0000
0001
0000
0100
0000
0010
0000
0100
0000
1000
0000
0100
0000
0001
0000
1000
0100
0010
0100
1000
0001
0100
0010
,
1000
0000
0001
0000
0010
0000
0001
0000
1000
0000
0001
0000
0010
0000
0100
0000
0010
0000
1000
0000
0010
0000
0001
0000
1000
0010
0100
0010
1000
0001
0010
0100
,
1000
0100
1000
0000
0001
0100
0001
0000
1000
0010
1000
0000
0001
0010
0001
0000
1000
0100
0010
0000
0001
1000
0010
0000
1000
0001
0100
0000
0010
1000
0001
0000
,
0010
0000
0000
0000
1001
0000
0000
0000
0000
0001
0100
0010
0000
1000
0001
0010
,
0000
0100
1000
0001
0100
0010
0100
0001
1000
0100
0010
0001
0100
0000
0001
0000
,
1000
0000
0100
0000
1010
0001
1000
0100
0010
0001
1000
0010
1000
0001
0100
0100
,
1000
0001
0100
0100
1000
0100
0010
0001
0100
0010
1000
0010
0001
0010
0100
0001
,
1000
0100
0010
0001
1100
0001
0010
0100
1000
0010
0100
0001
1000
0001
0100
0100
,
1000
0010
0100
0100
1000
0010
0100
0001
0010
0100
1000
0001
0100
1000
0100
0001
,
0010
0100
1000
0001
1010
0100
0010
0001
1000
0010
0100
0001
0100
0001
0010
0010
,
1000
0001
0010
0010
0100
0001
2000
0000
3100
0010
0100
1000
0001
0100
0100
0100
,
0001
0100
0100
0100
0020
0000
0000
0000
0030
0M0M
0000
0000
2M0M
0000
0000
0M0M
,
0000
0000
0M0M
0000
0000
0M0M
0000
0000
0M0M
0000
0000
0M0M
0000
0000
0M0M
0000
,
0000
0M0M
0000
0000
0M0M
0000
0000
0M0M
0000
0000
0M0M
0000
0000
0M0M
0000
0000
,
0M0M
0000
0000
0M0M
3000
0000
0000
0000
0001
0000
0000
0000
1010
0000
0001
0000
,
0100
0100
1000
0001
0100
0010
1000
0000
0001
0100
0100
0100
0010
1000
0002
0000
,
0103
0100
1000
0100
0100
0000
0020
0000
2030
0000
0000
0000
3012
0000
0000
0000
,
0103
0100
1000
0100
0100
0000
0002
0000
0013
0100
1000
0010
0100
0001
1000
0100
,
0010
1000
0010
0001
0100
0010
1000
0100
0010
0000
0000
0000
0101
0000
1000
0000
,
0100
0100
0001
1000
0100
0010
0001
0000
1000
0100
0100
0100
1000
0001
0010
0000
,
0100
0100
0001
0100
0010
0010
0010
0010
0101
0000
0000
0000
1000
0000
0011
0000
,
0000
0100
0011
0000
1000
0101
0000
0010
,
0101
0000
1000
0001
0100
0000
0010
0000
1000
0000
0000
0000
0001
0000
0000
0000
,
0100
0100
0100
0000
0010
0M10
0010
0000
0100
01M0
0100
0000
0010
0M10
0010
0000
,
2000
0000
0000
0000
0001
0000
0000
0000
3001
0100
0010
1000
0001
0010
0100
0010
,
0001
1000
0010
1000
0100
0010
0001
0100
0010
1000
0100
0010
0001
0100
0001
1000
,
0100
0000
1000
0000
0001
0100
0010
1000
0002
0000
0000
0000
1100
0000
0000
0000
,
1100
1100
1010
1010
,
2013
0000
0000
0000
3000
0000
0001
1000
0011
0000
0000
0000
1100
0000
0001
0000
,
1010
0000
0100
0000
1010
0000
0000
0001
1100
0000
0010
0M00
1010
0000
0100
00M0
,
1100
0000
0011
1100
0101
0000
1010
0000
,
0011
0000
1000
0000
0101
0000
1000
0000
0001
0000
0010
0010
0200
0000
0000
0000
,
0320
0000
0000
0130
1000
0000
0100
0000
0011
1100
0000
0000
0011
0000
1000
0000
,
0101
0000
0010
0000
0101
0000
1010
0000
1000
0100
0001
0100
1000
0000
0000
0101
,
1010
0000
0101
0000
1100
0000
0000
0000
0002
0000
0000
0000
0003
MM00
0000
0000
,
MM20
0000
0000
MM00
0000
0000
MM00
0000
0000
MM00
0000
0000
MM00
0000
0000
MM00
,
0000
0000
MM00
0000
0000
MM00
0000
0000
MM00
0000
0000
MM00
0000
0000
MM00
0000
,
0030
0000
0000
0000
0000
0000
1001
0000
0000
0001
0000
1000
,
0101
0000
0000
1000
0000
0001
0100
0000
0001
0010
0M00
0010
,
1100
0000
0001
0100
00M0
0100
1000
0000
0000
0010
0M00
0010
,
0101
0000
0000
1000
0000
0010
0100
0001
0010
0100
0001
0100
,
1000
0010
0100
0001
0010
0100
1000
0000
0000
0100
00M0
0100
,
0011
0000
0000
1000
0000
0001
0100
0000
0001
0010
0M00
0010
,
1100
0002
0023
0000
,
0000
0000
0000
0000
0000
0000
0000
0000
0031
0000
1000
0000
0001
0010
0100
1000
,
0002
0000
2003
0000
,
3001
0000
0000
0000
0100
0000
0000
0000
0010
0000
0000
0000
1000
0000
0000
0000
0001
0000
0000
0000
0010
0000
0000
0000
0100
0000
0000
1000
0000
0000
0001
0000
0000
0100
0000
0000
0010
0000
0000
1000
0000
0000
0001
0000
0000
0010
0000
0000
,
0100
1000
0010
0100
0001
1000
0100
0010
0002
0000
0000
0000
0000
0000
0000
0000
,
1003
0000
0000
0000
0010
0000
0000
0000
0100
0000
0000
0000
0010
0000
0000
0000
1000
0000
0000
0000
0001
0000
0000
0000
0010
0000
0000
0100
0000
0000
1000
0000
0000
0001
0000
0000
0100
0000
0000
0010
0000
0000
1000
0000
0000
0001
0000
0000
,
0010
0100
0010
0001
1000
0010
0100
0001
2000
0000
0000
0000
0000
0000
0000
0000
,
0100
0000
0000
0010
,
3001
0000
0000
0000
0010
0000
0000
0000
0100
0000
0000
0000
1000
0000
0000
0000
0010
0000
0000
0000
0100
0000
0000
0000
0001
0000
0000
1000
0000
0000
0100
0000
0000
0010
0000
0000
0001
0000
0000
1000
0000
0000
0010
0000
0000
0100
0000
0000
,
0001
1000
0100
1000
0010
0100
0001
1000
0100
0010
0001
1000
0010
0100
0010
1000
,
0001
0010
0100
1000
0001
0100
0010
1000
0002
0000
0000
0000
0000
0000
0000
0000
,
1003
0000
0000
0000
0100
0000
0000
0000
0010
0000
0000
0000
0001
0000
0000
0000
1000
0000
0000
0000
0010
0000
0000
0000
0100
0000
0000
0001
0000
0000
1000
0000
0000
0100
0000
0000
0010
0000
0000
0001
0000
0000
1000
0000
0000
0010
0000
0000
,
0100
0001
0010
0100
1000
0001
0100
0010
2000
0000
0000
0000
0000
0000
0000
0000
,
3001
0000
0000
0000
0010
0000
0000
0000
0100
0000
0000
0000
0010
0000
0000
0000
0001
0000
0000
0000
1000
0000
0000
0000
0010
0000
0000
0100
0000
0000
0001
0000
0000
1000
0000
0000
0100
0000
0000
0010
0000
0000
0001
0000
0000
1000
0000
0000
,
0010
0100
0010
1000
0001
0010
0100
1000
0001
0000
0010
0000
0100
1000
0001
0100
,
0020
0000
0000
0000
0000
0000
0000
0000
0130
0000
0001
0000
1000
0100
0010
0001
,
2000
0000
0000
0000
0000
0000
0000
0000
3010
0000
0100
0000
0001
0010
0100
1000
,
0001
0000
0100
0000
0010
0000
1000
0000
0001
0010
0100
1000
0001
0100
0010
1000
,
0001
0010
0100
0010
0001
1000
0010
0100
0002
0000
0000
0000
0000
0000
1013
0000
,
0000
0000
0000
0000
0001
0100
0001
0100
0020
0000
0000
0000
0000
0000
1130
0000
,
0000
0000
0000
0000
0000
0000
0000
0000
0000
0000
0000
0000
0000
0000
0000
0000
0000
0000
0000
0000
0000
0000
0000
0000
0000
0000
0000
0000
0000
0000
0000
0000
0000
0000
0000
0000
0000
0000
0000
0000
0000
0000
0000
0000
0000
0000
0000
0000
0001
0000
0000
0000
0000
0000
0000
0000
0000
0000
0000
0000
1000
0000
0000
0000
0000
0000
0000
0000
0000
0000
0000
0000
0001
0000
0000
0000
0000
0000
0000
0000
0000
0000
0000
0000
1000
0000
0000
0000
0000
0000
0000
0000
0000
0000
0000
0000
0200
0000
0000
0000
0000
0000
0000
0000
0000
0000
0000
0000
0000
0000
0000
0000
0000
0000
0000
0000
0000
0000
0000
0000
0000
0000
0000
0000
0000
0000
0000
0000
0000
0000
0000
0000
0000
0000
0000
0000
0000
0000
0000
0000
0000
0000
0000
0000
0000
0000
0000
0000
0000
0000
0000
0000
0000
0000
0000
0000
0000
0000
0000
0000
0000
0000
0000
0000
0000
0000
0000
0300
0200
0000
0000
0000
0000
0000
0000
0000
0000
0000
0000
0000
0000
0000
0000
0000
0000
0000
0000
0000
0000
0000
0000
0000
,
0000
0000
0000
0000
0000
0000
0000
0000
0000
0000
0000
0000
0000
0000
0000
0000
0000
0000
0000
0000
0000
0000
0000
0000
0000
0000
0000
0000
0000
0000
0000
0000
0000
0000
0000
0000
0000
0000
0000
0000
0000
0000
0000
0000
0000
0000
0000
0000
2300
0000
0000
0000
0000
0000
0000
0000
0000
0000
0000
0000
0000
0000
0000
0000
0000
0000
0000
0000
0000
0000
0000
0000
0000
0000
0000
0000
0000
0000
0000
0000
0000
0000
0000
0000
0000
0000
0000
0000
0000
0000
0000
0000
0000
0000
0000
0000
0000
0000
0000
0000
0000
0000
0000
0000
0000
0000
0000
0000
0000
0000
0000
0000
0000
0000
0000
0000
0000
0000
0000
3000
2000
0000
0000
0000
0000
0000
0000
0000
0000
0000
0000
0000
0000
0000
0000
0000
0000
0000
0000
0000
0000
0000
0000
0000
0000
0000
0000
0000
0000
0000
0000
0000
0000
0000
0000
0000
0000
0000
0000
0000
0000
0000
0000
0000
0000
0000
0000
0000
0000
0000
0000
0000
0000
0000
0000
0000
0000
0000
0000
0000
0000
0000
0000
0000
0000
0000
0000
0000
0000
0000
0000
3000
,
2000
0000
3000
0000
0012
0000
0000
1103
,
0000
0000
0000
0000
0001
1000
0001
1000
0200
0000
0000
0000
0000
0000
1310
0000
,
0000
0000
0000
0000
0000
0000
0000
0000
0000
0000
0000
0000
0000
0000
0000
0000
0000
0000
0000
0000
0000
0000
0000
0000
0000
0000
0000
0000
0000
0000
0000
0000
0000
0000
0000
0000
0000
0000
0000
0000
0000
0000
0000
0000
0000
0000
0000
0000
0001
0000
0000
0000
0000
0000
0000
0000
0000
0000
0000
0000
1000
0000
0000
0000
0000
0000
0000
0000
0000
0000
0000
0000
0001
0000
0000
0000
0000
0000
0000
0000
0000
0000
0000
0000
1000
0000
0000
0000
0000
0000
0000
0000
0000
0000
0000
0000
0020
0000
0000
0000
0000
0000
0000
0000
0000
0000
0000
0000
0000
0000
0000
0000
0000
0000
0000
0000
0000
0000
0000
0000
0000
0000
0000
0000
0000
0000
0000
0000
0000
0000
0000
0000
0000
0000
0000
0000
0000
0000
0000
0000
0000
0000
0000
0000
0000
0000
0000
0000
0000
0000
0000
0000
0000
0000
0000
0000
0000
0000
0000
0000
0000
0000
0000
0000
0000
0000
0000
0030
0020
0000
0000
0000
0000
0000
0000
0000
0000
0000
0000
0000
0000
0000
0000
0000
0000
0000
0000
0000
0000
0000
0000
0000
,
0000
0000
0000
0000
0000
0000
0000
0000
0000
0000
0000
0000
0000
0000
0000
0000
0000
0000
0000
0000
0000
0000
0000
0000
0000
0000
0000
0000
0000
0000
0000
0000
0000
0000
0000
0000
0000
0000
0000
0000
0000
0000
0000
0000
0000
0000
0000
0000
0230
0000
0000
0000
0000
0000
0000
0000
0000
0000
0000
0000
0000
0000
0000
0000
0000
0000
0000
0000
0000
0000
0000
0000
0000
0000
0000
0000
0000
0000
0000
0000
0000
0000
0000
0000
0000
0000
0000
0000
0000
0000
0000
0000
0000
0000
0000
0000
0000
0000
0000
0000
0000
0000
0000
0000
0000
0000
0000
0000
0000
0000
0000
0000
0000
0000
0000
0000
0000
0000
0000
0300
0200
0000
0000
0000
0000
0000
0000
0000
0000
0000
0000
0000
0000
0000
0000
0000
0000
0000
0000
0000
0000
0000
0000
0000
0000
0000
0000
0000
0000
0000
0000
0000
0000
0000
0000
0000
0000
0000
0000
0000
0000
0000
0000
0000
0000
0000
0000
0000
0000
0000
0000
0000
0000
0000
0000
0000
0000
0000
0000
0000
0000
0000
0000
0000
0000
0000
0000
0000
0000
0000
0000
0000
,
0302
0000
0000
0000
2013
0000
0000
3101
,
0000
0000
0000
0000
1000
0001
1000
0001
0200
0000
0000
0000
0000
0000
0311
0000
,
0000
0000
0000
0000
0000
0000
0000
0000
0000
0000
0000
0000
0000
0000
0000
0000
0000
0000
0000
0000
0000
0000
0000
0000
0000
0000
0000
0000
0000
0000
0000
0000
0000
0000
0000
0000
0000
0000
0000
0000
0000
0000
0000
0000
0000
0000
0000
0000
1000
0000
0000
0000
0000
0000
0000
0000
0000
0000
0000
0000
0100
0000
0000
0000
0000
0000
0000
0000
0000
0000
0000
0000
1000
0000
0000
0000
0000
0000
0000
0000
0000
0000
0000
0000
0100
0000
0000
0000
0000
0000
0000
0000
0000
0000
0000
0000
0020
0000
0000
0000
0000
0000
0000
0000
0000
0000
0000
0000
0000
0000
0000
0000
0000
0000
0000
0000
0000
0000
0000
0000
0000
0000
0000
0000
0000
0000
0000
0000
0000
0000
0000
0000
0000
0000
0000
0000
0000
0000
0000
0000
0000
0000
0000
0000
0000
0000
0000
0000
0000
0000
0000
0000
0000
0000
0000
0000
0000
0000
0000
0000
0000
0000
0000
0000
0000
0000
0000
0030
0020
0000
0000
0000
0000
0000
0000
0000
0000
0000
0000
0000
0000
0000
0000
0000
0000
0000
0000
0000
0000
0000
0000
0000
,
0000
0000
0000
0000
0000
0000
0000
0000
0000
0000
0000
0000
0000
0000
0000
0000
0000
0000
0000
0000
0000
0000
0000
0000
0000
0000
0000
0000
0000
0000
0000
0000
0000
0000
0000
0000
0000
0000
0000
0000
0000
0000
0000
0000
0000
0000
0000
0000
0032
0000
0000
0000
0000
0000
0000
0000
0000
0000
0000
0000
0000
0000
0000
0000
0000
0000
0000
0000
0000
0000
0000
0000
0000
0000
0000
0000
0000
0000
0000
0000
0000
0000
0000
0000
0000
0000
0000
0000
0000
0000
0000
0000
0000
0000
0000
0000
0000
0000
0000
0000
0000
0000
0000
0000
0000
0000
0000
0000
0000
0000
0000
0000
0000
0000
0000
0000
0000
0000
0000
0003
0002
0000
0000
0000
0000
0000
0000
0000
0000
0000
0000
0000
0000
0000
0000
0000
0000
0000
0000
0000
0000
0000
0000
0000
0000
0000
0000
0000
0000
0000
0000
0000
0000
0000
0000
0000
0000
0000
0000
0000
0000
0000
0000
0000
0000
0000
0000
0000
0000
0000
0000
0000
0000
0000
0000
0000
0000
0000
0000
0000
0000
0000
0000
0000
0000
0000
0000
0000
0000
0000
0000
0003
,
0002
0000
0000
0000
0003
0000
0000
0000
1000
0010
0100
0010
1000
0001
0010
0100
,
1000
0001
0100
0010
0100
0001
1000
0100
0010
0001
1000
0010
0100
0001
1000
0100
,
0010
0001
0100
0010
1000
0001
0010
0100
1000
0001
0100
0010
0100
0001
1000
0100
,
0010
0001
0100
0010
1000
0001
0010
0100
0010
0001
1000
0010
0100
0001
0010
0100
,
1000
0010
0100
0001
2002
0000
0000
0000
,
0000
0000
0000
0000
,
0000
0000
0000
0000
,
0000
0000
3003
0000
,
0000
0000
0000
0000
0000
0000
0000
0000
2000
0000
0000
0000
0000
0000
3001
0100
,
0020
0000
0000
0000
0230
0000
0000
0000
2300
0000
0000
3200
0000
0000
0301
0000
,
0020
0000
0000
0000
0000
0000
0130
1000
0002
0000
0000
0000
0203
0000
0000
0000
,
0320
0000
0000
0000
0000
0000
0000
0000
0000
0000
0000
0000
0000
0000
0000
0000
0000
0000
0000
0000
0000
0000
0000
0000
0000
0000
0000
0000
0000
0000
0000
0000
0000
0000
0000
0000
0000
0000
0000
0000
0000
0000
0000
0000
0000
0000
0000
0000
0230
0000
0000
0000
0000
0000
0000
0000
0000
0000
0000
0000
0000
0000
0000
0000
0000
0000
0000
0000
0000
0000
0000
0000
0000
0000
0000
0000
0000
0000
0000
0000
0000
0000
0000
0000
0000
0000
0000
0000
0000
0000
0000
0000
0000
0000
0000
0300
0200
0000
0000
0000
0000
0000
0000
0000
0000
0000
0000
0000
0000
0000
0000
0000
0000
0000
0000
0000
0000
0000
0000
0000
0000
0000
0000
0000
0000
0000
0000
0000
0000
0000
0000
0000
0302
0000
0000
0000
0000
0000
0000
0000
0000
0000
0000
0000
0000
0000
0000
0000
0000
0000
0000
0000
0000
0000
0000
0000
0000
0000
0000
0000
0000
0000
0000
0000
0000
0000
0000
0000
0013
0000
0000
0000
0000
0000
0000
0000
0000
0000
0000
0000
0000
0000
0000
0000
0000
0000
0000
0000
0000
0000
0000
0000
,
0200
0000
0000
0000
0000
0000
1300
0001
1200
0000
0000
0000
0000
0000
0301
1000
,
0201
0000
0000
0000
0320
0000
0000
0000
0131
0000
0000
1010
0000
0000
0011
0000
,
1200
0000
0000
0000
0000
0000
0301
1000
0021
0000
0000
0000
2030
0000
0000
0000
,
3201
0000
0000
0000
0320
0000
0000
0000
0032
0000
0000
1003
0020
0000
0000
0000
,
0000
0000
0000
0000
0000
0000
0000
0000
0030
0000
1100
0000
0000
0011
0000
0000
,
1010
0000
0000
0101
0000
0000
1010
0000
0001
0010
0100
1000
0001
0100
0010
0100
,
0010
1000
0001
0010
0100
0010
0001
1000
0100
0010
0001
1000
0010
0100
0010
1000
,
0001
0010
0100
1000
0010
1000
0001
1000
0100
0010
0001
1000
0010
1000
0010
0100
,
0001
0100
0001
1000
0100
0010
0001
0100
0010
1000
0001
0010
0100
1000
0001
0100
,
0010
0100
0001
1000
0100
0010
0001
1000
0010
0100
0001
1000
0100
0010
0100
1000
,
0001
0100
0001
0100
0010
1000
0001
0010
0001
1000
0010
0100
0010
1000
0001
0010
,
0100
1000
0010
1000
0001
0100
0010
1000
0001
0010
0100
0010
0001
1000
0010
0100
,
0010
1000
0100
0010
0001
1000
0010
0100
0001
0010
0100
1000
0001
0100
0010
1000
,
0001
0010
0100
1000
0100
0010
0001
1000
0012
0000
0000
0000
2003
0000
0000
0000
,
3201
0000
0000
0000
0000
0000
0000
0000
0000
0000
0000
0000
0310
0000
0001
0000
0010
0000
0100
0000
1000
0000
0001
0000
2000
0000
0000
0000
0000
0000
0001
0000
0000
0000
0000
0000
0000
0000
0000
0000
0000
0000
3100
0000
0000
0100
0000
0000
,
0002
0000
0000
0000
0000
0000
0000
0000
0023
0000
0000
0001
0000
0000
0130
0100
,
0002
0000
0000
0000
0000
0000
0103
0100
2000
0000
0001
0000
0000
0000
3010
0010
,
0002
0000
0000
0000
0000
0000
0000
0000
0203
0000
0000
0001
0000
0000
0310
0010
,
0002
0000
0000
0000
0000
0000
0000
0000
0000
0000
0000
0000
0000
0000
0000
0000
0013
0000
0000
0000
0100
0000
0000
0000
2000
0000
0000
0000
0000
0000
0001
0000
0000
0000
0000
0000
0000
0000
0000
0000
0000
0000
3010
0000
0000
0010
0000
0000
,
0002
0000
0000
0000
0000
0000
0000
0000
0203
0000
0000
0001
0000
0000
0310
0010
,
0002
0000
0000
0000
0000
0000
0013
0010
2000
0000
0001
0000
0000
0000
3100
0100
,
0002
0000
0000
0000
0000
0000
0000
0000
0000
0000
0000
0000
1003
0010
0100
0010
1000
0001
0010
0100
1000
0001
0100
0010
,
0100
0000
0001
0000
1000
0000
0100
0000
0010
0000
0001
0000
1000
0000
0010
0000
0100
0000
0001
0000
0010
0000
0100
0000
1000
0000
0000
0000
0000
0000
0000
0000
0000
0000
0000
0000
0001
0000
0000
0000
0000
0000
1000
0000
0000
0001
0000
0000
,
1100
0000
0001
0000
0100
0000
0001
0000
1010
0000
0000
0000
0100
0000
1000
0001
,
1010
0000
0000
0101
0000
0000
1100
0000
0011
0000
1000
0001
1000
0000
0100
0010
,
0101
0000
1000
0001
1000
0000
0010
0100
0011
0000
1000
0010
0100
0001
0010
0100
,
1000
0100
0100
0001
0010
0010
1000
0100
0010
0000
0100
0000
1000
0000
0001
0100
,
0010
0000
0100
0000
0001
0000
1000
0000
0100
0000
0010
0000
0100
0000
1000
0010
,
0100
0000
0001
0000
0010
0000
0100
0000
0010
0001
1000
0100
0010
0100
1000
0001
,
0100
0010
1000
0001
0010
0100
1000
0001
0100
0010
0100
0001
1000
0100
0010
0001
,
1000
0010
0100
0001
1000
0100
0010
0001
1000
0000
0000
1010
0000
0000
0110
0000
,
0000
0101
0000
0000
0001
0000
0100
0000
0001
0010
0100
0010
0001
1000
0010
0100
,
0010
1000
0001
0010
0100
1000
0001
0100
0010
0000
0000
1010
0000
0000
1001
0000
,
0000
0011
0000
0000
0010
0000
0001
0000
1000
0010
0100
0001
1000
0100
0010
0001
,
0100
0001
1000
0100
0010
0100
1000
0001
1000
0000
0000
1010
0000
0000
0110
0000
,
0000
0101
0000
0000
0001
0000
1000
0000
0001
0010
0100
1000
0010
0100
0001
1000
,
0100
0010
0001
0100
0010
1000
0001
0010
0100
1000
0001
0100
0010
1000
0100
0010
,
0001
1000
0010
0100
0001
0010
0100
1000
0002
0000
0000
0000
0000
0000
0000
0000
,
0000
0000
0000
0000
1003
0010
0100
0001
1000
0000
0000
0000
0100
0000
0000
0000
,
1000
0001
1000
0001
1000
0010
0100
0001
1000
0100
0010
0001
1000
0010
0100
0001
,
1000
0100
1000
0001
0100
0001
1000
0100
0010
0001
1000
0010
1000
0100
0010
0001
,
1000
0001
0100
0001
1000
0100
0010
0100
1000
0001
0100
0001
0010
0100
1000
0001
,
0100
0010
1000
0001
0010
0100
0010
0001
1000
0010
1000
0100
0010
0001
1000
0010
,
0100
0001
1000
0100
0010
0100
1000
0001
0100
0010
1000
0001
0010
0100
0010
0001
,
1000
0010
1000
0100
0010
0001
1000
0010
1000
0001
0010
0001
1000
0100
0010
0001
,
1000
0010
0100
0001
1000
0100
0010
0100
1000
0001
0100
0001
0010
0100
1000
0001
,
0100
0001
1000
0100
0010
0001
1000
0010
1000
0001
0010
0001
0100
0001
0010
0100
,
1000
0001
1000
0100
0010
0100
1000
0001
0100
0010
0100
0001
1000
0100
0010
0001
,
1000
0010
1000
0100
0010
0001
1000
0010
0100
0001
1000
0100
0010
0100
1000
0010
,
1000
0000
0000
0001
0000
0000
0010
0000
0000
0100
0000
0000
1000
0000
0000
0001
0000
0000
0100
0000
0000
0010
0000
0000
1000
0000
0000
0000
0010
0000
0000
0000
0100
0000
0000
0000
0001
0000
0000
0000
1000
0000
0000
0000
0100
0000
0000
0000
,
0010
0100
1000
0001
0100
0001
0010
0100
1000
0001
1000
0010
,
0100
0000
0000
0000
0001
0000
0000
0000
1000
0000
0000
0000
0100
0000
0000
0000
0010
0000
0000
0000
0001
0000
0000
0000
1100
0000
0000
0000
0000
0000
0000
0000
0000
0000
0000
0000
0001
0000
0000
0000
0000
0000
1000
0000
0000
0001
0000
0000
,
1010
0000
0000
0000
0100
0000
0000
0000
1010
0000
0000
0101
0000
0000
1100
0000
,
0011
0000
0000
0000
1000
0000
0001
0000
0010
0000
0101
0000
0000
0000
1000
0001
,
0100
0001
1000
0000
0001
1000
0100
0010
0001
0000
1100
0000
0011
0000
0000
0000
,
1010
0000
0101
0000
0000
0000
1100
0000
0000
0000
0101
0000
0000
0000
1000
0010
,
1000
0100
0010
0000
0001
0000
1000
0000
0001
0000
1010
0000
0101
0000
0000
0000
,
1100
0000
0011
0000
0000
0000
1010
0000
0000
0000
0011
0000
0000
0000
1000
0100
,
0010
0001
0100
0000
0001
0000
0000
0000
1000
0010
1000
0100
0010
0001
1000
0001
,
0100
0010
1000
0001
0010
0100
0010
0001
1000
0010
1000
0001
0010
0100
1000
0001
,
0100
0010
0100
0001
1000
0100
0010
0001
1000
0010
0100
0001
1000
0100
0010
0001
,
0100
0010
1000
0001
0010
0100
0010
0001
1000
0010
1000
0001
0010
0100
1000
0001
,
0100
0010
1000
0001
1000
0100
0010
0001
1000
0010
1000
0100
0010
0001
1000
0010
,
0100
0010
1000
0001
0010
0100
1000
0001
0100
0001
1000
0100
0010
0100
1000
0001
,
0100
0010
1000
0001
0010
0100
1000
0001
1000
0010
0100
0001
0010
0100
1000
0001
,
0100
0001
0010
0100
1000
0001
1000
0100
0010
0001
1000
0010
1000
0001
0010
0100
,
0010
0001
1000
0010
0100
0001
1000
0100
1000
0000
0000
0000
0001
0000
1000
0010
,
0100
0000
0000
0000
0001
0000
0000
0000
1000
0000
0000
0000
0100
0000
0010
0001
,
1000
0000
0000
0000
0001
0000
0000
0000
0100
0010
1000
0001
0010
0100
1000
0010
,
0100
0001
1000
0100
0010
0001
1000
0010
1000
0100
0010
0001
1000
0010
0100
0001
,
1000
0100
0010
0100
1000
0001
0100
0010
1000
0000
0000
0000
0001
0000
0100
0001
,
1000
0000
0010
0000
0100
0000
0010
0000
1000
0000
0000
0000
0001
0000
1000
0010
,
0100
0000
0000
0000
0001
0000
0000
0000
1000
0000
0000
0000
0001
0010
0100
1000
,
0001
0100
0010
1000
0001
0010
0100
0010
0001
1000
0010
1000
0100
0010
0001
1000
,
0010
0100
0001
1000
0010
1000
0100
0010
0200
0000
0000
0000
0000
0000
0000
0000
,
0000
0000
0000
0000
,
0000
0000
2300
0000
,
0000
0000
3002
0000
,
0000
0000
0203
0000
,
0000
0000
0000
0301
1000
0010
1000
0100
0010
0001
0100
0010
,
1000
0000
0000
0000
0001
0000
0000
0000
0010
0000
0000
0000
0001
0000
0000
0000
0100
0000
0000
0000
0010
0000
0000
0000
1000
0000
0000
0010
0000
0000
0100
0000
0000
0010
0000
0000
1000
0000
0000
0000
0000
0000
0001
0000
0000
0100
0000
0000
,
0010
0100
0001
0000
1000
0100
0010
0100
1000
0000
0001
0010
0100
0010
0001
0000
,
1000
0100
0010
0100
1000
0001
0100
0001
1000
0001
0010
0100
1000
0000
0010
1000
,
0001
0010
0100
0000
1000
0010
0100
0001
1000
0000
0001
0010
0100
0010
0001
0000
,
1000
0001
0100
0001
0010
0100
1000
0001
1000
0100
0010
0100
1000
0000
0001
0100
,
0010
0100
0001
0000
1000
0100
0010
0001
1000
0000
0001
0100
0010
1000
0001
0000
,
1000
0100
0010
0001
1000
0010
0100
0001
2000
0000
0000
0000
3MM0
0000
0000
0MM0
,
0000
0000
0MM0
0000
0000
0MM0
0000
0000
0MM2
0000
0000
0MM0
0000
0000
0MM0
0000
,
0000
0MM0
0000
0000
0MM0
0000
0000
0MM0
0000
0000
0MM0
0000
0000
0MM0
0000
0000
,
0MM0
0000
0000
0MM0
0000
0000
0MM0
0000
0000
0MM0
0000
0000
0MM0
0000
0000
0MM0
,
0000
0000
0MM0
0000
0000
0MM0
0000
0000
0MM0
0000
0000
0MM0
0000
0000
0MM0
0000
,
0000
0MM0
0000
0000
0MM0
0000
0000
0MM0
0000
0000
0MM0
0000
0000
0MM0
0000
0000
,
0MM0
0000
0000
0MM0
0000
0000
0MM0
0000
0003
0000
0000
0000
0000
0000
0000
0000
,
1100
0000
0001
0000
0000
1000
0000
0101
,
1000
0001
0010
0001
1000
0000
0000
0000
0000
0000
0011
0000
0000
0000
0000
0000
,
1100
0000
0001
0000
0000
1000
0000
0011
,
1000
0010
0100
0010
1000
0000
0000
0000
0000
0000
0101
0000
0000
0000
0000
0000
,
1000
0100
0010
0001
1000
0001
0100
0010
1000
0001
0010
0100
1000
0001
0100
0010
,
1000
0001
0010
0100
0010
0001
1000
0010
0100
0001
1000
0100
0010
0001
1000
0010
,
0100
0001
1000
0100
0010
0001
1000
0010
0100
0001
1000
0100
0010
0100
1000
0001
,
1000
0100
0010
0001
1000
0010
0100
0001
1000
0100
0010
0100
1000
0001
0100
0010
,
2000
0000
0000
0000
,
0000
0000
0000
0000
,
0000
0000
0000
0000
,
0000
0000
3000
0000
,
0001
0010
0100
1000
0010
0100
0001
1000
,
0100
0010
0001
0100
0010
1000
0001
1000
,
0100
0010
0001
0100
0010
1000
0001
0010
,
0100
1000
0010
0100
0001
1000
0100
0010
,
0001
1000
0001
0100
0011
1000
0100
0010
,
0001
0100
0010
1000
0011
1000
0001
0010
,
0100
1000
0010
0100
0011
1000
0001
0010
,
0100
1000
0010
0100
0011
0100
0010
1000
,
0011
0100
0100
0100
0100
0100
0100
0100
,
0100
0000
0100
0000
0001
1000
0010
0100
0001
1000
0100
0010
0100
1000
0001
1000
,
0100
0100
0100
0100
0100
0100
0100
0100
,
0100
0000
0100
0000
0001
0100
0010
1000
0001
0010
0100
1000
0001
0100
0001
1000
,
0100
0000
0000
0000
1000
0000
0010
0000
0010
0000
0001
0000
0100
0000
0010
1000
,
0010
0000
0100
0000
0001
0000
1000
0100
1000
0000
0001
0000
0100
0010
1000
0001
,
0020
0000
0000
0000
MM30
0000
0000
MM00
0000
0000
MM00
0000
0000
MM00
0000
0000
,
MM02
0000
0000
MM00
0000
0000
MM00
0000
0000
MM00
0000
0000
MM00
0000
0000
MM00
,
0000
0000
MM00
0000
0000
MM00
0000
0000
MM00
0000
0000
MM00
0000
0000
MM00
0000
,
0000
MM00
0000
0000
MM00
0000
0000
MM00
0000
0000
MM00
0000
0000
MM00
0000
0000
,
MM00
0000
0000
MM00
0000
0000
MM00
0000
0000
MM00
0000
0000
MM00
0000
0000
MM00
,
0003
0000
0000
0000
0000
0000
0010
0001
0010
0100
1000
0001
,
1000
0100
0010
0001
0100
0010
1000
0001
,
0010
0000
0000
0100
0000
0000
1000
0000
0000
0010
0000
0000
0100
0000
0000
0001
0000
0000
1000
0000
0100
0000
0010
0000
,
0100
1000
0001
0010
0100
1000
0010
1000
,
0100
0000
0010
0000
0100
0000
1000
0000
0000
0100
0000
0000
1000
0000
0000
0001
0000
0000
0100
0000
0010
0000
1000
0000
,
0001
0010
0100
1000
0010
0100
0001
1000
,
0100
0000
0010
0000
0001
0000
1000
0000
0010
0000
0100
0000
0010
0000
1000
0000
0001
0000
0010
0000
0000
0100
0000
0000
,
1000
0010
0100
0001
1000
0100
0010
0001
,
0100
0010
1000
0001
0010
0100
0010
0001
,
1000
0010
0100
0010
1000
0001
0010
0100
1000
0001
0100
0010
,
0100
0010
1000
0001
0010
0100
0010
0001
1000
0010
0100
0010
,
0100
0001
1000
0100
0010
0001
1000
0010
0100
0001
1000
0100
,
1000
0100
1000
0010
0100
0001
0010
0001
,
1000
0000
1001
0000
1001
0000
0001
0010
,
0100
0000
0000
0000
0000
0000
1000
0000
0001
0000
1000
0000
0001
0000
0000
0100
0000
0000
0010
0000
0000
1000
0000
0000
,
0100
0001
0100
1000
0001
0100
1000
0100
,
0010
1000
0100
0001
0100
0010
0001
1000
,
0010
1000
0100
0010
0001
0100
0001
1000
,
0100
1000
0001
0100
0001
0010
0100
1000
,
0010
1000
0001
0010
0100
1000
0010
0100
,
0001
0000
0000
1000
0000
0001
0000
0000
0000
1000
0000
0001
0000
0000
0000
0100
0000
0000
0010
0000
1000
0000
0001
0000
,
1000
0010
0100
0001
0010
0001
1000
0010
,
1000
0100
0010
0100
1000
0001
0100
0001
1000
0010
0100
0001
,
1000
0001
1000
0001
0000
0000
1000
0001
1000
0001
0000
0000
,
1000
0010
0001
0010
0100
0010
1000
0001
,
1010
0000
0000
0000
0001
0000
0010
0000
0001
0000
2200
3300
0000
0000
0020
0030
,
2000
3000
0020
0030
1100
0000
0001
0000
0010
0000
0100
0000
1000
0000
0001
0000
,
0000
0100
0001
0000
1000
0001
0000
0010
,
0001
0000
0000
1000
0000
0000
0010
0000
0000
0100
0000
0000
0000
0000
0000
0001
0000
0000
1000
0000
0100
0000
0010
0000
,
0100
0000
0000
1000
0000
0000
0001
0000
0000
0000
0000
0000
1000
0000
0100
0000
0010
0000
0001
0000
0000
1000
0000
0000
,
0100
0000
0000
0000
0000
0000
1000
0000
0001
0000
0100
0000
0010
0000
0100
0000
0001
0000
1000
0000
0000
0001
0000
0000
,
0000
0010
0001
0000
1000
0001
0000
0100
,
0001
0000
0000
1000
0000
0000
0100
0000
0000
0010
0000
0000
0000
0000
0000
0001
0000
0000
1000
0000
0010
0000
0100
0000
,
0001
0000
0000
1000
0000
0000
0100
0000
0000
0000
0000
0000
0010
0000
0001
0000
1000
0000
0010
0000
0000
0100
0000
0000
,
0001
0000
0000
0000
0000
0000
1000
0000
0001
0000
0010
0000
0100
0000
1000
0000
0001
0000
1000
0000
0000
0001
0000
0000
,
0000
0100
0001
0000
1000
0001
0000
0010
,
0001
0000
0000
1000
0000
0000
0010
0000
0000
0100
0000
0000
0000
0000
0000
0001
0000
0000
1000
0000
0100
0000
0010
0000
,
0001
0000
0000
0100
0000
0000
0010
0000
0000
0000
0000
0000
1000
0000
0100
0000
0010
0000
0100
0000
0000
1000
0000
0000
,
0001
0000
0000
0010
0100
1000
0001
1000
0001
0100
0000
0000
,
0000
0100
0000
0000
1000
0000
0000
1000
,
0000
0000
0100
0000
0000
0100
0000
0000
,
0001
0000
0000
0001
0000
0000
2000
0000
,
0000
0000
3002
0000
0000
0000
1003
0001
,
0100
0010
0001
0010
1000
0001
0010
0100
,
0001
0100
1000
0010
0100
0001
0010
0100
,
1000
0010
0100
1000
0100
0001
1000
0100
,
0010
0001
0100
0010
1000
0001
0010
0100
,
0001
0100
1000
0001
0100
1000
0100
0010
,
1000
0001
0010
0100
0001
0100
1000
0001
,
0100
0010
1000
0100
0010
0001
1000
0010
,
0001
0010
0100
0001
1000
0010
1000
0100
,
0001
1000
0010
0001
1000
0010
0001
0010
,
0100
0001
0010
0100
0001
0100
1000
0001
,
0100
1000
0001
0010
1000
0001
0010
0100
,
0001
0100
1000
0001
0100
0010
0001
1000
,
0100
0001
1000
0100
0001
1000
0010
0100
,
1000
0010
0100
1000
0100
0010
1000
0000
,
0100
0001
1000
0010
,
0001
0000
1000
0000
0001
0000
0100
0001
,
2000
3000
0002
0003
1000
0000
0100
0000
0000
0000
0020
0030
0002
0003
1000
0000
,
0010
0000
2000
3000
0020
0030
0002
0003
2000
3000
0200
0300
0000
0000
0001
0000
,
0010
0000
0001
0000
2000
3000
0020
0030
0002
0003
0020
0030
0000
0000
0100
0000
,
0001
0000
1000
0000
0200
0300
0002
0003
0200
0300
2000
3000
0002
0003
0200
0300
,
2000
0000
0000
3000
0000
0000
0002
0000
0000
0003
0000
0000
0020
0000
0000
0030
0000
0000
0200
0000
0000
0300
0000
0000
0002
0000
0000
0003
0000
0000
2000
0000
0000
3000
0000
0000
0000
0000
0020
0000
0000
0030
0000
0000
0000
0000
0200
0000
,
0000
0300
0000
0000
0000
0000
0002
0000
0000
0003
0000
0000
0000
0000
0020
0000
0000
0030
0000
0000
0000
0000
0200
0000
0000
0300
0000
0000
0000
0000
2000
0000
0000
0000
0000
0000
0000
0000
0000
0000
0000
0000
0000
0000
0000
0000
0000
0000
,
0000
0000
0000
0000
,
0000
0000
0000
0000
,
0000
0000
0000
0000
,
0000
0000
0000
3000
,
0000
0000
0000
0000
,
0000
0000
0000
0000
,
0000
0000
0000
0000
,
0000
0000
0000
0000
0000
1010
0000
0000
,
0000
0000
0000
0000
0000
0101
0000
0000
,
0000
0000
0000
0000
0000
0011
0000
0000
,
0000
0000
0000
0000
0000
1100
0000
0000
,
0000
0000
0000
0000
0000
1001
0000
0000
,
1010
0000
0000
1100
0000
0000
0101
0000
,
0000
0011
0000
0000
1100
0000
0000
1010
,
0000
0000
0101
0000
0000
0011
0000
1010
,
0000
1100
0000
1001
0000
0011
0001
1000
,
0010
0000
0100
0001
0010
0100
1000
0001
0100
0010
1000
0000
0010
0000
0100
0000
,
1000
0100
0001
0010
0001
0100
1000
0100
,
0001
1000
0100
0010
0001
1000
0010
0100
,
1000
0100
0001
0010
0100
0010
1000
0010
,
0001
0200
0000
0300
0000
2002
0000
0000
,
0000
0000
0000
0000
,
0000
0000
0000
0000
,
0000
0000
0000
0000
,
0000
0000
0000
0000
,
0000
0000
0000
0000
,
0000
3003
0000
0000
0000
0000
0000
0000
;

//--------------- dance-single - SX with 16ths @ 370+ ----------------
#NOTEDATA:;
#STEPSTYPE:dance-single;
#DESCRIPTION:SX with 16ths @ 370+;
#DIFFICULTY:Edit;
#METER:22;
#RADARVALUES:0,0,0,0,0;
#NOTES:
0000
0000
0000
0000
,
0000
0000
0000
0000
,
0000
0000
0000
0000
,
0000
0000
0000
0000
,
1001
0000
0000
0000
0000
0000
1000
0001
0100
0000
0000
0001
0000
0000
1010
0000
,
0001
1000
0001
1000
0001
0000
1010
0000
0000
0000
0000
0000
0101
0000
0000
0000
0000
0000
1100
0000
0000
0000
0001
0000
0010
0000
0100
0000
1000
0000
0001
0000
,
1100
0000
0000
0000
0000
0000
0001
1000
0100
0000
0000
0010
0000
0000
0101
0000
,
1000
0001
1000
0001
1000
0000
0011
0000
1000
0000
0001
0000
1010
0000
0100
0000
1000
0000
0102
0000
0000
0000
0000
0000
0000
0000
0000
0000
1003
0000
0000
0000
,
0001
0000
0000
0000
0000
0000
0100
0001
0010
0000
0000
0000
0100
0000
0000
0000
,
0001
0000
0000
0100
0000
0000
1000
0000
0001
0000
0000
0000
0000
0000
0100
0010
,
1000
0100
0010
0100
,
0100
0000
0000
0000
0000
0000
0000
0000
0000
1000
0000
0000
0000
0000
0000
0000
0000
0000
0001
0000
0000
0000
0000
0000
0100
0000
0000
0000
0000
0000
0000
0000
0000
0000
0000
0000
0001
0000
0010
0000
0100
0000
1000
0000
0001
0000
0100
0000
,
0010
0000
0000
0000
0000
0000
0000
0000
0000
0000
0000
0000
0100
0000
0001
0000
1010
0000
0000
0000
0000
0000
0000
0000
0100
0000
0000
0000
0000
0000
1000
0001
,
1100
0000
0000
0000
0000
0000
0011
0000
0000
0000
0000
0000
1010
0000
0000
0000
0101
0000
0000
0000
0000
0000
0000
0000
0000
0000
0010
0001
0010
0000
0100
0000
,
1010
0001
1100
0010
,
0100
0000
0011
0000
0000
1010
0000
0000
0101
0000
0000
1010
0000
0000
0011
0000
,
1100
0001
1010
0100
,
2010
0000
0000
0000
,
3002
0000
0000
0000
,
0000
0000
0000
0000
,
0000
0000
0000
0000
,
MM23
0000
0000
MM00
0000
0000
MM00
0000
,
0000
MM00
0000
0000
MM00
0000
0000
MM00
,
0000
0000
MM00
0000
0000
MM00
0000
0000
,
MM00
0000
0000
MM00
0000
0000
MM00
0000
,
0000
MM00
0000
0000
MM00
0000
0000
MM00
,
0030
1001
0000
1010
,
0000
0000
0000
0000
1000
0000
0000
1000
0000
0000
0100
0000
0000
0100
0000
0000
,
0100
1010
0000
0101
,
0000
0000
0000
0000
1000
0000
0000
1000
0000
0000
0001
0000
0000
0001
0000
0000
,
0100
0011
0000
1100
,
0000
0000
0000
0000
0001
0000
0000
0001
0000
0000
0010
0000
0000
0010
0000
0000
,
0010
0000
0000
0000
0001
0100
0000
0001
0100
0000
0001
1000
0000
0001
1000
0000
,
0010
1000
0000
0010
1000
0000
0001
0010
0000
0001
0010
0000
0100
1000
0001
0100
,
0010
1000
0001
0010
0101
0000
0000
0000
0000
0000
1000
0001
0100
0000
0001
1000
,
0000
0000
0000
0000
0101
0000
0000
0000
1000
0001
1000
0001
1000
0000
0101
0000
0000
0000
0000
0000
1010
0000
0000
0000
0000
0000
0011
0000
0000
0000
1000
0000
,
0010
0100
0001
1000
0101
0000
0000
0000
0000
0000
1000
0001
0100
0000
0001
0010
,
0000
0000
0000
0000
0101
0000
0000
0000
1000
0001
1000
0001
1000
0000
0011
0000
0000
0000
0000
0000
1100
0000
0000
0000
0000
0000
0101
0000
0000
0000
0000
0000
,
2000
0000
0000
0000
3001
0010
0100
0010
0001
1000
0100
0010
0100
0001
0100
1000
,
0001
0100
0010
1000
0001
0010
0100
1000
0001
0000
0010
0000
0100
0000
1000
0000
0001
0000
1000
0000
0010
0000
0100
0000
0010
0000
0001
0000
0010
0000
1000
0000
,
0001
0010
0100
1000
0001
0100
0010
0100
0001
0100
0001
0000
1000
0100
1000
0000
0001
0010
0001
0000
1000
0010
1000
0000
0001
0010
0100
0000
1000
0001
0100
0000
,
0010
1000
0001
0000
0010
0100
1000
0000
0001
0000
0000
0000
0000
0000
0000
0000
1000
0000
0000
0000
0001
0100
0001
0100
0001
0000
0100
0000
0100
0000
0100
0000
,
0010
0000
0100
0000
0100
0000
0100
0000
0011
0000
1000
0000
0100
0000
0000
0000
0010
0000
0000
0000
0001
1000
0001
1000
0001
0000
0100
0000
0100
0000
0100
0000
,
0010
0000
0000
0000
0000
0000
0100
0000
0000
0000
0000
0000
0100
0000
0000
0000
0000
0000
0100
0000
0000
0000
0000
0000
0011
0000
0000
0000
0000
0000
0000
0000
1000
0000
0000
0000
0001
0000
0000
0000
0000
0000
0000
0000
0100
0000
0000
0000
0010
0000
0000
0000
0000
0000
0000
0000
0000
0000
0000
0000
1000
0000
0000
0001
0000
0000
1000
0000
0000
0001
0000
0000
1000
0000
0000
0000
0000
0000
0100
0000
0000
0000
0000
0000
0100
0000
0000
0000
0000
0000
0100
0000
0000
0000
0000
0000
,
0010
0100
0100
0100
1010
0001
0100
0000
0010
1000
0100
0010
0001
0100
0010
1000
,
0100
0000
0001
0000
0100
0000
1000
0000
0001
0000
0100
0000
0010
0000
1000
0000
0001
0000
0000
0000
1000
0010
1000
0010
1000
0000
0100
0000
0100
0000
0100
0000
,
0010
0000
0100
0000
0100
0000
0100
0000
1010
0000
0001
0000
0100
0000
0000
0000
0010
0000
0000
0000
1000
0001
1000
0001
1000
0000
0100
0000
0100
0000
0100
0000
,
0010
0100
0100
0100
1010
0000
0101
0000
2000
0000
0000
0000
3000
0MM0
0000
0000
,
0MM2
0000
0000
0MM0
0000
0000
0MM0
0000
0000
0MM0
0000
0000
0MM0
0000
0000
0MM0
,
0000
0000
0MM0
0000
0000
0MM0
0000
0000
0MM0
0000
0000
0MM0
0000
0000
0MM0
0000
,
0000
0MM0
0000
0000
0MM0
0000
0000
0MM0
0003
0000
0000
0000
1001
0000
0000
0000
,
1000
0000
0001
0000
0100
0001
0010
0000
0100
0000
0001
0000
0100
0000
0000
1000
,
0001
0000
0100
0001
0010
0000
0001
0100
1000
0000
0100
0000
0011
0000
0000
1000
,
0001
0000
0020
0000
0130
1000
0010
0000
0200
0000
0000
0000
0310
1000
0100
0010
,
0001
1000
0010
0100
1000
0100
0001
1000
0100
0010
0001
1000
0011
0000
0000
0100
,
0001
0000
0020
0000
0031
0100
0010
0000
0100
0000
1000
0000
0100
0000
0000
0001
,
1000
0000
0100
0010
0001
0000
1000
0010
0001
0000
0010
0000
1100
0000
0000
0001
,
1000
0000
0200
0000
0310
0001
0100
0000
0010
0000
1000
0000
0002
0000
0000
0000
,
0000
0000
0010
1003
,
0001
0000
0100
0000
0000
0001
1000
0000
0100
0000
0000
0000
0010
0000
0010
0000
,
0001
0000
1000
0000
0010
0100
0001
0000
1000
0000
0000
0000
0100
0000
0000
0000
,
0010
0000
0100
0000
0000
1000
0100
0000
1000
0000
0000
0000
0001
0000
0001
0000
,
0100
0000
0010
0000
1000
0001
0010
0000
0100
0000
0000
0000
1000
0000
0000
0000
,
0001
0000
0100
0000
0000
0001
1000
0000
0100
0000
0000
0000
0010
0000
0010
0000
,
0001
0000
0100
0000
0010
1000
0001
0000
0010
0000
0000
0000
0100
0000
1000
0100
,
0000
1000
0001
0000
0100
0001
0000
0010
0001
0000
1000
0010
0000
0100
0001
0000
,
1000
0100
0000
0010
0001
0100
0010
1000
0001
0010
0100
1000
0002
0000
0000
0000
,
0000
0000
0000
1003
0001
1000
0010
0100
0001
0100
0010
1000
0010
0100
0001
1000
0100
0010
0002
0000
0000
0000
0000
0000
,
0000
0000
0000
0013
0100
1000
0010
0100
0001
1000
0001
0010
0100
0010
0001
1000
0100
0010
0002
0000
0000
0000
0000
0000
,
0100
0000
0000
0000
0000
0000
1000
0000
0000
0000
0000
0000
0010
0000
0000
0000
0000
0000
1003
0010
0100
0001
1000
0100
,
0010
0000
0100
0000
1000
0000
0001
0000
0100
0000
0010
0000
1000
0000
0000
0000
0000
0000
0100
0000
0000
0010
0000
0000
0100
0000
0000
1000
0000
0000
0010
0000
0000
0100
0000
0000
0002
0000
0000
0000
0000
0000
0000
0000
0000
0000
0000
0000
,
0000
0000
0000
0013
0100
1000
0001
0100
0010
1000
0001
0010
0100
0010
0001
1000
0010
0100
0002
0000
0000
0000
0000
0000
,
0000
0000
0000
0013
0100
1000
0010
0100
0001
1000
0100
0010
0001
1000
0010
1000
0100
0010
0001
0000
0000
1100
0000
0000
,
0020
0000
1130
0101
0020
0000
0131
1100
,
0001
1000
0010
0100
0011
0000
1010
0000
0001
0010
0100
1000
0002
0000
0000
0000
,
0000
0000
0000
0000
0000
0000
0000
0000
0000
0000
0000
0000
0013
0100
1000
0010
,
0100
0001
1000
0100
0010
0001
0100
0010
1000
0001
0100
0010
1200
0000
0000
0000
,
0000
0000
0000
0000
0000
0000
0000
0000
0000
0000
0000
0000
0301
1000
0001
0100
,
0010
1000
0100
0010
0001
1000
0010
0100
0001
0010
0100
1000
0020
0000
0000
0000
,
0030
0M0M
0000
0000
2M0M
0000
0000
0M0M
0000
0000
0M0M
0000
0000
0M0M
0000
0000
,
0M0M
0000
0000
0M0M
0000
0000
0M0M
0000
0000
0M0M
0000
0000
0M0M
0000
0000
0M0M
,
0000
0000
0M0M
0000
0000
0M0M
0000
0000
0M0M
0000
0000
0M0M
3000
0000
0000
0000
,
1001
0000
0000
0000
0000
0000
0001
1000
0100
0000
0000
1000
0000
0000
0011
0000
,
0100
0001
0100
0001
0100
0000
0011
0000
0000
0000
0000
0000
1100
0000
0000
0000
0000
0000
0101
0000
0000
0000
1000
0000
0100
0000
0010
0000
0001
0000
1000
0000
,
0011
0000
0000
0000
0000
0000
1000
0001
0100
0000
0000
0010
0000
0000
1100
0000
,
0001
1000
0001
1000
0001
0000
1010
0000
0000
0000
0000
0000
0101
0000
0000
0000
0000
0000
1100
0000
0000
0000
0000
0000
0002
0000
0000
0000
0000
0000
0000
0000
,
1003
0000
0100
0000
0010
0000
0100
0000
1000
0000
0001
0000
0100
0000
0010
0000
0100
0000
1000
0000
0100
0000
0001
0000
1000
0100
0010
0100
1000
0001
0100
0010
,
1000
0000
0001
0000
0010
0000
0001
0000
1000
0000
0001
0000
0010
0000
0100
0000
0010
0000
1000
0000
0010
0000
0001
0000
1000
0010
0100
0010
1000
0001
0010
0100
,
1000
0100
1000
0000
0001
0100
0001
0000
1000
0010
1000
0000
0001
0010
0001
0000
1000
0100
0010
0000
0001
1000
0010
0000
1000
0001
0100
0000
0010
1000
0001
0000
,
0010
0000
0000
0000
1001
0000
0000
0000
0000
0001
0100
0010
0000
1000
0001
0010
,
0000
0100
1000
0001
0100
0010
0100
0001
1000
0100
0010
0001
0100
0000
0001
0000
,
1000
0000
0100
0000
1010
0001
1000
0100
0010
0001
1000
0010
1000
0001
0100
0100
,
1000
0001
0100
0100
1000
0100
0010
0001
0100
0010
1000
0010
0001
0010
0100
0001
,
1000
0100
0010
0001
1100
0001
0010
0100
1000
0010
0100
0001
1000
0001
0100
0100
,
1000
0010
0100
0100
1000
0010
0100
0001
0010
0100
1000
0001
0100
1000
0100
0001
,
0010
0100
1000
0001
1010
0100
0010
0001
1000
0010
0100
0001
0100
0001
0010
0010
,
1000
0001
0010
0010
0100
0001
2000
0000
3100
0010
0100
1000
0001
0100
0100
0100
,
0001
0100
0100
0100
0020
0000
0000
0000
0030
0M0M
0000
0000
2M0M
0000
0000
0M0M
,
0000
0000
0M0M
0000
0000
0M0M
0000
0000
0M0M
0000
0000
0M0M
0000
0000
0M0M
0000
,
0000
0M0M
0000
0000
0M0M
0000
0000
0M0M
0000
0000
0M0M
0000
0000
0M0M
0000
0000
,
0M0M
0000
0000
0M0M
3000
0000
0000
0000
0001
0000
0000
0000
1010
0000
0001
0000
,
0100
0100
1000
0001
0100
0010
1000
0000
0001
0100
0100
0100
0010
1000
0002
0000
,
0103
0100
1000
0100
0100
0000
0020
0000
2030
0000
0000
0000
3012
0000
0000
0000
,
0103
0100
1000
0100
0100
0000
0002
0000
0013
0100
1000
0010
0100
0001
1000
0100
,
0010
1000
0010
0001
0100
0010
1000
0100
0010
0000
0000
0000
0101
0000
1000
0000
,
0100
0100
0001
1000
0100
0010
0001
0000
1000
0100
0100
0100
1000
0001
0010
0000
,
0100
0100
0001
0100
0010
0010
0010
0010
0101
0000
0000
0000
1000
0000
0011
0000
,
0000
0100
0011
0000
1000
0101
0000
0010
,
0101
0000
1000
0001
0100
0000
0010
0000
1000
0000
0000
0000
0001
0000
0000
0000
,
0100
0100
0100
0000
0010
0M10
0010
0000
0100
01M0
0100
0000
0010
0M10
0010
0000
,
2000
0000
0000
0000
0001
0000
0000
0000
3001
0100
0010
1000
0001
0010
0100
0010
,
0001
1000
0010
1000
0100
0010
0001
0100
0010
1000
0100
0010
0001
0100
0001
1000
,
0100
0000
1000
0000
0001
0100
0010
1000
0002
0000
0000
0000
1100
0000
0000
0000
,
1100
1100
1010
1010
,
2013
0000
0000
0000
3000
0000
0001
1000
0011
0000
0000
0000
1100
0000
0001
0000
,
1010
0000
0100
0000
1010
0000
0000
0001
1100
0000
0010
0M00
1010
0000
0100
00M0
,
1100
0000
0011
1100
0101
0000
1010
0000
,
0011
0000
1000
0000
0101
0000
1000
0000
0001
0000
0010
0010
0200
0000
0000
0000
,
0320
0000
0000
0130
1000
0000
0100
0000
0011
1100
0000
0000
0011
0000
1000
0000
,
0101
0000
0010
0000
0101
0000
1010
0000
1000
0100
0001
0100
1000
0000
0000
0101
,
1010
0000
0101
0000
1100
0000
0000
0000
0002
0000
0000
0000
0003
MM00
0000
0000
,
MM20
0000
0000
MM00
0000
0000
MM00
0000
0000
MM00
0000
0000
MM00
0000
0000
MM00
,
0000
0000
MM00
0000
0000
MM00
0000
0000
MM00
0000
0000
MM00
0000
0000
MM00
0000
,
0030
0000
0000
0000
0000
0000
1001
0000
0000
0001
0000
1000
,
0101
0000
0000
1000
0000
0001
0100
0000
0001
0010
0M00
0010
,
1100
0000
0001
0100
00M0
0100
1000
0000
0000
0010
0M00
0010
,
0101
0000
0000
1000
0000
0010
0100
0001
0010
0100
0001
0100
,
1000
0010
0100
0001
0010
0100
1000
0000
0000
0100
00M0
0100
,
0011
0000
0000
1000
0000
0001
0100
0000
0001
0010
0M00
0010
,
1100
0002
0023
0000
,
0000
0000
0000
0000
0000
0000
0000
0000
0031
0000
1000
0000
0001
0010
0100
1000
,
0002
0000
2003
0000
,
3001
0000
0000
0000
0100
0000
0000
0000
0010
0000
0000
0000
1000
0000
0000
0000
0001
0000
0000
0000
0010
0000
0000
0000
0100
0000
0000
1000
0000
0000
0001
0000
0000
0100
0000
0000
0010
0000
0000
1000
0000
0000
0001
0000
0000
0010
0000
0000
,
0100
1000
0010
0100
0001
1000
0100
0010
0002
0000
0000
0000
0000
0000
0000
0000
,
1003
0000
0000
0000
0010
0000
0000
0000
0100
0000
0000
0000
0010
0000
0000
0000
1000
0000
0000
0000
0001
0000
0000
0000
0010
0000
0000
0100
0000
0000
1000
0000
0000
0001
0000
0000
0100
0000
0000
0010
0000
0000
1000
0000
0000
0001
0000
0000
,
0010
0100
0010
0001
1000
0010
0100
0001
2000
0000
0000
0000
0000
0000
0000
0000
,
0100
0000
0000
0010
,
3001
0000
0000
0000
0010
0000
0000
0000
0100
0000
0000
0000
1000
0000
0000
0000
0010
0000
0000
0000
0100
0000
0000
0000
0001
0000
0000
1000
0000
0000
0100
0000
0000
0010
0000
0000
0001
0000
0000
1000
0000
0000
0010
0000
0000
0100
0000
0000
,
0001
1000
0100
1000
0010
0100
0001
1000
0100
0010
0001
1000
0010
0100
0010
1000
,
0001
0010
0100
1000
0001
0100
0010
1000
0002
0000
0000
0000
0000
0000
0000
0000
,
1003
0000
0000
0000
0100
0000
0000
0000
0010
0000
0000
0000
0001
0000
0000
0000
1000
0000
0000
0000
0010
0000
0000
0000
0100
0000
0000
0001
0000
0000
1000
0000
0000
0100
0000
0000
0010
0000
0000
0001
0000
0000
1000
0000
0000
0010
0000
0000
,
0100
0001
0010
0100
1000
0001
0100
0010
2000
0000
0000
0000
0000
0000
0000
0000
,
3001
0000
0000
0000
0010
0000
0000
0000
0100
0000
0000
0000
0010
0000
0000
0000
0001
0000
0000
0000
1000
0000
0000
0000
0010
0000
0000
0100
0000
0000
0001
0000
0000
1000
0000
0000
0100
0000
0000
0010
0000
0000
0001
0000
0000
1000
0000
0000
,
0010
0100
0010
1000
0001
0010
0100
1000
0001
0000
0010
0000
0100
1000
0001
0100
,
0020
0000
0000
0000
0000
0000
0000
0000
0130
0000
0001
0000
1000
0100
0010
0001
,
2000
0000
0000
0000
0000
0000
0000
0000
3010
0000
0100
0000
0001
0010
0100
1000
,
0001
0000
0100
0000
0010
0000
1000
0000
0001
0010
0100
1000
0001
0100
0010
1000
,
0001
0010
0100
0010
0001
1000
0010
0100
0002
0000
0000
0000
0000
0000
1013
0000
,
0000
0000
0000
0000
0001
0100
0001
0100
0020
0000
0000
0000
0000
0000
1130
0000
,
0000
0000
0000
0000
0000
0000
0000
0000
0000
0000
0000
0000
0000
0000
0000
0000
0000
0000
0000
0000
0000
0000
0000
0000
0000
0000
0000
0000
0000
0000
0000
0000
0000
0000
0000
0000
0000
0000
0000
0000
0000
0000
0000
0000
0000
0000
0000
0000
0001
0000
0000
0000
0000
0000
0000
0000
0000
0000
0000
0000
1000
0000
0000
0000
0000
0000
0000
0000
0000
0000
0000
0000
0001
0000
0000
0000
0000
0000
0000
0000
0000
0000
0000
0000
1000
0000
0000
0000
0000
0000
0000
0000
0000
0000
0000
0000
0200
0000
0000
0000
0000
0000
0000
0000
0000
0000
0000
0000
0000
0000
0000
0000
0000
0000
0000
0000
0000
0000
0000
0000
0000
0000
0000
0000
0000
0000
0000
0000
0000
0000
0000
0000
0000
0000
0000
0000
0000
0000
0000
0000
0000
0000
0000
0000
0000
0000
0000
0000
0000
0000
0000
0000
0000
0000
0000
0000
0000
0000
0000
0000
0000
0000
0000
0000
0000
0000
0000
0300
0200
0000
0000
0000
0000
0000
0000
0000
0000
0000
0000
0000
0000
0000
0000
0000
0000
0000
0000
0000
0000
0000
0000
0000
,
0000
0000
0000
0000
0000
0000
0000
0000
0000
0000
0000
0000
0000
0000
0000
0000
0000
0000
0000
0000
0000
0000
0000
0000
0000
0000
0000
0000
0000
0000
0000
0000
0000
0000
0000
0000
0000
0000
0000
0000
0000
0000
0000
0000
0000
0000
0000
0000
2300
0000
0000
0000
0000
0000
0000
0000
0000
0000
0000
0000
0000
0000
0000
0000
0000
0000
0000
0000
0000
0000
0000
0000
0000
0000
0000
0000
0000
0000
0000
0000
0000
0000
0000
0000
0000
0000
0000
0000
0000
0000
0000
0000
0000
0000
0000
0000
0000
0000
0000
0000
0000
0000
0000
0000
0000
0000
0000
0000
0000
0000
0000
0000
0000
0000
0000
0000
0000
0000
0000
3000
2000
0000
0000
0000
0000
0000
0000
0000
0000
0000
0000
0000
0000
0000
0000
0000
0000
0000
0000
0000
0000
0000
0000
0000
0000
0000
0000
0000
0000
0000
0000
0000
0000
0000
0000
0000
0000
0000
0000
0000
0000
0000
0000
0000
0000
0000
0000
0000
0000
0000
0000
0000
0000
0000
0000
0000
0000
0000
0000
0000
0000
0000
0000
0000
0000
0000
0000
0000
0000
0000
0000
3000
,
2000
0000
3000
0000
0012
0000
0000
1103
,
0000
0000
0000
0000
0001
1000
0001
1000
0200
0000
0000
0000
0000
0000
1310
0000
,
0000
0000
0000
0000
0000
0000
0000
0000
0000
0000
0000
0000
0000
0000
0000
0000
0000
0000
0000
0000
0000
0000
0000
0000
0000
0000
0000
0000
0000
0000
0000
0000
0000
0000
0000
0000
0000
0000
0000
0000
0000
0000
0000
0000
0000
0000
0000
0000
0001
0000
0000
0000
0000
0000
0000
0000
0000
0000
0000
0000
1000
0000
0000
0000
0000
0000
0000
0000
0000
0000
0000
0000
0001
0000
0000
0000
0000
0000
0000
0000
0000
0000
0000
0000
1000
0000
0000
0000
0000
0000
0000
0000
0000
0000
0000
0000
0020
0000
0000
0000
0000
0000
0000
0000
0000
0000
0000
0000
0000
0000
0000
0000
0000
0000
0000
0000
0000
0000
0000
0000
0000
0000
0000
0000
0000
0000
0000
0000
0000
0000
0000
0000
0000
0000
0000
0000
0000
0000
0000
0000
0000
0000
0000
0000
0000
0000
0000
0000
0000
0000
0000
0000
0000
0000
0000
0000
0000
0000
0000
0000
0000
0000
0000
0000
0000
0000
0000
0030
0020
0000
0000
0000
0000
0000
0000
0000
0000
0000
0000
0000
0000
0000
0000
0000
0000
0000
0000
0000
0000
0000
0000
0000
,
0000
0000
0000
0000
0000
0000
0000
0000
0000
0000
0000
0000
0000
0000
0000
0000
0000
0000
0000
0000
0000
0000
0000
0000
0000
0000
0000
0000
0000
0000
0000
0000
0000
0000
0000
0000
0000
0000
0000
0000
0000
0000
0000
0000
0000
0000
0000
0000
0230
0000
0000
0000
0000
0000
0000
0000
0000
0000
0000
0000
0000
0000
0000
0000
0000
0000
0000
0000
0000
0000
0000
0000
0000
0000
0000
0000
0000
0000
0000
0000
0000
0000
0000
0000
0000
0000
0000
0000
0000
0000
0000
0000
0000
0000
0000
0000
0000
0000
0000
0000
0000
0000
0000
0000
0000
0000
0000
0000
0000
0000
0000
0000
0000
0000
0000
0000
0000
0000
0000
0300
0200
0000
0000
0000
0000
0000
0000
0000
0000
0000
0000
0000
0000
0000
0000
0000
0000
0000
0000
0000
0000
0000
0000
0000
0000
0000
0000
0000
0000
0000
0000
0000
0000
0000
0000
0000
0000
0000
0000
0000
0000
0000
0000
0000
0000
0000
0000
0000
0000
0000
0000
0000
0000
0000
0000
0000
0000
0000
0000
0000
0000
0000
0000
0000
0000
0000
0000
0000
0000
0000
0000
0000
,
0302
0000
0000
0000
2013
0000
0000
3101
,
0000
0000
0000
0000
1000
0001
1000
0001
0200
0000
0000
0000
0000
0000
0311
0000
,
0000
0000
0000
0000
0000
0000
0000
0000
0000
0000
0000
0000
0000
0000
0000
0000
0000
0000
0000
0000
0000
0000
0000
0000
0000
0000
0000
0000
0000
0000
0000
0000
0000
0000
0000
0000
0000
0000
0000
0000
0000
0000
0000
0000
0000
0000
0000
0000
1000
0000
0000
0000
0000
0000
0000
0000
0000
0000
0000
0000
0100
0000
0000
0000
0000
0000
0000
0000
0000
0000
0000
0000
1000
0000
0000
0000
0000
0000
0000
0000
0000
0000
0000
0000
0100
0000
0000
0000
0000
0000
0000
0000
0000
0000
0000
0000
0020
0000
0000
0000
0000
0000
0000
0000
0000
0000
0000
0000
0000
0000
0000
0000
0000
0000
0000
0000
0000
0000
0000
0000
0000
0000
0000
0000
0000
0000
0000
0000
0000
0000
0000
0000
0000
0000
0000
0000
0000
0000
0000
0000
0000
0000
0000
0000
0000
0000
0000
0000
0000
0000
0000
0000
0000
0000
0000
0000
0000
0000
0000
0000
0000
0000
0000
0000
0000
0000
0000
0030
0020
0000
0000
0000
0000
0000
0000
0000
0000
0000
0000
0000
0000
0000
0000
0000
0000
0000
0000
0000
0000
0000
0000
0000
,
0000
0000
0000
0000
0000
0000
0000
0000
0000
0000
0000
0000
0000
0000
0000
0000
0000
0000
0000
0000
0000
0000
0000
0000
0000
0000
0000
0000
0000
0000
0000
0000
0000
0000
0000
0000
0000
0000
0000
0000
0000
0000
0000
0000
0000
0000
0000
0000
0032
0000
0000
0000
0000
0000
0000
0000
0000
0000
0000
0000
0000
0000
0000
0000
0000
0000
0000
0000
0000
0000
0000
0000
0000
0000
0000
0000
0000
0000
0000
0000
0000
0000
0000
0000
0000
0000
0000
0000
0000
0000
0000
0000
0000
0000
0000
0000
0000
0000
0000
0000
0000
0000
0000
0000
0000
0000
0000
0000
0000
0000
0000
0000
0000
0000
0000
0000
0000
0000
0000
0003
0002
0000
0000
0000
0000
0000
0000
0000
0000
0000
0000
0000
0000
0000
0000
0000
0000
0000
0000
0000
0000
0000
0000
0000
0000
0000
0000
0000
0000
0000
0000
0000
0000
0000
0000
0000
0000
0000
0000
0000
0000
0000
0000
0000
0000
0000
0000
0000
0000
0000
0000
0000
0000
0000
0000
0000
0000
0000
0000
0000
0000
0000
0000
0000
0000
0000
0000
0000
0000
0000
0000
0003
,
0002
0000
0000
0000
0003
0000
0000
0000
1000
0010
0100
0010
1000
0001
0010
0100
,
1000
0001
0100
0010
0100
0001
1000
0100
0010
0001
1000
0010
0100
0001
1000
0100
,
0010
0001
0100
0010
1000
0001
0010
0100
1000
0001
0100
0010
0100
0001
1000
0100
,
0010
0001
0100
0010
1000
0001
0010
0100
0010
0001
1000
0010
0100
0001
0010
0100
,
1000
0010
0100
0001
2002
0000
0000
0000
,
0000
0000
0000
0000
,
0000
0000
0000
0000
,
0000
0000
3003
0000
,
0000
0000
0000
0000
0000
0000
0000
0000
2000
0000
0000
0000
0000
0000
3001
0100
,
0020
0000
0000
0000
0230
0000
0000
0000
2300
0000
0000
3200
0000
0000
0301
0000
,
0020
0000
0000
0000
0000
0000
0130
1000
0002
0000
0000
0000
0203
0000
0000
0000
,
0320
0000
0000
0000
0000
0000
0000
0000
0000
0000
0000
0000
0000
0000
0000
0000
0000
0000
0000
0000
0000
0000
0000
0000
0000
0000
0000
0000
0000
0000
0000
0000
0000
0000
0000
0000
0000
0000
0000
0000
0000
0000
0000
0000
0000
0000
0000
0000
0230
0000
0000
0000
0000
0000
0000
0000
0000
0000
0000
0000
0000
0000
0000
0000
0000
0000
0000
0000
0000
0000
0000
0000
0000
0000
0000
0000
0000
0000
0000
0000
0000
0000
0000
0000
0000
0000
0000
0000
0000
0000
0000
0000
0000
0000
0000
0300
0200
0000
0000
0000
0000
0000
0000
0000
0000
0000
0000
0000
0000
0000
0000
0000
0000
0000
0000
0000
0000
0000
0000
0000
0000
0000
0000
0000
0000
0000
0000
0000
0000
0000
0000
0000
0302
0000
0000
0000
0000
0000
0000
0000
0000
0000
0000
0000
0000
0000
0000
0000
0000
0000
0000
0000
0000
0000
0000
0000
0000
0000
0000
0000
0000
0000
0000
0000
0000
0000
0000
0000
0013
0000
0000
0000
0000
0000
0000
0000
0000
0000
0000
0000
0000
0000
0000
0000
0000
0000
0000
0000
0000
0000
0000
0000
,
0200
0000
0000
0000
0000
0000
1300
0001
1200
0000
0000
0000
0000
0000
0301
1000
,
0201
0000
0000
0000
0320
0000
0000
0000
0131
0000
0000
1010
0000
0000
0011
0000
,
1200
0000
0000
0000
0000
0000
0301
1000
0021
0000
0000
0000
2030
0000
0000
0000
,
3201
0000
0000
0000
0320
0000
0000
0000
0032
0000
0000
1003
0020
0000
0000
0000
,
0000
0000
0000
0000
0000
0000
0000
0000
0030
0000
1100
0000
0000
0011
0000
0000
,
1010
0000
0000
0101
0000
0000
1010
0000
0001
0010
0100
1000
0001
0100
0010
0100
,
0010
1000
0001
0010
0100
0010
0001
1000
0100
0010
0001
1000
0010
0100
0010
1000
,
0001
0010
0100
1000
0010
1000
0001
1000
0100
0010
0001
1000
0010
1000
0010
0100
,
0001
0100
0001
1000
0100
0010
0001
0100
0010
1000
0001
0010
0100
1000
0001
0100
,
0010
0100
0001
1000
0100
0010
0001
1000
0010
0100
0001
1000
0100
0010
0100
1000
,
0001
0100
0001
0100
0010
1000
0001
0010
0001
1000
0010
0100
0010
1000
0001
0010
,
0100
1000
0010
1000
0001
0100
0010
1000
0001
0010
0100
0010
0001
1000
0010
0100
,
0010
1000
0100
0010
0001
1000
0010
0100
0001
0010
0100
1000
0001
0100
0010
1000
,
0001
0010
0100
1000
0100
0010
0001
1000
0012
0000
0000
0000
2003
0000
0000
0000
,
3201
0000
0000
0000
0000
0000
0000
0000
0000
0000
0000
0000
0310
0000
0001
0000
0010
0000
0100
0000
1000
0000
0001
0000
2000
0000
0000
0000
0000
0000
0001
0000
0000
0000
0000
0000
0000
0000
0000
0000
0000
0000
3100
0000
0000
0100
0000
0000
,
0002
0000
0000
0000
0000
0000
0000
0000
0023
0000
0000
0001
0000
0000
0130
0100
,
0002
0000
0000
0000
0000
0000
0103
0100
2000
0000
0001
0000
0000
0000
3010
0010
,
0002
0000
0000
0000
0000
0000
0000
0000
0203
0000
0000
0001
0000
0000
0310
0010
,
0002
0000
0000
0000
0000
0000
0000
0000
0000
0000
0000
0000
0000
0000
0000
0000
0013
0000
0000
0000
0100
0000
0000
0000
2000
0000
0000
0000
0000
0000
0001
0000
0000
0000
0000
0000
0000
0000
0000
0000
0000
0000
3010
0000
0000
0010
0000
0000
,
0002
0000
0000
0000
0000
0000
0000
0000
0203
0000
0000
0001
0000
0000
0310
0010
,
0002
0000
0000
0000
0000
0000
0013
0010
2000
0000
0001
0000
0000
0000
3100
0100
,
0002
0000
0000
0000
0000
0000
0000
0000
0000
0000
0000
0000
1003
0010
0100
0010
1000
0001
0010
0100
1000
0001
0100
0010
,
0100
0000
0001
0000
1000
0000
0100
0000
0010
0000
0001
0000
1000
0000
0010
0000
0100
0000
0001
0000
0010
0000
0100
0000
1000
0000
0000
0000
0000
0000
0000
0000
0000
0000
0000
0000
0001
0000
0000
0000
0000
0000
1000
0000
0000
0001
0000
0000
,
1100
0000
0001
0000
0100
0000
0001
0000
1010
0000
0000
0000
0100
0000
1000
0001
,
1010
0000
0000
0101
0000
0000
1100
0000
0011
0000
1000
0001
1000
0000
0100
0010
,
0101
0000
1000
0001
1000
0000
0010
0100
0011
0000
1000
0010
0100
0001
0010
0100
,
1000
0100
0100
0001
0010
0010
1000
0100
0010
0000
0100
0000
1000
0000
0001
0100
,
0010
0000
0100
0000
0001
0000
1000
0000
0100
0000
0010
0000
0100
0000
1000
0010
,
0100
0000
0001
0000
0010
0000
0100
0000
0010
0001
1000
0100
0010
0100
1000
0001
,
0100
0010
1000
0001
0010
0100
1000
0001
0100
0010
0100
0001
1000
0100
0010
0001
,
1000
0010
0100
0001
1000
0100
0010
0001
1000
0000
0000
1010
0000
0000
0110
0000
,
0000
0101
0000
0000
0001
0000
0100
0000
0001
0010
0100
0010
0001
1000
0010
0100
,
0010
1000
0001
0010
0100
1000
0001
0100
0010
0000
0000
1010
0000
0000
1001
0000
,
0000
0011
0000
0000
0010
0000
0001
0000
1000
0010
0100
0001
1000
0100
0010
0001
,
0100
0001
1000
0100
0010
0100
1000
0001
1000
0000
0000
1010
0000
0000
0110
0000
,
0000
0101
0000
0000
0001
0000
1000
0000
0001
0010
0100
1000
0010
0100
0001
1000
,
0100
0010
0001
0100
0010
1000
0001
0010
0100
1000
0001
0100
0010
1000
0100
0010
,
0001
1000
0010
0100
0001
0010
0100
1000
0002
0000
0000
0000
0000
0000
0000
0000
,
0000
0000
0000
0000
1003
0010
0100
0001
1000
0000
0000
0000
0100
0000
0000
0000
,
1000
0001
1000
0001
1000
0010
0100
0001
1000
0100
0010
0001
1000
0010
0100
0001
,
1000
0100
1000
0001
0100
0001
1000
0100
0010
0001
1000
0010
1000
0100
0010
0001
,
1000
0001
0100
0001
1000
0100
0010
0100
1000
0001
0100
0001
0010
0100
1000
0001
,
0100
0010
1000
0001
0010
0100
0010
0001
1000
0010
1000
0100
0010
0001
1000
0010
,
0100
0001
1000
0100
0010
0100
1000
0001
0100
0010
1000
0001
0010
0100
0010
0001
,
1000
0010
1000
0100
0010
0001
1000
0010
1000
0001
0010
0001
1000
0100
0010
0001
,
1000
0010
0100
0001
1000
0100
0010
0100
1000
0001
0100
0001
0010
0100
1000
0001
,
0100
0001
1000
0100
0010
0001
1000
0010
1000
0001
0010
0001
0100
0001
0010
0100
,
1000
0001
1000
0100
0010
0100
1000
0001
0100
0010
0100
0001
1000
0100
0010
0001
,
1000
0010
1000
0100
0010
0001
1000
0010
0100
0001
1000
0100
0010
0100
1000
0010
,
1000
0000
0000
0001
0000
0000
0010
0000
0000
0100
0000
0000
1000
0000
0000
0001
0000
0000
0100
0000
0000
0010
0000
0000
1000
0000
0000
0000
0010
0000
0000
0000
0100
0000
0000
0000
0001
0000
0000
0000
1000
0000
0000
0000
0100
0000
0000
0000
,
0010
0100
1000
0001
0100
0001
0010
0100
1000
0001
1000
0010
,
0100
0000
0000
0000
0001
0000
0000
0000
1000
0000
0000
0000
0100
0000
0000
0000
0010
0000
0000
0000
0001
0000
0000
0000
1100
0000
0000
0000
0000
0000
0000
0000
0000
0000
0000
0000
0001
0000
0000
0000
0000
0000
1000
0000
0000
0001
0000
0000
,
1010
0000
0000
0000
0100
0000
0000
0000
1010
0000
0000
0101
0000
0000
1100
0000
,
0011
0000
0000
0000
1000
0000
0001
0000
0010
0000
0101
0000
0000
0000
1000
0001
,
0100
0001
1000
0000
0001
1000
0100
0010
0001
0000
1100
0000
0011
0000
0000
0000
,
1010
0000
0101
0000
0000
0000
1100
0000
0000
0000
0101
0000
0000
0000
1000
0010
,
1000
0100
0010
0000
0001
0000
1000
0000
0001
0000
1010
0000
0101
0000
0000
0000
,
1100
0000
0011
0000
0000
0000
1010
0000
0000
0000
0011
0000
0000
0000
1000
0100
,
0010
0001
0100
0000
0001
0000
0000
0000
1000
0010
1000
0100
0010
0001
1000
0001
,
0100
0010
1000
0001
0010
0100
0010
0001
1000
0010
1000
0001
0010
0100
1000
0001
,
0100
0010
0100
0001
1000
0100
0010
0001
1000
0010
0100
0001
1000
0100
0010
0001
,
0100
0010
1000
0001
0010
0100
0010
0001
1000
0010
1000
0001
0010
0100
1000
0001
,
0100
0010
1000
0001
1000
0100
0010
0001
1000
0010
1000
0100
0010
0001
1000
0010
,
0100
0010
1000
0001
0010
0100
1000
0001
0100
0001
1000
0100
0010
0100
1000
0001
,
0100
0010
1000
0001
0010
0100
1000
0001
1000
0010
0100
0001
0010
0100
1000
0001
,
0100
0001
0010
0100
1000
0001
1000
0100
0010
0001
1000
0010
1000
0001
0010
0100
,
0010
0001
1000
0010
0100
0001
1000
0100
1000
0000
0000
0000
0001
0000
1000
0010
,
0100
0000
0000
0000
0001
0000
0000
0000
1000
0000
0000
0000
0100
0000
0010
0001
,
1000
0000
0000
0000
0001
0000
0000
0000
0100
0010
1000
0001
0010
0100
1000
0010
,
0100
0001
1000
0100
0010
0001
1000
0010
1000
0100
0010
0001
1000
0010
0100
0001
,
1000
0100
0010
0100
1000
0001
0100
0010
1000
0000
0000
0000
0001
0000
0100
0001
,
1000
0000
0010
0000
0100
0000
0010
0000
1000
0000
0000
0000
0001
0000
1000
0010
,
0100
0000
0000
0000
0001
0000
0000
0000
1000
0000
0000
0000
0001
0010
0100
1000
,
0001
0100
0010
1000
0001
0010
0100
0010
0001
1000
0010
1000
0100
0010
0001
1000
,
0010
0100
0001
1000
0010
1000
0100
0010
0200
0000
0000
0000
0000
0000
0000
0000
,
0000
0000
0000
0000
,
0000
0000
2300
0000
,
0000
0000
3002
0000
,
0000
0000
0203
0000
,
0000
0000
0000
0301
1000
0010
1000
0100
0010
0001
0100
0010
,
1000
0000
0000
0000
0001
0000
0000
0000
0010
0000
0000
0000
0001
0000
0000
0000
0100
0000
0000
0000
0010
0000
0000
0000
1000
0000
0000
0010
0000
0000
0100
0000
0000
0010
0000
0000
1000
0000
0000
0000
0000
0000
0001
0000
0000
0100
0000
0000
,
0010
0100
0001
0000
1000
0100
0010
0100
1000
0000
0001
0010
0100
0010
0001
0000
,
1000
0100
0010
0100
1000
0001
0100
0001
1000
0001
0010
0100
1000
0000
0010
1000
,
0001
0010
0100
0000
1000
0010
0100
0001
1000
0000
0001
0010
0100
0010
0001
0000
,
1000
0001
0100
0001
0010
0100
1000
0001
1000
0100
0010
0100
1000
0000
0001
0100
,
0010
0100
0001
0000
1000
0100
0010
0001
1000
0000
0001
0100
0010
1000
0001
0000
,
1000
0100
0010
0001
1000
0010
0100
0001
2000
0000
0000
0000
3MM0
0000
0000
0MM0
,
0000
0000
0MM0
0000
0000
0MM0
0000
0000
0MM2
0000
0000
0MM0
0000
0000
0MM0
0000
,
0000
0MM0
0000
0000
0MM0
0000
0000
0MM0
0000
0000
0MM0
0000
0000
0MM0
0000
0000
,
0MM0
0000
0000
0MM0
0000
0000
0MM0
0000
0000
0MM0
0000
0000
0MM0
0000
0000
0MM0
,
0000
0000
0MM0
0000
0000
0MM0
0000
0000
0MM0
0000
0000
0MM0
0000
0000
0MM0
0000
,
0000
0MM0
0000
0000
0MM0
0000
0000
0MM0
0000
0000
0MM0
0000
0000
0MM0
0000
0000
,
0MM0
0000
0000
0MM0
0000
0000
0MM0
0000
0003
0000
0000
0000
0000
0000
0000
0000
,
1100
0000
0001
0000
0000
1000
0000
0101
,
1000
0001
0010
0001
1000
0000
0000
0000
0000
0000
0011
0000
0000
0000
0000
0000
,
1100
0000
0001
0000
0000
1000
0000
0011
,
1000
0010
0100
0010
1000
0000
0000
0000
0000
0000
0101
0000
0000
0000
0000
0000
,
1000
0100
0010
0001
1000
0001
0100
0010
1000
0001
0010
0100
1000
0001
0100
0010
,
1000
0001
0010
0100
0010
0001
1000
0010
0100
0001
1000
0100
0010
0001
1000
0010
,
0100
0001
1000
0100
0010
0001
1000
0010
0100
0001
1000
0100
0010
0100
1000
0001
,
1000
0100
0010
0001
1000
0010
0100
0001
1000
0100
0010
0100
1000
0001
0100
0010
,
2000
0000
0000
0000
,
0000
0000
0000
0000
,
0000
0000
0000
0000
,
0000
0000
3000
0000
,
0001
0010
0100
1000
0010
0100
0001
1000
,
0100
0010
0001
0100
0010
1000
0001
1000
,
0100
0010
0001
0100
0010
1000
0001
0010
,
0100
1000
0010
0100
0001
1000
0100
0010
,
0001
1000
0001
0100
0011
1000
0100
0010
,
0001
0100
0010
1000
0011
1000
0001
0010
,
0100
1000
0010
0100
0011
1000
0001
0010
,
0100
1000
0010
0100
0011
0100
0010
1000
,
0011
0100
0100
0100
0100
0100
0100
0100
,
0100
0000
0100
0000
0001
1000
0010
0100
0001
1000
0100
0010
0100
1000
0001
1000
,
0100
0100
0100
0100
0100
0100
0100
0100
,
0100
0000
0100
0000
0001
0100
0010
1000
0001
0010
0100
1000
0001
0100
0001
1000
,
0100
0000
0000
0000
1000
0000
0010
0000
0010
0000
0001
0000
0100
0000
0010
1000
,
0010
0000
0100
0000
0001
0000
1000
0100
1000
0000
0001
0000
0100
0010
1000
0001
,
0020
0000
0000
0000
MM30
0000
0000
MM00
0000
0000
MM00
0000
0000
MM00
0000
0000
,
MM02
0000
0000
MM00
0000
0000
MM00
0000
0000
MM00
0000
0000
MM00
0000
0000
MM00
,
0000
0000
MM00
0000
0000
MM00
0000
0000
MM00
0000
0000
MM00
0000
0000
MM00
0000
,
0000
MM00
0000
0000
MM00
0000
0000
MM00
0000
0000
MM00
0000
0000
MM00
0000
0000
,
MM00
0000
0000
MM00
0000
0000
MM00
0000
0000
MM00
0000
0000
MM00
0000
0000
MM00
,
0003
0000
0000
0000
0000
0000
0000
0000
0010
0001
0010
0100
1000
0001
0100
0010
,
1000
0100
0010
0001
0100
0010
1000
0001
,
0010
0000
0100
0000
1000
0000
0010
0000
0100
0000
0001
0000
1000
0100
0010
0001
,
0100
0001
1000
0010
0100
0001
0010
0001
,
0100
0001
1000
0010
1000
0000
0100
0000
1000
0000
0001
0000
0100
0010
1000
0001
,
0010
0100
0010
0001
0100
0010
1000
0001
,
0100
0010
1000
0000
0001
0000
0010
0100
1000
0001
0100
0010
1000
0000
0010
0000
,
1000
0010
0100
0001
1000
0100
0010
0001
,
0100
0010
1000
0001
0010
0100
0010
0001
,
1000
0010
0100
0001
1000
0100
0010
0001
1000
0001
0100
0001
1000
0100
0010
0001
,
1000
0010
0100
0001
1000
0100
0010
0001
1000
0010
0100
0010
1000
0001
0010
0100
,
1000
0001
0100
0010
1000
0001
0010
0100
0010
0001
1000
0010
0100
0001
1000
0010
,
1000
0100
1000
0010
0100
0001
0010
0001
,
1000
0000
1001
0000
1001
0000
0001
0010
,
0100
0000
0000
0000
0000
0000
1000
0000
0001
0000
1000
0000
0001
0000
0000
0100
0000
0000
0010
0000
0000
1000
0000
0000
,
0100
0001
0100
1000
0001
0100
1000
0100
,
0010
1000
0100
0001
0100
0010
0001
1000
,
0010
1000
0100
0010
0001
0100
0001
1000
,
0100
1000
0001
0100
0001
0010
0100
1000
,
0010
1000
0001
0010
0100
1000
0010
0100
,
0001
0000
0000
1000
0000
0001
0000
0000
0000
1000
0000
0001
0000
0000
0000
0100
0000
0000
0010
0000
1000
0000
0001
0000
,
1000
0010
0100
0001
0010
0001
1000
0010
,
1000
0100
0010
0100
1000
0001
0100
0010
1000
0001
0010
0100
0010
0001
1000
0010
,
0100
0001
1000
0100
0010
0000
0000
0000
0100
1000
0001
0100
0010
0000
0000
0000
,
1000
0010
0001
0010
0100
0010
1000
0001
,
1010
0000
0000
0000
0001
0000
0010
0000
0001
0000
2200
3300
0000
0000
0020
0030
,
2000
3000
0020
0030
1100
0000
0001
0000
0010
0000
0100
0000
1000
0000
0001
0000
,
0000
0100
0001
0000
1000
0001
0000
0010
,
0001
0000
1000
0000
0010
0000
0100
0000
0000
0000
0001
0000
1000
0010
0100
0010
,
1000
0000
0001
0000
0010
0000
0000
0000
0100
0010
0001
1000
0010
0000
0100
0000
,
0001
0000
0000
0000
0010
0100
1000
0000
0001
0100
0010
0000
1000
0000
0001
0000
,
0000
0010
0001
0000
1000
0001
0000
0100
,
0001
0000
1000
0000
0100
0000
0010
0000
0000
0000
0001
0000
1000
0010
0100
0001
,
1000
0000
0100
0000
0010
0000
0000
0000
0001
0100
0010
1000
0001
0000
0010
0000
,
0100
0000
0000
0000
0010
0001
1000
0000
0010
0100
0001
0000
1000
0000
0001
0000
,
0000
0100
0001
0000
1000
0001
0000
0010
,
0001
0000
1000
0000
0010
0000
0100
0000
0000
0000
0001
0000
1000
0010
0100
0001
,
1000
0000
0010
0000
1000
0000
0000
0000
0100
0010
0001
1000
0010
0000
0100
0000
,
0001
0000
0000
0000
0010
0100
1000
0000
0001
0100
0010
0000
0100
0000
0000
0000
,
0000
0100
0000
0000
1000
0000
0000
1000
,
0000
0000
0100
0000
0000
0100
0000
0000
,
0001
0000
0000
0001
0000
0000
2000
0000
,
0000
0000
3002
0000
0000
0000
1003
0001
,
0100
0010
0001
0010
1000
0001
0010
0100
,
0001
0100
1000
0010
0100
0001
0010
0100
,
1000
0010
0100
1000
0100
0001
1000
0100
,
0010
0001
0100
0010
1000
0001
0010
0100
,
0001
0100
1000
0001
0100
1000
0100
0010
,
1000
0001
0010
0100
0001
0100
1000
0001
,
0100
0010
1000
0100
0010
0001
1000
0010
,
0001
0010
0100
0001
1000
0010
1000
0100
,
0001
1000
0010
0001
1000
0010
0001
0010
,
0100
0001
0010
0100
0001
0100
1000
0001
,
0100
1000
0001
0010
1000
0001
0010
0100
,
0001
0100
1000
0001
0100
0010
0001
1000
,
0100
0001
1000
0100
0001
1000
0010
0100
,
1000
0010
0100
1000
0100
0010
1000
0000
,
0100
0001
1000
0010
,
0001
0000
1000
0000
0001
0000
0100
0001
,
2000
3000
0002
0003
1000
0000
0100
0000
0000
0000
0020
0030
0002
0003
1000
0000
,
0010
0000
2000
3000
0020
0030
0002
0003
2000
3000
0200
0300
0000
0000
0001
0000
,
0010
0000
0001
0000
2000
3000
0020
0030
0002
0003
0020
0030
0000
0000
0100
0000
,
0001
0000
1000
0000
0200
0300
0002
0003
0200
0300
2000
3000
0002
0003
0200
0300
,
2000
0000
0000
3000
0000
0000
0002
0000
0000
0003
0000
0000
0020
0000
0000
0030
0000
0000
0200
0000
0000
0300
0000
0000
0002
0000
0000
0003
0000
0000
2000
0000
0000
3000
0000
0000
0000
0000
0020
0000
0000
0030
0000
0000
0000
0000
0200
0000
,
0000
0300
0000
0000
0000
0000
0002
0000
0000
0003
0000
0000
0000
0000
0020
0000
0000
0030
0000
0000
0000
0000
0200
0000
0000
0300
0000
0000
0000
0000
2000
0000
0000
0000
0000
0000
0000
0000
0000
0000
0000
0000
0000
0000
0000
0000
0000
0000
,
0000
0000
0000
0000
,
0000
0000
0000
0000
,
0000
0000
0000
0000
,
0000
0000
0000
3000
,
0000
0000
0000
0000
,
0000
0000
0000
0000
,
0000
0000
0000
0000
,
0000
0000
0000
0000
0000
1010
0000
0000
,
0000
0000
0000
0000
0000
0101
0000
0000
,
0000
0000
0000
0000
0000
0011
0000
0000
,
0000
0000
0000
0000
0000
1100
0000
0000
,
0000
0000
0000
0000
0000
1001
0000
0000
,
1010
0000
0000
1100
0000
0000
0101
0000
,
0000
0011
0000
0000
1100
0000
0000
1010
,
0000
0000
0101
0000
0000
0011
0000
1010
,
0000
1100
0000
1001
0000
0011
0001
1000
,
0010
0000
0100
0001
0010
0100
1000
0001
0100
0010
1000
0000
0010
0000
0100
0000
,
1000
0100
0001
0010
0001
0100
1000
0100
,
0001
1000
0100
0010
0001
1000
0010
0100
,
1000
0100
0001
0010
0100
0010
1000
0010
,
0001
0200
0000
0300
0000
2002
0000
0000
,
0000
0000
0000
0000
,
0000
0000
0000
0000
,
0000
0000
0000
0000
,
0000
0000
0000
0000
,
0000
0000
0000
0000
,
0000
3003
0000
0000
0000
0000
0000
0000
;
