#VERSION:0.83;
#TITLE:推活天使ビビアンちゃん;
#SUBTITLE:;
#ARTIST:ファル公 & DJ Myosuke feat. マスタード & ビートまりお;
#TITLETRANSLIT:Oshikatsu Angel Miss Vivian;
#SUBTITLETRANSLIT:;
#ARTISTTRANSLIT:FARUCO & DJ Myosuke feat. Mustard & beatMARIO;
#GENRE:OBSESSION CORE;
#ORIGIN:Random Play Anniversary Celebration;
#TAGS:;
#CREDIT:;
#BANNER:Oshikatsu Angel Miss Vivian.png;
#BACKGROUND:Oshikatsu Angel Miss Vivian-bg.png;
#PREVIEWVID:;
#JACKET:Oshikatsu Angel Miss Vivian-jacket.png;
#CDIMAGE:;
#DISCIMAGE:;
#LYRICSPATH:;
#CDTITLE:MAN SEFU.png;
#MUSIC:Oshikatsu Angel Miss Vivian.ogg;
#OFFSET:-0.422000;
#SAMPLESTART:85.927567;
#SAMPLELENGTH:21.333332;
#SELECTABLE:YES;
#BPMS:0.000000=167.979996
,63.000000=180.000000
,388.000000=129.000000
,484.000000=180.000000
,596.000000=200.000000
,612.000000=215.000000
,620.000000=230.000000
,628.000000=249.500000
,636.000000=270.250000
,644.000000=280.000000
,648.000000=299.000000
;
#STOPS:;
#DELAYS:;
#WARPS:;
#TIMESIGNATURES:0.000000=3=4
,63.000000=4=4
,183.000000=3=4
,228.000000=4=4
;
#TICKCOUNTS:0.000000=4
;
#COMBOS:0.000000=1
;
#SPEEDS:0.000000=1.000000=0.000000=0
;
#SCROLLS:0.000000=0.500000
,61.000000=2.000000
,61.208332=1.800000
,61.395832=1.600000
,61.604168=1.400000
,61.791668=1.200000
,62.000000=1.000000
,181.000000=0.900000
,181.333328=0.800000
,181.666672=0.700000
,182.000000=0.600000
,182.333328=0.500000
,225.000000=0.600000
,225.333328=0.700000
,225.666672=0.800000
,226.000000=0.900000
,226.333328=1.000000
,652.500000=1.031000
,653.000000=1.062000
,653.500000=1.094000
,654.000000=1.125000
,654.500000=1.156000
,655.000000=1.188000
,655.500000=1.219000
,656.000000=1.250000
,656.500000=1.281000
,657.000000=1.312000
,657.500000=1.344000
,658.000000=1.375000
,658.500000=1.406000
,659.000000=1.438000
,659.500000=1.469000
,660.000000=1.500000
,660.500000=1.531000
,661.000000=1.562000
,661.500000=1.594000
,662.000000=1.625000
,662.500000=1.656000
,663.000000=1.688000
,663.500000=1.719000
,664.000000=1.750000
,664.500000=1.781000
,665.000000=1.812000
,665.500000=1.844000
,666.000000=1.875000
,666.500000=1.906000
,667.000000=1.938000
,667.500000=1.969000
,668.000000=2.000000
,668.250000=1.935000
,668.500000=1.871000
,668.750000=1.806000
,669.000000=1.742000
,669.250000=1.677000
,669.500000=1.613000
,669.750000=1.548000
,670.000000=1.484000
,670.250000=1.419000
,670.500000=1.355000
,670.750000=1.290000
,671.000000=1.226000
,671.250000=1.161000
,671.500000=1.097000
,671.750000=1.032000
,672.000000=0.968000
,672.250000=0.903000
,672.500000=0.839000
,672.750000=0.774000
,673.000000=0.710000
,673.250000=0.645000
,673.500000=0.581000
,673.750000=0.516000
,674.000000=0.452000
,674.250000=0.387000
,674.500000=0.323000
,674.750000=0.258000
,675.000000=0.194000
,675.250000=0.129000
,675.500000=0.065000
,675.750000=0.000000
,677.500000=-0.100000
,677.666687=-0.200000
,677.833313=-0.300000
,678.000000=-0.400000
,678.166687=-0.500000
,678.333313=-0.600000
,678.500000=-0.700000
,678.666687=-0.600000
,678.833313=-0.500000
,679.000000=-0.400000
,679.166687=-0.300000
,679.333313=-0.200000
,679.500000=-0.100000
,679.666687=0.000000
,680.750000=0.100000
,680.916687=0.200000
,681.083313=0.300000
,681.250000=0.200000
,681.416687=0.100000
,681.583313=0.000000
,682.000000=-0.100000
,682.166687=-0.200000
,682.333313=-0.300000
,682.500000=-0.400000
,682.666687=-0.500000
,682.833313=-0.600000
,683.000000=-0.500000
,683.166687=-0.400000
,683.333313=-0.300000
,683.500000=-0.200000
,683.666687=-0.100000
,683.833313=0.000000
,685.000000=0.100000
,685.208313=0.200000
,685.395813=0.300000
,685.604187=0.200000
,685.791687=0.100000
,686.000000=0.000000
,687.000000=-0.100000
,687.166687=-0.200000
,687.333313=-0.300000
,687.500000=-0.400000
,687.666687=-0.500000
,687.833313=-0.600000
,688.000000=-0.700000
,688.166687=-0.600000
,688.333313=-0.500000
,688.500000=-0.400000
,688.666687=-0.300000
,688.833313=-0.200000
,689.000000=-0.100000
,689.166687=0.000000
,690.000000=0.100000
,690.166687=0.200000
,690.333313=0.300000
,690.500000=0.400000
,690.666687=0.500000
,690.833313=0.600000
,691.000000=0.700000
,691.166687=0.600000
,691.333313=0.500000
,691.500000=0.400000
,691.666687=0.300000
,691.833313=0.200000
,692.000000=0.100000
,692.166687=0.000000
,693.000000=-0.100000
,693.208313=-0.200000
,693.395813=-0.300000
,693.604187=-0.200000
,693.791687=-0.100000
,694.000000=0.000000
,695.500000=0.100000
,695.666687=0.200000
,695.833313=0.300000
,696.000000=0.400000
,696.166687=0.500000
,696.333313=0.600000
,696.500000=0.700000
,696.666687=0.800000
,696.833313=0.900000
,697.000000=1.000000
;
#FAKES:;
#LABELS:0.000000=Song Start
,30.000000=YOSEFU's Part
,316.000000=MANA's Part
;
#BGCHANGES:-1.000=Oshikatsu Angel Miss Vivian.avi=1.000=0=0=0=StretchNoLoop====,
99999=-nosongbg-=1.000=0=0=0 // don't automatically add -songbackground-
;
#KEYSOUNDS:;
#ATTACKS:
;

//---------------dance-single - ----------------
#NOTEDATA:;
#CHARTNAME:;
#CHARTHASH:1327809485;
#STEPSTYPE:dance-single;
#BANNER:;
#DESCRIPTION:;
#CHARTSTYLE:;
#DIFFICULTY:Hard;
#METER:13;
#METERF:0.000000;
#LASTSECONDHINT:237.153275;
#RADARVALUES:0.598097,0.873579,0.295775,0.524897,0.133307,1005.000000,934.000000,71.000000,126.000000,8.000000,0.000000,0.000000,0.000000,0.000000,0.598097,0.873579,0.295775,0.524897,0.133307,1005.000000,934.000000,71.000000,126.000000,8.000000,0.000000,0.000000,0.000000,0.000000;
#CREDIT:MANSEFU;
#NOTES:
// measure 0
0000
0000
0000
0000
,  // measure 1
0000
0000
0000
0000
,  // measure 2
0000
0000
0000
0000
,  // measure 3
0000
0000
0000
0000
,  // measure 4
0000
0000
0000
0000
,  // measure 5
0000
0000
0000
0000
,  // measure 6
0000
0000
0000
0000
,  // measure 7
0000
0000
1000
0001
,  // measure 8
0001
0000
1000
0000
0010
0000
0010
1000
,  // measure 9
0010
1000
1000
0100
,  // measure 10
0010
0000
0010
0001
0010
0000
0100
0000
,  // measure 11
0100
1000
0001
0001
,  // measure 12
0100
0000
0100
0000
0100
0010
0200
0000
,  // measure 13
0000
0000
0000
0300
,  // measure 14
0000
0000
0000
0000
,  // measure 15
0000
0000
0000
0000
0220
0000
0000
0330
0000
0000
0000
0000
1000
0000
0001
0000
,  // measure 16
0020
0000
0130
1000
0002
0000
0103
0010
,  // measure 17
1000
0100
0010
0002
1003
0000
1100
0000
,  // measure 18
1100
0000
1000
0100
1000
0001
0100
0001
,  // measure 19
0100
0010
1000
0000
0000
0100
0010
0001
,  // measure 20
0100
1000
0100
0001
0010
0100
1000
0001
,  // measure 21
0000
2002
3003
2000
3010
0100
0001
0000
,  // measure 22
0101
0000
0001
0010
0100
1000
0100
1000
,  // measure 23
0010
0100
0001
0000
0101
0000
1000
0100
,  // measure 24
0010
0000
0000
0000
0001
0000
0100
0000
0010
0000
0000
0000
1000
0000
0000
0100
,  // measure 25
0000
0010
0001
1000
0010
0000
0100
0000
,  // measure 26
0001
0000
1000
0000
0010
0000
0100
0001
,  // measure 27
1000
0000
0100
0010
0001
0000
1000
0000
,  // measure 28
0010
1010
0011
1100
,  // measure 29
1000
0001
0200
0000
0300
0000
0000
0010
,  // measure 30
1000
0000
0010
0000
1000
0000
0000
0001
0000
0000
0100
0000
0000
0000
0000
0000
,  // measure 31
0001
1000
0001
1000
0100
0010
0000
0001
,  // measure 32
0100
0000
0001
0000
0100
0000
0000
0010
0000
0000
1000
0000
0001
0000
0000
0000
,  // measure 33
2000
0000
0000
0000
0000
3100
0010
0001
,  // measure 34
0010
0001
1000
0020
0000
0130
0001
1000
,  // measure 35
0100
0000
0010
0000
0200
0000
0000
0000
2300
0000
0000
0000
3001
0000
0000
0001
,  // measure 36
0000
0001
0100
0010
0100
0010
1000
0001
,  // measure 37
0010
0100
2000
0000
3000
0000
2001
0000
,  // measure 38
0100
0000
0000
0000
3001
0000
0000
0100
0000
0000
0010
0000
0000
0000
1000
0000
,  // measure 39
0100
0010
0001
0010
0100
1000
0000
0001
,  // measure 40
0100
0010
0100
0001
0010
0100
0002
0000
,  // measure 41
0000
0000
0000
0000
0103
1000
0001
0000
,  // measure 42
0100
0000
0010
0000
0100
0001
1000
0000
,  // measure 43
0100
0000
0010
0000
0001
1000
0010
0000
,  // measure 44
0100
0000
0001
0000
0010
0000
0100
1000
,  // measure 45
0000
0001
2000
0000
0000
0000
3000
0000
,  // measure 46
0000
0000
0001
0100
,  // measure 47
0100
0000
0010
0000
1000
0001
1000
0000
,  // measure 48
0100
0010
0010
0002
,  // measure 49
0000
0000
0000
0000
1003
0000
0010
0100
,  // measure 50
0010
0000
1000
0000
0001
0010
0001
0000
,  // measure 51
2000
0000
0000
3002
,  // measure 52
0000
0000
1003
0100
,  // measure 53
0100
0020
0000
0000
,  // measure 54
0031
0100
0100
0020
,  // measure 55
0000
0000
0000
0000
,  // measure 56
0000
0030
0000
0000
,  // measure 57
2000
0000
3100
0010
0001
0000
1000
0010
,  // measure 58
0200
0301
0200
0310
0200
0300
0001
0000
,  // measure 59
2000
0000
3100
0010
0001
0000
1000
0010
,  // measure 60
0200
0301
0200
0310
0100
0001
0010
0100
,  // measure 61
1000
0000
0000
1100
0000
0000
1001
0000
,  // measure 62
0101
0000
0000
0000
0100
0010
1000
0000
,  // measure 63
1010
1010
0011
1001
,  // measure 64
1100
0000
1000
0100
0010
0000
0001
0100
,  // measure 65
0010
0000
0110
0000
0100
0001
1000
0000
,  // measure 66
0100
0010
0001
0010
0200
0000
0300
0000
,  // measure 67
1100
0000
1100
0000
1000
0001
1000
0010
,  // measure 68
0100
0000
0000
0000
0000
0000
0000
0000
0000
0000
0000
0000
0000
0000
0000
0000
0101
0000
0000
0000
0000
0000
0000
0000
0000
0000
0000
0000
0000
0000
0000
0000
0001
0000
0000
0000
0000
0000
0000
0000
0200
0300
0000
0000
0000
0000
0000
0000
0200
0300
0000
0000
0000
0000
0000
0000
1000
0000
0000
0000
0000
0000
0000
0000
,  // measure 69
0010
0100
0001
0000
1000
0100
0010
0000
,  // measure 70
0001
0000
0000
0100
0000
0000
0010
0000
1000
0000
0000
0000
0000
0000
0000
0000
,  // measure 71
0001
0000
0000
0000
0000
0000
0000
0000
0200
0300
0000
0000
0000
0000
0000
0000
0200
0300
0000
0000
0000
0000
0000
0000
1000
0000
0000
0000
0000
0000
0000
0000
0001
0000
0000
0000
0000
0000
0000
0000
0200
0300
0000
0000
0000
0000
0000
0000
0200
0300
0000
0000
0000
0000
0000
0000
1000
0000
0000
0000
0000
0000
0000
0000
,  // measure 72
0001
0000
0000
0000
0000
0000
0000
0000
0020
0030
0000
0000
0000
0000
0000
0000
0020
0030
0000
0000
0000
0000
0000
0000
1000
0000
0000
0000
0000
0000
0000
0000
0020
0000
0000
0000
0000
0000
0000
0000
0000
0000
0000
0000
0000
0000
0000
0000
0030
0000
0000
0000
0000
0000
0000
0000
0100
0000
0000
0000
0000
0000
0000
0000
,  // measure 73
0001
0000
0010
0100
0001
0100
0010
0001
,  // measure 74
1000
0010
0100
0001
0010
0000
0000
0000
,  // measure 75
0002
1003
2000
3001
2000
0000
3100
0010
,  // measure 76
0001
0000
1001
0000
1000
0010
0100
0000
,  // measure 77
0001
0010
0100
0000
1000
0010
0100
0000
,  // measure 78
0001
0000
0000
0010
0000
0000
0100
0000
1000
0000
0000
0000
0001
0000
0000
0000
,  // measure 79
1000
0001
0200
0000
0301
1000
0020
0000
,  // measure 80
1030
0001
0100
0010
0100
0002
1003
0000
,  // measure 81
1000
0010
0100
0001
0100
0010
2000
0000
,  // measure 82
3100
1000
0100
0010
0012
0000
1003
0000
,  // measure 83
1000
0000
0000
0000
1000
0000
0010
0000
0000
0000
0010
0000
0100
0000
0000
0001
0000
0000
0010
0000
0000
0001
0000
0000
,  // measure 84
0000
0101
0000
2020
0000
0000
3030
0000
,  // measure 85
0001
0010
0100
1000
0100
0010
0001
0100
,  // measure 86
0110
0000
1010
0000
0102
0000
1003
1000
,  // measure 87
0010
0100
0002
0000
0103
0010
2000
0000
,  // measure 88
3001
0000
0000
0100
0000
0000
0010
0000
0220
0000
0330
0000
0110
0000
0010
0000
,  // measure 89
1000
0100
0010
0100
1000
0100
0010
0001
,  // measure 90
0100
0010
0100
0001
0100
0010
0200
0300
,  // measure 91
0001
0001
0010
0010
0100
0100
1000
1000
,  // measure 92
0010
0100
0000
0001
1001
1000
0001
1000
,  // measure 93
0010
0100
0001
0100
0010
0100
0001
0010
,  // measure 94
0100
1000
0100
0010
0100
1000
0020
0000
,  // measure 95
0130
0001
2000
0000
3010
1000
0002
0000
,  // measure 96
0013
0100
0001
0100
1000
0000
2002
3003
,  // measure 97
0M01
0000
0000
0000
0001
0000
0000
0000
0001
0000
0000
0001
0000
0000
0001
0000
,  // measure 98
0200
0000
0300
0000
0010
1000
0010
0000
0100
0000
0001
0000
0020
0000
0030
0000
,  // measure 99
0100
0000
1000
0000
1100
0000
0000
0000
0011
0000
0000
0001
0000
0000
1000
0000
,  // measure 100
1010
0000
0010
0000
0100
0001
0100
0000
0010
0000
1000
0000
1001
0000
0000
0000
,  // measure 101
1000
0000
0000
0000
1000
0000
0000
0000
1010
0000
0000
1000
0000
0000
0001
0000
,  // measure 102
0011
0000
0010
0000
0001
1000
0001
0000
0100
0000
0010
0000
0110
0000
0000
0000
,  // measure 103
0100
0001
0100
0000
0010
1000
0010
0000
0100
0000
0000
0001
0000
0000
1000
0000
,  // measure 104
0020
0000
0031
0000
0020
0000
1030
0000
2000
0000
3100
0010
0100
0000
0000
0000
,  // measure 105
0010
0001
0010
0000
1000
0000
0010
0000
0001
0010
0001
0000
0100
0000
0010
0100
,  // measure 106
0020
1030
0020
0130
0020
0031
0010
0100
,  // measure 107
0010
1000
0010
0000
0001
0000
0010
0000
1000
0010
1000
0000
0100
0000
0010
0000
,  // measure 108
0200
0000
0310
0000
0200
0000
0301
0000
0100
0010
0100
0000
1000
0000
1001
0000
,  // measure 109
0001
0000
1000
0000
0100
1000
0000
0000
0010
1000
0100
0000
1100
0000
0100
0010
,  // measure 110
0200
0000
0301
0000
0200
0000
1300
0000
1000
0001
1000
0000
0010
0000
0100
0001
,  // measure 111
0020
0230
2300
3002
0203
0010
0310
0000
,  // measure 112
2000
0000
3100
0000
0020
0000
0130
0000
1000
0001
1000
0000
0001
0000
1001
0000
,  // measure 113
1000
0010
1000
0000
0100
0000
0010
0001
0010
0000
0100
0000
1000
0010
1000
0010
,  // measure 114
0200
0000
1300
0000
0200
0000
0301
0000
0200
0000
0310
0000
0010
1000
0001
0000
,  // measure 115
0010
0001
0010
0000
0100
0000
1000
0010
1000
0000
0100
0000
0010
0001
0010
0001
,  // measure 116
0200
0000
1300
0000
0200
0000
0301
0000
1000
0010
0100
0000
0101
0000
0000
0000
,  // measure 117
0011
0000
0010
0000
0100
0010
0000
0000
0001
0100
0010
0000
1000
0000
0001
0010
,  // measure 118
0200
0000
1300
0000
0020
0000
0130
0000
0001
1000
0100
0000
1000
0001
0100
0000
,  // measure 119
0010
0010
0100
0100
0010
0010
0100
0100
,  // measure 120
0002
0203
2300
3002
0023
2030
3200
0320
,  // measure 121
0032
0000
0000
0000
,  // measure 122
0000
0000
0000
0003
,  // measure 123
0001
0101
1000
1100
,  // measure 124
0001
0000
0011
0001
2000
0000
0000
3010
,  // measure 125
0110
0000
1001
0000
0001
0100
0020
0000
,  // measure 126
1030
0100
0010
0100
1000
0001
0100
0010
,  // measure 127
2000
3001
0002
1003
2000
3001
0002
1003
,  // measure 128
1000
0010
0001
0010
1000
0100
0020
0030
,  // measure 129
0001
0100
0101
0000
1000
0100
1100
0000
,  // measure 130
0001
0010
0012
0000
2003
0000
3010
0000
,  // measure 131
0010
1000
0001
1000
0100
1000
0001
0010
,  // measure 132
0001
1000
0001
0100
0001
1000
0010
1000
,  // measure 133
0200
0300
0000
0000
0000
0000
0000
0000
0200
0300
0000
0000
0000
0000
0000
0000
0001
0000
0000
0000
0000
0000
0000
0000
1000
0000
0000
0000
0000
0000
0000
0000
0020
0030
0000
0000
0000
0000
0000
0000
0020
0030
0000
0000
0000
0000
0000
0000
0001
0000
0000
0000
0000
0000
0000
0000
0100
0000
0000
0000
0000
0000
0000
0000
,  // measure 134
0010
1010
0000
0001
0101
0001
0010
0100
,  // measure 135
2000
0000
0000
0000
0000
0000
0000
0000
3000
0000
0000
0000
0000
0000
0000
0000
1001
0000
0000
0000
0000
0000
0000
0000
0000
0000
0000
0000
0000
0000
0000
0000
0001
0000
0000
0000
0000
0000
0000
0000
0200
0300
0000
0000
0000
0000
0000
0000
0200
0300
0000
0000
0000
0000
0000
0000
1000
0000
0000
0000
0000
0000
0000
0000
,  // measure 136
0001
0000
0000
0000
0000
0000
0000
0000
0020
0030
0000
0000
0000
0000
0000
0000
0020
0030
0000
0000
0000
0000
0000
0000
1000
0000
0000
0000
0000
0000
0000
0000
0100
0000
0000
0000
0000
0000
0000
0000
0010
0000
0000
0000
0000
0000
0000
0000
0002
0000
0000
0000
0000
0000
0000
0000
0003
0000
0000
0000
0000
0000
0000
0000
,  // measure 137
1000
0010
1010
0000
0001
0010
0011
0000
,  // measure 138
1000
0100
1100
0001
0201
0000
0310
0000
,  // measure 139
0010
1000
0010
0001
0010
0100
0010
0100
,  // measure 140
0010
0001
0010
1000
0010
0010
0010
0100
,  // measure 141
0001
0100
1000
0100
0010
0100
0010
0100
,  // measure 142
0001
0011
0000
1100
0100
1000
0001
0100
,  // measure 143
0010
0001
0010
1000
0010
0100
0010
0100
,  // measure 144
0010
1000
0010
0001
0010
0010
0010
0100
,  // measure 145
0001
1000
1100
0000
1000
0001
0101
0000
,  // measure 146
0001
1000
1010
0001
0022
0003
0130
0000
,  // measure 147
0100
1000
0010
0000
0100
0001
0010
0000
,  // measure 148
0100
1000
0001
0000
0010
0001
1000
0000
,  // measure 149
0M01
1000
0001
1000
0020
0000
0130
0000
,  // measure 150
0100
0001
0100
0001
1000
0010
1000
0000
,  // measure 151
1100
0000
0011
0000
0001
0010
0001
1000
,  // measure 152
0100
1000
0010
0000
0100
0100
0200
0000
,  // measure 153
M310
0100
0001
0000
0100
0010
1000
0000
,  // measure 154
0001
0010
0100
1000
0001
1000
0001
0000
,  // measure 155
2M00
0000
3001
0000
0001
0010
0100
0000
,  // measure 156
1000
0100
0010
0000
0001
1000
0010
0100
,  // measure 157
M001
0010
0001
0010
0002
0000
1003
0000
,  // measure 158
1010
0000
0001
0000
0101
0000
1000
0100
,  // measure 159
002M
0000
0031
0000
0001
0100
0010
0000
,  // measure 160
0001
0010
0100
0000
0010
1000
0100
0010
,  // measure 161
0M01
1000
0001
1000
0020
0000
0130
0000
,  // measure 162
M100
0001
0010
0100
0010
0100
1000
0000
,  // measure 163
2002
0000
0000
0000
,  // measure 164
0000
0000
0000
0000
,  // measure 165
0000
0000
0000
0000
,  // measure 166
0000
0000
0000
0000
,  // measure 167
0000
0000
0000
0000
,  // measure 168
0000
0000
0000
0000
,  // measure 169
0000
0000
0000
0000
,  // measure 170
0000
0000
0000
0000
,  // measure 171
0000
0000
0000
0000
,  // measure 172
0000
0000
0000
0000
,  // measure 173
0000
0000
0000
0000
,  // measure 174
0000
0000
0000
3003
;

//---------------dance-single - ----------------
#NOTEDATA:;
#CHARTNAME:;
#CHARTHASH:1280068410;
#STEPSTYPE:dance-single;
#BANNER:;
#DESCRIPTION:;
#CHARTSTYLE:;
#DIFFICULTY:Challenge;
#METER:16;
#METERF:0.000000;
#LASTSECONDHINT:237.153275;
#RADARVALUES:0.762351,1.055575,0.512400,0.779014,0.570722,1281.000000,1158.000000,123.000000,187.000000,14.000000,0.000000,3.000000,0.000000,0.000000,0.762351,1.055575,0.512400,0.779014,0.570722,1281.000000,1158.000000,123.000000,187.000000,14.000000,0.000000,3.000000,0.000000,0.000000;
#CREDIT:MANSEFU;
#OFFSET:-0.422000;
#BPMS:0.000000=167.979996
,63.000000=180.000000
,388.000000=129.000000
,484.000000=180.000000
,596.000000=200.000000
,612.000000=215.000000
,620.000000=230.000000
,628.000000=249.500000
,636.000000=270.250000
,644.000000=280.000000
,648.000000=299.000000
;
#STOPS:;
#DELAYS:;
#WARPS:;
#TIMESIGNATURES:0.000000=3=4
,63.000000=4=4
,183.000000=3=4
,228.000000=4=4
;
#TICKCOUNTS:0.000000=4
;
#COMBOS:0.000000=1
;
#SPEEDS:0.000000=999.000000=0.000000=0
,1.000000=0.000000=0.000000=0
,1.020833=0.500000=3.979000=0
,30.000000=1.000000=21.000000=0
,51.000000=0.250000=4.000000=0
,59.000000=1.000000=2.000000=0
,219.000000=0.250000=6.000000=0
,225.000000=1.000000=3.000000=0
,419.000000=1.200000=0.125000=0
,419.125000=1.000000=0.875000=0
,484.000000=0.000000=0.000000=0
,484.020844=1.000000=6.979000=0
;
#SCROLLS:0.000000=0.500000
,5.000000=0.000000
,6.000000=0.250000
,6.500000=0.000000
,7.000000=0.250000
,7.500000=0.000000
,8.000000=0.250000
,8.500000=0.000000
,9.000000=0.125000
,12.000000=0.250000
,12.500000=0.000000
,13.000000=0.250000
,13.500000=0.000000
,14.000000=0.250000
,14.500000=0.000000
,15.000000=0.125000
,18.000000=0.250000
,18.500000=0.000000
,19.000000=0.250000
,19.500000=0.000000
,20.000000=0.125000
,21.000000=0.250000
,21.500000=0.000000
,22.000000=0.250000
,22.500000=0.000000
,23.000000=0.250000
,23.500000=0.000000
,24.000000=0.250000
,24.500000=0.000000
,25.000000=0.250000
,25.500000=0.000000
,26.000000=0.125000
,27.000000=0.250000
,27.500000=0.000000
,28.000000=0.250000
,28.500000=0.000000
,29.000000=0.125000
,30.000000=1.000000
,55.000000=0.000000
,59.000000=1.000000
,61.000000=2.000000
,61.208332=1.800000
,61.395832=1.600000
,61.604168=1.400000
,61.791668=1.200000
,62.000000=1.000000
,181.000000=0.900000
,181.333328=0.800000
,181.666672=0.700000
,182.000000=0.600000
,182.333328=0.500000
,183.000000=0.000000
,185.000000=0.500000
,225.000000=0.600000
,225.333328=0.700000
,225.666672=0.800000
,226.000000=0.900000
,226.333328=1.000000
,393.000000=2.000000
,393.125000=0.000000
,393.250000=2.000000
,393.375000=0.000000
,393.500000=2.000000
,393.625000=0.000000
,393.750000=2.000000
,393.875000=0.000000
,394.000000=1.000000
,401.000000=2.000000
,401.125000=0.000000
,401.250000=2.000000
,401.375000=0.000000
,401.500000=2.000000
,401.625000=0.000000
,401.750000=2.000000
,401.875000=0.000000
,402.000000=1.000000
,409.000000=2.000000
,409.125000=0.000000
,409.250000=2.000000
,409.375000=0.000000
,409.500000=2.000000
,409.625000=0.000000
,409.750000=2.000000
,409.875000=0.000000
,410.000000=1.000000
,418.500000=2.000000
,418.625000=0.000000
,418.750000=2.000000
,418.875000=0.000000
,419.000000=1.000000
,427.000000=2.000000
,427.125000=0.000000
,427.250000=2.000000
,427.375000=0.000000
,427.500000=2.000000
,427.625000=0.000000
,427.750000=2.000000
,427.875000=0.000000
,428.000000=1.000000
,434.000000=2.000000
,434.125000=0.000000
,434.250000=2.000000
,434.375000=0.000000
,434.500000=2.000000
,434.625000=0.000000
,434.750000=1.000000
,450.000000=2.000000
,450.125000=0.000000
,450.250000=2.000000
,450.375000=0.000000
,450.500000=2.000000
,450.625000=0.000000
,450.750000=1.000000
,455.000000=2.000000
,455.125000=0.000000
,455.250000=2.000000
,455.375000=0.000000
,455.500000=2.000000
,455.625000=0.000000
,455.750000=2.000000
,455.875000=0.000000
,456.000000=1.000000
,459.000000=2.000000
,459.125000=0.000000
,459.250000=2.000000
,459.375000=0.000000
,459.500000=2.000000
,459.625000=0.000000
,459.750000=2.000000
,459.875000=0.000000
,460.000000=1.000000
,463.000000=2.000000
,463.125000=0.000000
,463.250000=2.000000
,463.375000=0.000000
,463.500000=2.000000
,463.625000=0.000000
,463.750000=2.000000
,463.875000=0.000000
,464.000000=1.000000
,466.000000=2.000000
,466.125000=0.000000
,466.250000=2.000000
,466.375000=0.000000
,466.500000=2.000000
,466.625000=0.000000
,466.750000=2.000000
,466.875000=0.000000
,467.000000=1.000000
,491.000000=0.000000
,491.500000=1.000000
,652.500000=1.031250
,653.000000=1.062500
,653.500000=1.093750
,654.000000=1.125000
,654.500000=1.156250
,655.000000=1.187500
,655.500000=1.218750
,656.000000=1.250000
,656.500000=1.281250
,657.000000=1.312500
,657.500000=1.343750
,658.000000=1.375000
,658.500000=1.406250
,659.000000=1.437500
,659.500000=1.468750
,660.000000=1.500000
,660.500000=1.531250
,661.000000=1.562500
,661.500000=1.593750
,662.000000=1.625000
,662.500000=1.656250
,663.000000=1.687500
,663.500000=1.718750
,664.000000=1.750000
,664.500000=1.781250
,665.000000=1.812500
,665.500000=1.843750
,666.000000=1.875000
,666.500000=1.906250
,667.000000=1.937500
,667.500000=1.968750
,668.000000=2.000000
,668.250000=1.935484
,668.500000=1.870968
,668.750000=1.806452
,669.000000=1.741935
,669.250000=1.677419
,669.500000=1.612903
,669.750000=1.548387
,670.000000=1.483871
,670.250000=1.419355
,670.500000=1.354839
,670.750000=1.290323
,671.000000=1.225806
,671.250000=1.161290
,671.500000=1.096774
,671.750000=1.032258
,672.000000=0.967742
,672.250000=0.903226
,672.500000=0.838710
,672.750000=0.774194
,673.000000=0.709677
,673.250000=0.645161
,673.500000=0.580645
,673.750000=0.516129
,674.000000=0.451613
,674.250000=0.387097
,674.500000=0.322581
,674.750000=0.258065
,675.000000=0.193548
,675.250000=0.129032
,675.500000=0.064516
,675.750000=0.000000
,677.500000=-0.100000
,677.666687=-0.200000
,677.833313=-0.300000
,678.000000=-0.400000
,678.166687=-0.500000
,678.333313=-0.600000
,678.500000=-0.700000
,678.666687=-0.600000
,678.833313=-0.500000
,679.000000=-0.400000
,679.166687=-0.300000
,679.333313=-0.200000
,679.500000=-0.100000
,679.666687=0.000000
,680.750000=0.100000
,680.916687=0.200000
,681.083313=0.300000
,681.250000=0.200000
,681.416687=0.100000
,681.583313=0.000000
,682.000000=-0.100000
,682.166687=-0.200000
,682.333313=-0.300000
,682.500000=-0.400000
,682.666687=-0.500000
,682.833313=-0.600000
,683.000000=-0.500000
,683.166687=-0.400000
,683.333313=-0.300000
,683.500000=-0.200000
,683.666687=-0.100000
,683.833313=0.000000
,685.000000=0.100000
,685.208313=0.200000
,685.395813=0.300000
,685.604187=0.200000
,685.791687=0.100000
,686.000000=0.000000
,687.000000=-0.100000
,687.166687=-0.200000
,687.333313=-0.300000
,687.500000=-0.400000
,687.666687=-0.500000
,687.833313=-0.600000
,688.000000=-0.700000
,688.166687=-0.600000
,688.333313=-0.500000
,688.500000=-0.400000
,688.666687=-0.300000
,688.833313=-0.200000
,689.000000=-0.100000
,689.166687=0.000000
,690.000000=0.100000
,690.166687=0.200000
,690.333313=0.300000
,690.500000=0.400000
,690.666687=0.500000
,690.833313=0.600000
,691.000000=0.700000
,691.166687=0.600000
,691.333313=0.500000
,691.500000=0.400000
,691.666687=0.300000
,691.833313=0.200000
,692.000000=0.100000
,692.166687=0.000000
,693.000000=-0.100000
,693.208313=-0.200000
,693.395813=-0.300000
,693.604187=-0.200000
,693.791687=-0.100000
,694.000000=0.000000
,695.500000=0.100000
,695.666687=0.200000
,695.833313=0.300000
,696.000000=0.400000
,696.166687=0.500000
,696.333313=0.600000
,696.500000=0.700000
,696.666687=0.800000
,696.833313=0.900000
,697.000000=1.000000
;
#FAKES:;
#LABELS:0.000000=Song Start
,30.000000=YOSEFU's Part
,316.000000=MANA's Part
;
#NOTES:
// measure 0
0000
0000
0000
0000
,  // measure 1
0000
0000
0000
0000
,  // measure 2
0000
0000
0000
0000
,  // measure 3
0000
0000
0000
0000
,  // measure 4
0000
0000
0000
0000
,  // measure 5
0000
0000
0000
0000
,  // measure 6
0000
0000
0000
0000
,  // measure 7
0000
0000
1000
0010
,  // measure 8
0010
0000
0100
0001
0010
0100
0010
0001
,  // measure 9
0100
0000
0010
0000
1000
0000
0001
0010
,  // measure 10
0100
1000
0010
0000
0100
0000
0001
0000
,  // measure 11
1000
0100
0010
0000
1000
0000
0010
0000
,  // measure 12
0001
0000
0001
0000
0001
1000
0002
0000
,  // measure 13
0000
0000
0000
0003
,  // measure 14
0000
0000
0000
MMM0
,  // measure 15
0000
0000
0000
0000
2002
0000
0000
0000
3003
0000
0000
0000
1001
0000
0001
0100
,  // measure 16
0010
0000
0000
0000
1010
0000
1000
0001
0010
0000
0000
0000
0100
1000
0100
1000
,  // measure 17
0001
0000
0100
0000
0010
0000
1000
0001
0010
0000
0000
0000
0100
0000
1000
0000
,  // measure 18
0100
0010
0100
1000
0010
0100
0001
0010
,  // measure 19
0100
0000
0010
0000
0001
0000
1000
0000
0010
0000
0100
0000
0001
0000
1000
0100
,  // measure 20
1000
0100
0010
0000
0001
1000
0010
0000
0100
0001
1000
0000
0100
0010
0001
0000
,  // measure 21
0000
0000
1010
0000
0000
0000
1000
0100
0010
0000
0001
1000
0010
0000
0100
0000
,  // measure 22
0010
1000
0010
0100
0001
0010
0100
1000
,  // measure 23
0010
0000
1000
0000
0100
0000
0010
0000
0001
0000
1000
0010
0100
0000
0001
0000
,  // measure 24
0101
0000
0000
0000
1000
0000
0100
0000
1100
0000
0000
0000
1001
0000
0000
0101
,  // measure 25
0000
0001
1001
1000
0100
0000
0010
0000
,  // measure 26
0001
0000
1000
0000
0001
0000
0010
0100
,  // measure 27
0010
0000
0100
0000
1000
0000
0010
0000
1000
0000
0010
0100
0001
0000
0100
0010
,  // measure 28
1000
0000
0001
0010
0100
0000
1000
0010
0100
0000
0000
0000
0001
0000
1000
0100
,  // measure 29
0010
0000
0001
1000
0020
0000
0000
0000
0030
0000
0000
0000
0100
0000
0001
0000
,  // measure 30
0001
0000
0001
0000
0010
0000
0000
0100
0000
0000
1000
0000
0000
0000
0001
0000
,  // measure 31
0100
0100
0010
0010
1000
0001
0000
0010
,  // measure 32
0010
0000
0100
0000
1000
0000
0000
0001
0000
0000
0100
0000
0010
0000
0000
1000
,  // measure 33
0002
0000
0000
0000
0013
0000
0000
0100
0000
0000
1000
0000
1001
0000
0001
0000
,  // measure 34
0100
0010
1000
1000
0000
0100
0010
0001
,  // measure 35
0010
0000
0000
0000
0000
0000
0000
0000
0100
0000
0000
0000
0000
0000
0000
0000
1000
0000
0000
0000
0000
0000
0000
0000
0000
0000
0000
0000
0000
0000
0000
0000
0001
0000
0000
0000
0000
0000
0000
0000
0000
0000
0000
0000
0000
0000
0000
0000
0100
0000
0000
0000
0000
0000
0000
0000
0001
0000
0000
0000
0200
0300
0000
0000
,  // measure 36
0000
0000
0000
0000
0200
0300
0000
0000
1000
0000
0000
0000
0000
0000
0000
0000
0100
0000
0000
0000
0000
0000
0000
0000
0100
0000
0000
0000
0000
0000
0000
0000
0010
0000
0000
0000
0000
0000
0000
0000
0001
0000
0000
0000
1000
0000
0000
0000
0010
0000
0000
0000
0000
0000
0000
0000
0010
0000
0000
0000
0000
0000
0000
0000
,  // measure 37
0001
0010
0200
0000
0300
0000
0201
0000
,  // measure 38
0310
0000
0000
0000
0000
0000
0000
0000
1000
0000
0000
0000
0001
0000
0000
0000
0010
0000
0000
0000
0000
0000
0000
0000
0001
0000
0000
0000
0200
0300
0000
0000
0000
0000
0000
0000
0200
0300
0000
0000
1000
0000
0000
0000
0000
0000
0000
0000
0001
0000
0000
0000
0000
0000
0000
0000
0100
0000
0000
0000
0010
0000
0000
0000
,  // measure 39
1000
0001
0010
0010
0100
1000
0010
0100
,  // measure 40
1000
0100
0001
0001
0010
0010
0200
0000
,  // measure 41
0001
0000
1300
0000
0001
0100
0010
0100
,  // measure 42
0001
0010
0100
0010
0001
1000
0010
0100
,  // measure 43
0001
0000
0010
0000
0100
0000
1000
0001
0100
0000
0010
1000
0001
0000
0010
0100
,  // measure 44
1000
0000
0001
0000
0100
0000
0010
1000
0001
0000
1000
0000
0001
0100
0001
0000
,  // measure 45
0000
0000
1000
0100
2000
0000
0000
0000
0000
0000
0000
0000
3MMM
0000
0000
0000
,  // measure 46
0000
0000
1000
0010
,  // measure 47
0010
0000
1000
0000
0001
0010
0001
0010
,  // measure 48
0100
1000
1000
0002
,  // measure 49
0000
0000
0000
0000
0103
0010
0100
0010
,  // measure 50
1000
0000
0001
0010
0001
0010
0100
0000
,  // measure 51
2000
0000
0100
3002
,  // measure 52
0000
0000
1003
0010
,  // measure 53
0010
0200
0000
0000
,  // measure 54
0301
0010
0010
0200
,  // measure 55
0000
0000
0000
0000
,  // measure 56
0000
0300
0000
0000
,  // measure 57
2000
0000
0000
3001
0100
0000
0010
0000
1000
0000
0000
0100
0010
0000
0001
1000
,  // measure 58
0020
0000
0030
0100
0020
0000
0030
1000
0020
0000
0030
0100
0001
0000
0010
0100
,  // measure 59
2000
0000
0000
3001
0010
0000
0100
0000
1000
0000
0000
0010
0100
0000
0001
1000
,  // measure 60
0200
0000
0300
0010
0200
0000
0300
1000
0100
0010
0100
0010
0001
1000
0010
0100
,  // measure 61
0001
0000
0000
0101
0000
0000
1001
1000
,  // measure 62
1100
0000
0000
0000
0000
0000
0000
0000
1000
0001
1000
0001
1000
0000
0000
0000
,  // measure 63
1020
0100
0001
0100
,  // measure 64
2030
0000
3100
0010
0001
0000
0100
0010
,  // measure 65
0002
0000
0000
0000
0013
0000
0000
0000
0100
0000
0100
0000
0001
1000
0001
1000
,  // measure 66
0100
0000
0001
0000
0100
0000
1000
0000
0001
0000
0100
0010
1000
0000
0001
0000
,  // measure 67
0201
0000
0010
0000
0301
0001
1000
1000
,  // measure 68
0200
0000
0000
0000
0010
0000
0000
0000
1300
0000
0100
0000
1000
0000
0010
0100
,  // measure 69
0001
0100
0101
0000
1000
0100
1100
0000
,  // measure 70
0011
0000
0000
1001
0000
0000
1000
0000
2020
0000
0000
0000
3030
0000
0000
0000
,  // measure 71
1001
0001
0100
0100
0010
0010
1000
1000
,  // measure 72
0001
0001
0010
0100
2000
0000
3001
0100
,  // measure 73
0010
0000
1000
0001
1000
0001
0010
0000
0100
1000
0001
0000
0100
0010
1000
0000
,  // measure 74
0001
0000
0010
0000
1000
0000
0010
0000
0001
0000
1000
0010
0100
0001
0100
0010
,  // measure 75
1000
0010
0001
0010
2000
0000
3001
0010
,  // measure 76
0100
1000
1010
0000
0001
0010
0011
0000
,  // measure 77
1000
0010
0110
0100
0001
0010
0110
0100
,  // measure 78
1100
0000
0000
1001
0000
0000
0001
0000
0101
0000
0100
0000
0010
1000
0001
0000
,  // measure 79
1001
0000
1000
0100
0020
0000
0000
0000
0031
0000
0001
0100
0020
0000
0000
0000
,  // measure 80
1030
0001
1000
0001
0010
0000
0100
0000
1000
0000
0010
0100
0020
0000
0030
0000
,  // measure 81
1000
0100
0001
0100
1000
0010
0200
0000
,  // measure 82
0301
0010
0100
1000
1002
0000
0103
0000
,  // measure 83
0100
0000
0000
0000
0010
0000
0000
0000
1000
0000
0000
0000
0001
0000
0000
0000
1000
0000
0000
0000
0010
0000
0000
0000
0100
0000
0000
0000
0000
0000
0001
0000
0000
0000
0000
0000
0010
0000
0000
0001
0000
0000
0010
0000
0000
0000
0000
0000
,  // measure 84
0000
0011
0000
1100
2002
0000
3003
0000
,  // measure 85
0001
0100
1000
0100
0001
0010
0100
1000
,  // measure 86
1010
0000
0000
0000
0101
0000
0000
0000
2002
0000
3003
0000
1001
0000
0001
0100
,  // measure 87
0010
1000
1100
0000
1000
0001
0101
0000
,  // measure 88
0110
0000
0000
1010
0000
0000
0101
0000
2002
0000
3003
0000
1001
0000
1000
0100
,  // measure 89
0010
0100
1000
0100
0001
0100
1000
0100
,  // measure 90
0010
0000
0100
0000
1000
0000
0100
0000
0001
0000
0100
0010
0100
0000
0000
0000
,  // measure 91
1000
0010
1000
0000
0001
0010
0001
0000
1000
0100
1000
0000
0001
0100
0001
0000
,  // measure 92
1000
0000
1010
0000
0000
0000
0101
0000
0100
0000
0010
1000
0001
0000
0010
0001
,  // measure 93
1000
0100
0010
0100
0001
0100
1000
0100
,  // measure 94
0010
0100
0001
0100
1000
0100
0020
0000
,  // measure 95
0031
0100
0110
0000
1000
0100
0110
0000
,  // measure 96
0011
0100
0110
1000
1010
0000
0202
0303
,  // measure 97
M101
0000
0000
0000
0101
0000
0000
0000
0011
0000
0000
1010
0000
0000
1100
0000
,  // measure 98
2000
0000
0000
0000
0000
0000
0000
0000
0000
0000
0000
0000
0000
0000
0000
0000
0000
0000
0000
0000
0000
0000
0000
0000
3000
0000
0000
0000
0000
0000
0000
0000
0000
0000
0000
0000
0000
0000
0000
0000
0000
0000
0000
0000
0000
0000
0000
0000
0200
0300
0000
0000
0000
0000
0000
0000
0000
0000
0000
0000
2000
3000
0000
0000
0000
0000
0000
0000
0000
0000
0000
0000
0020
0030
0000
0000
0000
0000
0000
0000
0000
0000
0000
0000
0200
0300
0000
0000
0000
0000
0000
0000
0000
0000
0000
0000
0002
0000
0003
0000
0000
0000
0000
0000
0000
0000
0000
0000
0000
0000
0000
0000
0000
0000
0000
0000
0000
0000
0000
0000
0010
0000
0000
0000
0000
0000
0000
0000
0000
0000
0000
0000
0000
0000
0000
0000
0000
0000
0000
0000
0000
0000
0000
0000
0022
0000
0000
0000
0000
0000
0000
0000
0000
0000
0000
0000
0000
0000
0000
0000
0000
0000
0000
0000
0000
0000
0000
0000
0033
0000
0000
0000
0000
0000
0000
0000
0000
0000
0000
0000
0000
0000
0000
0000
0000
0000
0000
0000
0000
0000
0000
0000
,  // measure 99
1000
0000
0010
0000
0110
0000
0000
0000
1010
0000
0000
0011
0000
0000
1100
0000
,  // measure 100
0101
0000
0000
0000
0000
0000
0000
0000
0000
0000
0000
0000
0000
0000
0000
0000
0000
0000
0000
0000
0000
0000
0000
0000
0001
0000
0000
0000
0000
0000
0000
0000
0000
0000
0000
0000
0000
0000
0000
0000
0000
0000
0000
0000
0000
0000
0000
0000
0020
0030
0000
0000
0000
0000
0000
0000
0000
0000
0000
0000
0002
0003
0000
0000
0000
0000
0000
0000
0000
0000
0000
0000
0200
0300
0000
0000
0000
0000
0000
0000
0000
0000
0000
0000
0020
0030
0000
0000
0000
0000
0000
0000
0000
0000
0000
0000
2000
0000
3000
0000
0000
0000
0000
0000
0000
0000
0000
0000
0000
0000
0000
0000
0000
0000
0000
0000
0000
0000
0000
0000
0010
0000
0000
0000
0000
0000
0000
0000
0000
0000
0000
0000
0000
0000
0000
0000
0000
0000
0000
0000
0000
0000
0000
0000
0110
0000
0000
0000
0000
0000
0000
0000
0000
0000
0000
0000
0000
0000
0000
0000
0000
0000
0000
0000
0000
0000
0000
0000
0000
0000
0000
0000
0000
0000
0000
0000
0000
0000
0000
0000
0000
0000
0000
0000
0000
0000
0000
0000
0000
0000
0000
0000
,  // measure 101
1001
0000
0000
0000
1001
0000
0000
0000
1100
0000
0000
0101
0000
0000
1010
0000
,  // measure 102
0011
0000
0000
0000
0000
0000
0000
0000
0000
0000
0000
0000
0000
0000
0000
0000
0000
0000
0000
0000
0000
0000
0000
0000
0001
0000
0000
0000
0000
0000
0000
0000
0000
0000
0000
0000
0000
0000
0000
0000
0000
0000
0000
0000
0000
0000
0000
0000
2000
3000
0000
0000
0000
0000
0000
0000
0000
0000
0000
0000
0020
0030
0000
0000
0000
0000
0000
0000
0000
0000
0000
0000
0200
0300
0000
0000
0000
0000
0000
0000
0000
0000
0000
0000
0002
0003
0000
0000
0000
0000
0000
0000
0000
0000
0000
0000
0020
0000
0030
0000
0000
0000
0000
0000
0000
0000
0000
0000
0000
0000
0000
0000
0000
0000
0000
0000
0000
0000
0000
0000
0100
0000
0000
0000
0000
0000
0000
0000
0000
0000
0000
0000
0000
0000
0000
0000
0000
0000
0000
0000
0000
0000
0000
0000
1100
0000
0000
0000
0000
0000
0000
0000
0000
0000
0000
0000
0000
0000
0000
0000
0000
0000
0000
0000
0000
0000
0000
0000
0000
0000
0000
0000
0000
0000
0000
0000
0000
0000
0000
0000
0000
0000
0000
0000
0000
0000
0000
0000
0000
0000
0000
0000
,  // measure 103
0001
0010
0100
0010
0100
1000
0001
0100
0010
0000
0000
1010
0000
0000
0011
0000
,  // measure 104
0001
0000
0000
0000
0000
0000
0000
0000
0100
0000
0000
0000
0000
0000
0000
0000
0001
0000
0000
0000
0000
0000
0000
0000
1000
0000
0000
0000
0000
0000
0000
0000
0000
0000
0000
0000
0000
0000
0000
0000
0000
0000
0000
0000
0000
0000
0000
0000
0010
0000
0000
0000
0000
0000
0000
0000
0100
0000
0000
0000
0000
0000
0000
0000
0010
0000
0000
0000
0000
0000
0000
0000
1000
0000
0000
0000
0000
0000
0000
0000
0000
0000
0000
0000
0000
0000
0000
0000
0000
0000
0000
0000
0000
0000
0000
0000
0002
0000
0000
0000
0000
0000
0000
0000
0000
0000
0000
0000
0000
0000
0000
0000
0000
0000
0000
0000
0000
0000
0000
0000
2003
3000
0000
0000
0000
0000
0000
0000
0000
0000
0000
0000
0200
0300
0000
0000
0000
0000
0000
0000
0000
0000
0000
0000
0120
0000
0000
0000
0000
0000
0000
0000
0000
0000
0000
0000
0000
0000
0000
0000
0000
0000
0000
0000
0000
0000
0000
0000
0000
0000
0000
0000
0000
0000
0000
0000
0000
0000
0000
0000
0000
0000
0000
0000
0000
0000
0000
0000
0000
0000
0000
0000
,  // measure 105
0031
0010
0100
0010
1000
0000
0010
0000
0001
0100
0010
0100
1000
0000
0100
0000
,  // measure 106
0002
0000
0000
0000
0000
0000
0000
0000
0000
0000
0000
0000
0000
0000
0000
0000
0000
0000
0000
0000
0000
0000
0000
0000
0010
0000
0000
0000
0000
0000
0000
0000
0000
0000
0000
0000
0000
0000
0000
0000
0000
0000
0000
0000
0000
0000
0000
0000
2003
0000
0000
0000
0000
0000
0000
0000
0000
0000
0000
0000
0000
0000
0000
0000
0000
0000
0000
0000
0000
0000
0000
0000
0010
0000
0000
0000
0000
0000
0000
0000
0000
0000
0000
0000
0000
0000
0000
0000
0000
0000
0000
0000
0000
0000
0000
0000
3200
0000
0000
0000
0000
0000
0000
0000
0000
0000
0000
0000
0000
0000
0000
0000
0000
0000
0000
0000
0000
0000
0000
0000
0010
0000
0000
0000
0000
0000
0000
0000
0000
0000
0000
0000
0000
0000
0000
0000
0000
0000
0000
0000
0000
0000
0000
0000
2300
3000
0000
0000
0000
0000
0000
0000
0000
0000
0000
0000
0002
0003
0000
0000
0000
0000
0000
0000
0000
0000
0000
0000
0200
0300
0000
0000
0000
0000
0000
0000
0000
0000
0000
0000
0200
0300
0000
0000
0000
0000
0000
0000
0000
0000
0000
0000
,  // measure 107
1000
0010
0100
0010
0001
0000
0010
0000
1000
0100
0010
0100
0001
0000
0100
1000
,  // measure 108
0002
0000
0000
0000
0000
0000
0000
0000
0000
0000
0000
0000
0000
0000
0000
0000
0000
0000
0000
0000
0000
0000
0000
0000
0100
0000
0000
0000
0000
0000
0000
0000
0000
0000
0000
0000
0000
0000
0000
0000
0000
0000
0000
0000
0000
0000
0000
0000
2003
0000
0000
0000
0000
0000
0000
0000
0000
0000
0000
0000
0000
0000
0000
0000
0000
0000
0000
0000
0000
0000
0000
0000
0100
0000
0000
0000
0000
0000
0000
0000
0000
0000
0000
0000
0000
0000
0000
0000
0000
0000
0000
0000
0000
0000
0000
0000
3002
0003
0000
0000
0000
0000
0000
0000
0000
0000
0000
0000
0200
0300
0000
0000
0000
0000
0000
0000
0000
0000
0000
0000
0200
0300
0000
0000
0000
0000
0000
0000
0000
0000
0000
0000
0000
0000
0000
0000
0000
0000
0000
0000
0000
0000
0000
0000
1100
0000
0000
0000
0000
0000
0000
0000
0000
0000
0000
0000
0000
0000
0000
0000
0000
0000
0000
0000
0000
0000
0000
0000
0011
0000
0000
0000
0000
0000
0000
0000
0000
0000
0000
0000
0000
0000
0000
0000
0000
0000
0000
0000
0000
0000
0000
0000
,  // measure 109
0001
0000
1000
0100
0010
0001
0000
1000
0010
0001
0010
0000
0110
0000
0100
0001
,  // measure 110
2000
0000
0000
0000
0000
0000
0000
0000
0100
0000
0000
0000
0000
0000
0000
0000
3002
0000
0000
0000
0000
0000
0000
0000
0100
0000
0000
0000
0000
0000
0000
0000
1003
0000
0000
0000
0020
0030
0000
0000
0020
0030
0000
0000
0000
0000
0000
0000
0011
0000
0000
0000
0000
0000
0000
0000
0001
0000
0000
0000
0010
0000
0000
0000
,  // measure 111
0200
0300
0000
0000
0200
0300
0000
0000
0001
0000
0000
0000
1000
0000
0000
0000
0200
0300
0000
0000
0200
0300
0000
0000
0001
0000
0000
0000
0010
0000
0000
0000
0200
0300
0000
0000
0200
0300
0000
0000
0001
0000
0000
0000
0000
0000
0000
0000
0022
0000
0000
0000
0000
0000
0000
0000
0033
0000
0000
0000
0000
0000
0000
0000
,  // measure 112
0002
0000
0000
0000
0000
0000
0000
0000
0000
0000
0000
0000
0000
0000
0000
0000
0000
0000
0000
0000
0000
0000
0000
0000
0100
0000
0000
0000
0000
0000
0000
0000
0000
0000
0000
0000
0000
0000
0000
0000
0000
0000
0000
0000
0000
0000
0000
0000
2003
0000
0000
0000
0000
0000
0000
0000
0000
0000
0000
0000
0000
0000
0000
0000
0000
0000
0000
0000
0000
0000
0000
0000
0100
0000
0000
0000
0000
0000
0000
0000
0000
0000
0000
0000
0000
0000
0000
0000
0000
0000
0000
0000
0000
0000
0000
0000
3002
0003
0000
0000
0000
0000
0000
0000
0000
0000
0000
0000
0020
0030
0000
0000
0000
0000
0000
0000
0000
0000
0000
0000
0020
0030
0000
0000
0000
0000
0000
0000
0000
0000
0000
0000
0000
0000
0000
0000
0000
0000
0000
0000
0000
0000
0000
0000
1010
0000
0000
0000
0000
0000
0000
0000
0000
0000
0000
0000
0000
0000
0000
0000
0000
0000
0000
0000
0000
0000
0000
0000
0101
0000
0000
0000
0000
0000
0000
0000
0000
0000
0000
0000
0000
0000
0000
0000
0000
0000
0000
0000
0000
0000
0000
0000
,  // measure 113
0001
0000
0000
0000
0000
0000
0000
0000
0000
0000
0000
0000
0010
0000
0000
0000
0000
0000
0000
0000
0000
0000
0000
0000
0001
0000
0000
0000
0000
0000
0000
0000
0000
0000
0000
0000
1000
0000
0000
0000
0000
0000
0000
0000
0000
0000
0000
0000
0010
0000
0000
0000
0000
0000
0000
0000
0000
0000
0000
0000
1000
0000
0000
0000
0000
0000
0000
0000
0000
0000
0000
0000
0001
0000
0000
0000
0000
0000
0000
0000
0000
0000
0000
0000
0100
0000
0000
0000
0000
0000
0000
0000
0000
0000
0000
0000
0001
0000
0000
0000
0000
0000
0000
0000
0000
0000
0000
0000
0010
0000
0000
0000
0000
0000
0000
0000
0000
0000
0000
0000
0100
0000
0000
0000
0000
0000
0000
0000
0000
0000
0000
0000
1000
0000
0000
0000
0000
0000
0000
0000
0000
0000
0000
0000
0200
0300
0000
0000
0000
0000
0000
0000
0000
0000
0000
0000
0200
0300
0000
0000
0000
0000
0000
0000
0000
0000
0000
0000
0200
0300
0000
0000
0000
0000
0000
0000
0000
0000
0000
0000
0200
0300
0000
0000
0000
0000
0000
0000
0000
0000
0000
0000
,  // measure 114
0002
0000
0000
0000
0000
0000
0000
0000
0000
0000
0000
0000
0000
0000
0000
0000
0000
0000
0000
0000
0000
0000
0000
0000
0010
0000
0000
0000
0000
0000
0000
0000
0000
0000
0000
0000
0000
0000
0000
0000
0000
0000
0000
0000
0000
0000
0000
0000
2003
0000
0000
0000
0000
0000
0000
0000
0000
0000
0000
0000
0000
0000
0000
0000
0000
0000
0000
0000
0000
0000
0000
0000
0010
0000
0000
0000
0000
0000
0000
0000
0000
0000
0000
0000
0000
0000
0000
0000
0000
0000
0000
0000
0000
0000
0000
0000
3200
0000
0000
0000
0000
0000
0000
0000
0000
0000
0000
0000
0000
0000
0000
0000
0000
0000
0000
0000
0000
0000
0000
0000
0010
0000
0000
0000
0000
0000
0000
0000
0000
0000
0000
0000
0000
0000
0000
0000
0000
0000
0000
0000
0000
0000
0000
0000
2300
3000
0000
0000
0000
0000
0000
0000
0000
0000
0000
0000
0020
0030
0000
0000
0000
0000
0000
0000
0000
0000
0000
0000
0020
0030
0000
0000
0000
0000
0000
0000
0000
0000
0000
0000
0002
0003
0000
0000
0000
0000
0000
0000
0000
0000
0000
0000
,  // measure 115
1000
0000
0000
0000
0000
0000
0000
0000
0000
0000
0000
0000
0100
0000
0000
0000
0000
0000
0000
0000
0000
0000
0000
0000
1000
0000
0000
0000
0000
0000
0000
0000
0000
0000
0000
0000
0001
0000
0000
0000
0000
0000
0000
0000
0000
0000
0000
0000
0100
0000
0000
0000
0000
0000
0000
0000
0000
0000
0000
0000
0001
0000
0000
0000
0000
0000
0000
0000
0000
0000
0000
0000
1000
0000
0000
0000
0000
0000
0000
0000
0000
0000
0000
0000
0010
0000
0000
0000
0000
0000
0000
0000
0000
0000
0000
0000
1000
0000
0000
0000
0000
0000
0000
0000
0000
0000
0000
0000
0100
0000
0000
0000
0000
0000
0000
0000
0000
0000
0000
0000
0010
0000
0000
0000
0000
0000
0000
0000
0000
0000
0000
0000
0001
0000
0000
0000
0000
0000
0000
0000
0000
0000
0000
0000
0020
0030
0000
0000
0000
0000
0000
0000
0000
0000
0000
0000
0020
0030
0000
0000
0000
0000
0000
0000
0000
0000
0000
0000
0020
0030
0000
0000
0000
0000
0000
0000
0000
0000
0000
0000
0020
0030
0000
0000
0000
0000
0000
0000
0000
0000
0000
0000
,  // measure 116
2000
0000
0000
0000
0000
0000
0000
0000
0000
0000
0000
0000
0000
0000
0000
0000
0000
0000
0000
0000
0000
0000
0000
0000
0100
0000
0000
0000
0000
0000
0000
0000
0000
0000
0000
0000
0000
0000
0000
0000
0000
0000
0000
0000
0000
0000
0000
0000
3002
0000
0000
0000
0000
0000
0000
0000
0000
0000
0000
0000
0000
0000
0000
0000
0000
0000
0000
0000
0000
0000
0000
0000
0100
0000
0000
0000
0000
0000
0000
0000
0000
0000
0000
0000
0000
0000
0000
0000
0000
0000
0000
0000
0000
0000
0000
0000
2003
3000
0000
0000
0000
0000
0000
0000
0000
0000
0000
0000
0020
0030
0000
0000
0000
0000
0000
0000
0000
0000
0000
0000
0200
0300
0000
0000
0000
0000
0000
0000
0000
0000
0000
0000
0002
0003
0000
0000
0000
0000
0000
0000
0000
0000
0000
0000
0020
0000
0000
0000
0000
0000
0000
0000
0000
0000
0000
0000
0000
0000
0000
0000
0000
0000
0000
0000
0000
0000
0000
0000
0030
0000
0000
0000
0000
0000
0000
0000
0000
0000
0000
0000
0000
0000
0000
0000
0000
0000
0000
0000
0000
0000
0000
0000
,  // measure 117
0110
0000
0001
1000
0100
0010
0000
0001
0100
0010
1000
0000
1010
0000
0010
1000
,  // measure 118
0200
0000
0000
0000
0000
0000
0000
0000
0010
0000
0000
0000
0000
0000
0000
0000
2300
0000
0000
0000
0000
0000
0000
0000
0010
0000
0000
0000
0000
0000
0000
0000
3200
0300
0000
0000
0200
0300
0000
0000
0001
0000
0000
0000
0200
0300
0000
0000
0200
0300
0000
0000
1000
0000
0000
0000
0200
0300
0000
0000
0200
0300
0000
0000
,  // measure 119
0010
1000
0010
0001
0010
1000
0100
0010
,  // measure 120
0001
0100
1000
0100
0010
0100
0001
0010
0100
1000
0001
1000
0010
0100
0001
1000
,  // measure 121
0002
0000
0000
0000
,  // measure 122
0000
0000
0000
MMM3
,  // measure 123
0001
0100
0120
0000
1000
0000
0001
0000
,  // measure 124
0100
0000
1030
0010
0220
0030
0000
0301
,  // measure 125
0021
0000
1000
0000
0031
0100
0120
0000
,  // measure 126
1030
0000
0010
0000
0001
0000
0010
0000
1000
0000
0100
0010
0001
0000
1000
0100
,  // measure 127
0020
0031
0002
0103
0200
0310
0020
1030
,  // measure 128
2000
0001
0100
3001
0002
0100
2000
3003
,  // measure 129
1000
0010
0100
0001
1000
0000
0000
0000
0001
0010
0100
1000
0001
0000
0000
0000
,  // measure 130
0100
0010
2010
0000
3002
0000
0103
0000
,  // measure 131
0110
0010
1010
0010
0110
0100
0101
0001
,  // measure 132
1001
1000
1100
1000
1001
0001
0022
0033
,  // measure 133
0010
0001
0100
0000
0010
0000
0100
0000
0010
1000
0100
0000
0010
0000
0100
0000
,  // measure 134
0010
0000
0011
0000
0000
0000
1100
0000
1000
0000
0001
1000
0100
0000
1000
0001
,  // measure 135
0020
0030
0110
0000
0200
0010
2300
0010
,  // measure 136
3002
0010
0203
0010
0302
0010
2000
3003
,  // measure 137
1010
0010
0101
0000
0011
1000
1100
0000
,  // measure 138
1001
0100
0110
0010
2001
0000
3020
0030
,  // measure 139
0200
0001
0302
0010
0023
0130
0020
0031
,  // measure 140
0020
0000
0100
0000
0230
0000
1000
0000
2300
0000
0010
0000
3010
1000
0010
1000
,  // measure 141
0200
0010
0320
0100
0230
0001
0320
0001
,  // measure 142
0130
1000
0001
0000
0000
0000
0101
0000
0001
0000
0010
0100
1000
0000
0001
0010
,  // measure 143
0200
1000
2300
0010
3020
0130
0020
1030
,  // measure 144
0002
0000
0000
0000
0000
0000
0000
0000
0010
0000
0000
0000
0000
0000
0000
0000
0023
0000
0000
0000
0000
0000
0000
0000
0100
0000
0000
0000
0000
0000
0000
0000
0230
0000
0000
0000
0000
0000
0000
0000
1300
0000
0000
0000
0001
0000
0000
0000
1000
0000
0000
0000
0020
0030
0000
0000
0000
0000
0000
0000
0020
0030
0000
0000
,  // measure 145
0001
1000
1100
0000
1010
0001
0101
0000
,  // measure 146
1001
1001
0220
0330
2002
3000
1003
0000
,  // measure 147
0001
0000
0100
0000
0010
0000
0100
0000
0001
0010
0100
0000
0010
0000
0001
0100
,  // measure 148
0010
0000
0100
0000
0001
0000
0100
0000
0010
1000
0001
0000
1000
0000
0100
0000
,  // measure 149
M010
0010
0100
0100
0001
0001
0200
0000
,  // measure 150
1300
0000
0000
0000
0000
0000
0000
0000
0001
0000
0000
0000
0200
0300
0000
0000
0000
0000
0000
0000
0200
0300
0000
0000
1000
0000
0000
0000
0000
0000
0000
0000
0001
0000
0000
0000
0010
0000
0000
0000
0100
0000
0000
0000
1000
0000
0000
0000
0010
0000
0000
0000
0000
0000
0000
0000
0000
0000
0000
0000
0000
0000
0000
0000
,  // measure 151
0100
0000
0010
0000
1000
0000
0010
0000
0100
0001
0010
0000
0100
0000
0010
0001
,  // measure 152
0100
0000
0100
0000
0110
0000
0000
0000
0010
1000
0001
0000
0200
0000
0340
0000
,  // measure 153
103M
0000
0100
0000
0010
0000
0004
0000
1003
0010
1000
0010
1000
0000
0004
0000
,  // measure 154
0103
0010
0100
0000
0001
1000
0001
0000
1000
0100
0010
0001
1000
0000
0000
0000
,  // measure 155
1M01
0000
1001
0000
1000
0100
1000
0010
,  // measure 156
0100
0000
0100
0000
0001
0000
0001
0000
1000
0001
1000
0000
0001
0000
0000
0000
,  // measure 157
M100
0010
0100
0010
0002
0000
0013
0000
,  // measure 158
0110
0000
0101
0000
0001
0100
0010
0000
,  // measure 159
1010
0000
1010
0000
1000
0100
1000
0010
,  // measure 160
0100
0000
0110
0000
0010
0100
0001
1000
,  // measure 161
0001
0010
1000
0010
0002
0000
2003
0000
,  // measure 162
3001
0000
0000
0100
0000
0000
0010
0000
0000
1000
0000
0000
0001
0000
1000
0000
0001
0000
1000
0000
0001
0000
1000
0000
,  // measure 163
0002
0000
0000
0000
,  // measure 164
0000
0000
0000
0000
,  // measure 165
0000
0000
0000
0000
,  // measure 166
0000
0000
0000
0000
,  // measure 167
0000
0000
0000
0000
,  // measure 168
0000
0000
0000
0000
,  // measure 169
0000
0000
0000
0000
,  // measure 170
0000
0000
0000
0000
,  // measure 171
0000
0000
0000
0000
,  // measure 172
0000
0000
0000
0000
,  // measure 173
0000
0000
0000
0000
,  // measure 174
0000
0000
0000
0003
;
