#VERSION:0.83;
#TITLE:Gasoline Blood;
#SUBTITLE:(Extended);
#ARTIST:ですワ;
#TITLETRANSLIT:;
#SUBTITLETRANSLIT:;
#ARTISTTRANSLIT:Desu wa;
#GENRE:;
#CREDIT:;
#MUSIC:Gasoline Blood (Extended).ogg;
#BANNER:;
#BACKGROUND:;
#CDTITLE:;
#SAMPLESTART:92.618000;
#SAMPLELENGTH:22.326000;
#SELECTABLE:YES;
#OFFSET:-0.524032;
#BPMS:0.000000=172.000000;
#STOPS:;
#SPEEDS:0.000000=1.000000=0.000000=0;
#SCROLLS:0.000000=1.000000;
#TICKCOUNTS:0.000000=4;
#TIMESIGNATURES:0.000000=4=4;
#COMBOS:0.000000=1;
#DISPLAYBPM:172.000000;
#ORIGIN:;
#PREVIEWVID:;
#JACKET:;
#CDIMAGE:;
#DISCIMAGE:;
#LASTSECONDHINT:0.000000;
#BGCHANGES:;
#FGCHANGES:;

//--------------- dance-single - BR, FS, RH--, XO ----------------
#NOTEDATA:;
#STEPSTYPE:dance-single;
#DESCRIPTION:BR, FS, RH--, XO;
#DIFFICULTY:Challenge;
#METER:18;
#RADARVALUES:0,0,0,0,0;
#CHARTNAME:;
#CHARTSTYLE:;
#CREDIT:kaystar, YOSEFU, & frondal;
#NOTES:
0000
0000
0000
0000
,
0000
0000
0000
0000
,
0000
0000
0000
0000
,
0000
0000
0000
0000
,
0000
0000
0000
0000
,
0000
0000
0000
0000
,
0000
0000
0000
0000
,
0000
0000
0000
0000
,
1000
0000
0000
1000
0000
0000
1000
0000
0200
0000
0000
0000
0310
0000
0000
0000
,
0001
0010
0001
0000
1000
0010
1000
0000
0001
0010
0100
0000
1000
0000
0001
1000
,
0001
0000
0000
0001
0000
0000
0001
0000
0200
0000
0000
0000
0340
0030
0000
0000
,
2002
0000
0000
0000
,
0000
0000
0000
0000
,
3003
0000
0000
0000
,
1000
0000
0001
0000
0010
0000
0001
0100
0020
0000
0000
0000
1030
0000
0100
00M0
,
0100
0001
0010
0100
2000
0001
0000
3001
,
1000
0000
0010
0000
1000
0000
0100
0010
0100
0000
0001
0000
0400
0300
0000
0000
,
1000
0000
0000
0000
0101
0000
1000
0000
0010
0000
0000
1000
0101
0000
0010
0000
,
0001
0000
1000
0000
0010
0000
1000
0100
0020
0000
0000
0000
0031
0000
0100
00M0
,
0100
1000
0010
0100
0002
1000
0000
1003
,
1001
0000
0000
0000
0110
0000
0000
0000
1000
0001
0100
0100
1000
0001
0100
0100
,
2000
0000
0000
0000
3001
0000
1000
0100
0010
0100
0002
0000
0103
0010
0100
0010
,
0001
0000
1000
0000
0010
0000
1000
0100
0020
0000
0100
0000
0031
0000
0100
00M0
,
0100
0000
0000
0000
1000
0000
0000
0000
0010
0000
0100
0000
0000
0001
0000
0000
0010
0000
0000
0000
0011
0000
0000
0000
0000
0000
0000
0000
0001
0000
0000
0000
,
1000
0010
0100
0010
1000
0010
0100
0010
1000
0001
0010
0100
4000
3000
0000
0000
,
0001
0000
0000
0000
1100
0000
0001
0000
1000
0000
0000
0001
1100
0000
0010
0000
,
1000
0000
0001
0000
0010
0000
0001
0100
0020
0000
0100
0000
1030
0000
0100
00M0
,
0100
0000
0000
0000
0001
0000
0000
0000
0010
0000
0100
0000
0000
1000
0000
0000
0010
0000
0000
0000
1010
0000
0000
0000
0000
0000
0000
0000
1000
0000
0000
0000
,
0001
0010
0001
1000
0010
1000
0001
0010
0001
1000
0010
0100
0001
0010
0100
1000
,
0020
0000
0100
0000
0130
0000
2002
0003
,
3001
0000
1000
0100
0010
000M
0010
1000
0001
0000
1000
0010
0100
000M
0100
1000
,
0001
0000
1000
0100
0010
000M
0010
1000
0001
0000
0100
0010
2000
0000
0000
0000
,
3001
0010
0100
0010
0001
0010
0100
0010
0001
1000
0010
0100
0004
0003
1000
0000
,
1200
0000
0000
0000
0310
0001
1000
0000
0010
0100
0010
0100
0001
1000
0100
0010
,
0001
0000
1000
0000
0010
0M00
0010
0000
0001
0000
0100
00M0
0100
0000
1000
0000
,
0010
0M00
0010
0000
0001
0000
0100
00M0
0100
0000
1000
0000
1001
0000
0000
0000
,
0021
0000
0000
0000
0130
0000
1000
0000
0001
0100
0100
1000
0001
0100
0100
1000
,
0002
0000
0000
0000
1003
0000
0001
0100
0010
0100
2000
0000
3100
0010
0100
0010
,
1000
0000
0001
0010
0100
M000
0100
0001
1000
0000
0001
0100
0010
M000
0010
0001
,
1000
0000
0100
0010
0001
1000
0001
1000
0010
0000
0100
0000
0002
0000
0000
0000
,
1003
0100
0010
0001
1000
0010
0100
0001
1000
0100
0010
0001
0400
0300
0010
0000
,
2000
0000
0000
0000
0001
0000
0001
0000
3001
0100
0010
1000
0200
0000
0000
0000
,
0310
0000
0001
0000
0100
00M0
0100
0000
1000
0000
0010
0M00
0010
0000
0001
0000
,
0100
00M0
0100
0000
1000
0000
0010
0M00
0010
0000
0001
0000
1001
0000
0000
0000
,
1000
0010
1000
0001
0010
0001
1000
0010
1000
0001
0010
0100
1000
0010
0100
0001
,
0010
0000
0010
0000
0010
0000
0100
1000
,
2002
0000
0000
0000
,
0000
0000
0000
0000
,
0000
0000
0000
0000
,
0000
0000
0000
0000
0000
0000
3000
0003
,
0001
0000
0010
0000
0100
0000
1000
0000
0010
0000
0000
0010
0000
0000
0100
0000
,
0000
0100
0000
0000
0100
0000
0000
0000
0001
0000
0000
0001
0000
0000
0001
0000
,
1000
0000
0100
0000
0010
0000
0001
0000
0100
0000
0000
0100
0000
0000
0010
0000
,
0000
0010
0000
0000
0010
0000
0000
0000
1000
0000
0001
0000
1010
0000
0000
0000
,
0001
1000
0011
0100
0001
1000
0101
0010
,
0000
0001
0000
0000
1100
0000
0010
0000
1000
0000
0000
0001
1010
0000
0000
0000
,
0001
0000
1000
0000
0011
0000
0100
0000
0001
0000
0000
1000
0101
0000
0010
0000
,
0002
0000
0000
0000
1003
0000
0001
0100
0010
0100
2000
0000
3100
0010
0100
0010
,
1000
0000
0000
0000
1000
0000
0000
0000
0100
0000
0000
0100
0000
0000
0010
0000
,
0001
0000
0000
0000
0001
0000
0000
0000
0100
0000
0000
0100
0000
0000
0010
0000
,
1000
1000
0100
0100
,
0010
0000
0000
0000
0010
0000
0000
0000
0001
1000
0001
0000
0200
0000
0000
0000
,
0301
0000
0100
0000
0001
0000
0100
00M0
0100
0000
1000
0000
0100
0000
1000
0000
,
0001
0000
0010
0000
0001
0000
0010
0M00
0010
0000
1000
0000
0010
0000
1000
0000
,
0001
0000
0001
0000
1000
0000
1000
0000
0001
0010
0001
1000
0010
1000
0001
0010
,
0100
0000
1000
0000
0040
0030
1000
0100
0010
0100
0001
0000
0101
0000
0000
0000
,
2011
0000
0000
0000
3001
0010
0100
1000
0001
0100
0100
0100
0010
0100
0100
0100
,
0001
0100
0100
0100
0010
0100
0100
0100
0001
0000
1000
0000
0100
0000
0010
0000
,
1102
0000
0000
0000
1003
0010
0100
0001
1000
0100
0100
0100
0010
0100
0100
0100
,
1000
0000
0010
0010
0001
0000
0010
0010
1000
0000
0100
0000
0040
0030
0000
0000
,
0001
0000
1000
0000
0010
0M00
0010
0000
0001
0000
0100
0000
0110
0000
0000
0000
,
1000
0100
0110
0000
0001
0100
0110
0000
,
1000
0000
0001
0000
0010
0M00
0010
0000
1000
0000
0100
0000
0110
0000
0000
0000
,
0001
0000
1000
0100
1000
0001
0100
0001
1000
0100
0010
0001
0200
0000
0320
0000
,
1030
0000
0000
0000
0002
0003
2000
3000
0002
0003
2000
3000
0002
0003
2000
3000
,
0002
0003
2000
3000
0002
0003
1000
0010
0100
0001
1000
0000
0200
0300
0000
0000
,
1012
0000
0000
0000
1003
0100
0010
0001
1000
0010
0010
0010
0100
0010
0010
0010
,
1000
0000
0100
0100
0001
0000
0100
0100
1000
0000
0010
0000
0400
0300
0000
0000
,
0001
0000
1000
0000
0010
0M00
0010
0000
0001
0000
0100
00M0
0100
0000
1000
0000
,
0001
0100
0010
0000
0100
M000
0100
0000
1000
0100
0010
0000
0100
000M
0100
0000
,
0001
1000
0010
1000
0010
0100
0001
0100
0001
1000
0100
0010
0001
0100
0010
1000
,
0200
0000
0010
0010
0310
0000
2002
0003
,
3000
0001
0000
0001
,
0000
1000
0000
1000
,
0001
0000
0010
0000
0001
0000
0100
0010
0100
0000
1000
0000
0400
0300
0000
0000
,
0001
0000
0000
0000
1000
0010
1000
0000
0200
0300
0000
0200
0300
0000
0020
0030
,
0001
0000
1000
0000
0010
0000
1000
0100
0020
0000
0100
0000
0031
0000
0100
00M0
,
0100
0000
0000
0000
1000
0000
0000
0000
0010
0000
0100
0000
0000
0001
0000
0000
0010
0000
0000
0000
0001
0000
0000
0000
0100
0000
0000
0000
0100
0000
0000
0000
,
0001
0010
0001
1000
0010
1000
0001
0010
0001
1000
0010
0100
0001
0010
0100
1000
,
0020
0000
0000
0030
,
1002
0000
0000
0100
0000
0000
2003
0000
0101
0000
0000
3010
0000
0000
0020
0030
,
0100
0001
0100
00M0
0100
1000
0100
00M0
0100
0001
0010
0100
1000
0000
0001
0000
,
0001
0100
0010
0100
0001
0010
0001
0100
0010
1000
0001
0010
0400
0300
1000
0000
,
0020
0000
0030
0000
0010
0100
0001
0000
1000
0100
0010
0001
0100
0010
1000
0000
,
2001
0000
0000
0100
0000
0000
3002
0000
1100
0000
0000
0013
0000
0000
0020
0030
,
0100
1000
0100
00M0
0100
0001
0100
00M0
0100
1000
0010
0100
0001
0000
1000
0000
,
1000
0010
0100
0010
1000
0100
1000
0010
0100
0001
0010
0100
4000
3000
0010
0000
,
0001
0000
0000
0000
0020
0000
0030
1000
0100
0010
1000
0000
0010
0100
1000
0010
,
1100
0000
0000
1100
0001
0000
1100
0000
0010
0000
1000
0100
0020
0000
0100
0000
,
0031
0000
1000
0000
0001
0000
0000
0000
0001
0000
0000
0000
0010
0000
0000
0000
0100
0000
1000
0000
0000
0001
0000
0000
0100
0000
0000
0000
0001
0000
0010
0000
,
0101
0000
0000
0101
1000
0000
0101
0000
0010
0000
0001
0100
0040
0030
0100
0000
,
0002
0000
0000
0000
0013
0200
0310
0000
0001
1000
0001
0100
0010
0100
0001
0000
,
1010
0000
0000
1010
0001
0000
1010
0000
0100
0000
1000
0010
0200
0000
0010
0000
,
0301
0000
1000
0000
0001
0000
0000
0000
0001
0000
0000
0000
0100
0000
0000
0000
0010
0000
1000
0000
0000
0001
0000
0000
0010
0000
0000
0000
0001
0000
0100
0000
,
0011
0000
0000
0011
1000
0000
0011
0000
0100
0000
0001
0010
0400
0300
1000
0000
,
2000
0000
0000
0011
,
3001
0000
0000
1000
0001
0000
0010
0000
0001
0000
0000
1000
0001
0000
0100
0000
,
0001
0000
0000
1000
0001
0000
0010
0000
0001
0000
0000
0001
0100
0000
0010
0000
,
1000
0000
0000
0001
1000
0000
0100
0000
1000
0000
0000
0001
1000
0000
0010
0000
,
0110
0000
0000
0000
0100
0000
0000
0000
0001
0100
0010
1000
0200
0000
0000
0000
,
1300
0000
0001
0010
0001
0000
0100
0000
0001
0000
1000
0010
1000
0000
0100
0000
,
1000
0000
0001
0100
0010
0000
1000
0000
0001
0000
1000
0100
0010
0000
0001
0000
,
0100
0000
0100
0000
0010
0000
0010
0000
1000
0001
0010
0100
1000
0010
0100
0001
,
1000
0000
0010
0000
0400
0301
0010
0001
0100
0010
0001
0000
0011
0000
0000
0000
,
1001
0000
1000
0001
0010
0020
1000
0000
0100
0000
1030
0001
0010
0000
0100
0000
,
1000
0000
0001
1000
0010
0020
0001
0000
0100
0000
0031
0100
0000
0010
1000
0000
,
1001
0000
0001
1000
0100
0200
0001
0000
0010
0000
0301
1000
0100
0000
0010
0000
,
0001
0000
1000
0001
0100
0200
1000
0000
0010
0000
1300
0010
0400
0301
1000
0000
,
1001
0000
0000
0001
0010
0M00
0010
0000
1100
0000
0001
1010
0000
0001
1100
0000
,
0001
0000
0000
1000
0010
0M00
0010
0000
0101
0000
1000
0011
1000
0000
0101
0000
,
1000
0000
0001
0000
0100
0010
0100
0000
0001
0000
1000
0000
1000
0000
0100
0010
,
0101
0000
1000
0001
0010
0010
1000
0000
0100
0010
0100
0000
1000
0001
1000
0000
,
0011
0000
0000
0000
2000
3000
0002
0003
2000
3000
0002
0003
2000
3000
0002
0003
,
2000
3000
0002
0003
2000
3000
0002
0003
0010
0001
0100
0010
1000
0001
0000
1000
,
0101
0000
1000
0010
0100
0200
1000
0000
0010
0000
1300
0001
1000
0000
0010
0000
,
0100
0000
0001
0010
0100
0200
0001
0000
0010
0000
0301
0010
0400
1300
0001
0000
,
1001
0000
1000
0010
0100
000M
0100
0000
1010
0000
0001
1100
0000
0001
1010
0000
,
0001
0010
0100
M000
0100
0010
1000
0000
0101
0000
1000
0011
1000
0000
0101
0000
,
1000
0010
0100
0001
1000
0100
0010
0001
1000
0010
1000
0100
0010
0001
0100
0001
,
1000
0000
0000
0000
1000
0000
0001
0000
1000
0010
0100
0001
0020
0000
1000
0000
,
0131
0000
0000
0000
;
