#VERSION:0.83;
#TITLE:Fuck Around;
#SUBTITLE:;
#ARTIST:Barely Alive;
#TITLETRANSLIT:;
#SUBTITLETRANSLIT:;
#ARTISTTRANSLIT:;
#GENRE:Riddim;
#CREDIT:;
#MUSIC:Fuck Around.ogg;
#BANNER:Fuck Around-bn.png;
#BACKGROUND:Fuck Around-bg.png;
#CDTITLE:yosefu-cdtitle-v3.png;
#SAMPLESTART:79.385000;
#SAMPLELENGTH:18.461000;
#SELECTABLE:YES;
#OFFSET:0.009000;
#BPMS:0.000000=130.000000;
#STOPS:;
#SPEEDS:0.000000=1.000000=0.000000=0;
#SCROLLS:0.000000=1.000000;
#TICKCOUNTS:0.000000=4;
#TIMESIGNATURES:0.000000=4=4;
#LABELS:0.000000=Song Start;
#COMBOS:0.000000=1;
#ORIGIN:Feel The Panic (2022 EP);
#TAGS:;
#PREVIEWVID:;
#JACKET:Fuck Around-jk.png;
#CDIMAGE:;
#DISCIMAGE:;
#BGCHANGES:;
#FGCHANGES:;

//--------------- dance-single - JU, RH- ----------------
#NOTEDATA:;
#STEPSTYPE:dance-single;
#DESCRIPTION:JU, RH-;
#DIFFICULTY:Hard;
#METER:12;
#RADARVALUES:0.355624,0.526398,0.247784,0.484044,0.204566,432,389,43,84,0,0,0,0,0,0.355624,0.526398,0.247784,0.484044,0.204566,432,389,43,84,0,0,0,0,0;
#CHARTNAME:Chart That Helps You Fuck Around;
#CHARTHASH:4001542579;
#BANNER:;
#CHARTSTYLE:;
#METERF:0.000000;
#LASTSECONDHINT:160.615372;
#CREDIT:YOSEFU Finds Out;
#NOTES:
0000
0000
0000
0000
,
0000
0000
0000
0000
,
0000
0000
0000
0000
,
0000
0000
0000
0000
,
1000
0002
0000
0000
0000
0000
0000
0000
,
0000
0000
0000
0000
0000
0000
0000
0103
,
0020
0000
0000
0000
0000
0000
0000
0032
,
0023
0000
2030
0000
,
3100
0020
0000
0000
0000
0000
0000
0000
,
0000
0000
0000
0000
,
0000
0000
0000
0000
,
0000
0000
0000
0000
,
0031
0200
0000
0000
0000
0000
0000
0000
,
0000
0000
0000
0302
,
0023
0000
0000
0000
0000
0000
0000
0230
,
0302
0000
0203
2300
,
3001
0200
0000
0000
0000
0000
0000
0000
,
0000
0000
0000
0000
,
0000
0000
0000
0000
,
0000
0000
0000
0000
,
0302
0000
0000
0023
0230
0000
2300
0000
,
3002
0000
0203
0000
0320
0000
0230
0302
,
2003
0000
0000
3020
2030
0000
3200
0000
,
0320
0000
0032
0000
0203
0000
0320
2030
,
3002
0023
0230
0320
0032
0203
0320
2030
,
3002
0023
0230
0320
0032
0000
0000
0203
,
0320
0000
0032
0000
0023
0000
0000
2030
,
3002
0000
0023
0000
,
0230
0300
1000
0000
0001
0000
0100
0000
,
0020
0030
1000
0000
0001
0000
0010
0000
,
0200
0300
0010
0000
0001
0000
1000
0000
,
0020
0030
0100
0000
0001
0000
1000
0000
,
0200
0300
0010
0000
0001
0000
0100
0000
,
0020
0030
1000
0000
0001
0000
1000
0000
,
0200
0300
0010
0000
0001
0000
1000
0000
,
0010
0000
0200
0300
,
0101
0001
1000
0100
,
0110
0010
0001
1000
,
1010
0010
0100
0001
,
1001
1000
0100
0010
,
0011
0000
0001
0000
1000
0000
1010
0000
0010
0000
0100
0000
,
0101
0000
0001
0000
1000
0000
1100
0000
0100
0000
0010
0000
,
0001
1000
0001
1000
0001
1000
0001
0000
0100
0000
0010
0000
,
1010
0000
2000
3000
,
0200
0000
2300
0000
3020
0000
0130
0001
,
1000
0000
0001
0000
0011
0000
0010
0100
,
1000
0000
0001
0000
0101
0000
0100
0010
,
1000
0100
0010
0001
0011
0001
1000
0010
,
0110
0000
0100
0001
0011
0000
0010
0100
,
1000
0001
0100
0010
0110
0010
0100
0001
,
1000
0100
0010
0100
0110
0100
0010
0100
,
1000
0010
0100
0001
0101
0001
1000
0100
,
0010
0001
1001
0000
1000
1100
0000
0000
,
0000
0000
1000
0100
0110
0100
1000
0010
,
0100
0010
1000
0001
1001
0001
0010
0100
,
1000
0100
0010
0001
0011
0001
1000
0010
,
0110
0000
0100
0001
0011
0000
0010
0100
,
1000
0010
0110
0010
1000
0100
0010
0001
,
1000
0010
0100
0010
1010
0010
0100
0001
,
1000
0100
0010
0001
1001
0001
0100
0010
,
1010
1000
0001
0010
,
0110
0100
1000
0001
,
1001
1000
0010
0100
,
0101
0001
0010
0100
,
1100
0000
1000
0000
0001
0000
0101
0000
0100
0000
0010
0000
,
1010
0000
1000
0000
0100
0000
0110
0000
0010
0000
0001
0000
,
1001
0000
1000
0000
0010
0000
0100
0001
0100
0001
0100
0001
,
2000
0000
0000
3000
,
0200
0000
2300
0000
3020
0000
0130
0001
,
1000
0000
0000
0000
0000
0000
0100
0000
0000
0000
0000
0000
1000
0000
0000
0000
0000
0010
0000
0000
0000
0000
0000
0000
1000
0000
0000
0000
0000
0000
0000
0000
0000
0100
0000
0000
0000
0000
0000
0000
0000
0010
0000
0000
0000
0000
0000
0000
,
0001
0000
0000
0000
0000
0000
0000
0000
1000
0000
0000
0000
0000
0100
0000
0000
0000
0000
0000
0000
1000
0000
0000
0000
0000
0000
0001
0000
0000
0000
0000
0000
0100
0000
0000
0000
0000
0000
0000
0000
0000
0000
0000
0000
0010
0000
0000
0000
0000
0000
0000
0000
0000
0000
1000
0000
0000
0000
0000
0000
0000
0000
0000
0000
,
0001
0010
0001
0100
0210
0000
0000
0000
,
0301
0000
0010
0001
0101
0000
0100
0001
,
0020
0000
0000
0000
0030
0000
0000
0000
0001
0000
0000
0000
0000
0000
0000
0000
0010
0000
0000
0000
0000
0000
0000
0100
0000
0000
0000
0000
0000
0000
0000
0000
1000
0000
0000
0000
0000
0000
0000
0000
0000
0000
0000
0000
0001
0000
0000
0000
0100
0000
0000
0000
0000
0000
0010
0000
0000
0000
0000
0000
0000
0000
0000
0000
,
2000
0000
0000
0000
0000
0000
0000
0000
0000
0000
0000
0000
3000
0000
0000
0000
0000
0000
0000
0000
0000
0010
0000
0000
0000
0000
0000
0000
0000
0000
0000
0000
0000
0000
0000
0000
0000
0000
1000
0000
0000
0000
0000
0000
0000
0000
0000
0000
0000
0000
0000
0000
0000
0000
0000
0000
0000
0000
0001
0000
0000
0000
0000
0000
0000
0000
0000
0000
0000
0000
0000
0000
0000
0000
0000
0000
0000
0000
0010
0000
0000
0000
0000
0000
0000
0000
0000
0000
0000
0000
0000
0000
0000
0000
0000
0000
0100
0000
0000
0000
0000
0000
0000
0000
0000
0000
0000
0000
0000
0000
0000
0000
0000
0000
0000
0000
0000
0000
0000
0000
0000
0000
0000
0000
0000
0000
0000
0000
0000
0000
0000
0000
1000
0000
0000
0000
0000
0000
0000
0000
0000
0000
0000
0000
0001
0000
0000
0000
0000
0000
0000
0000
0000
0000
0000
0000
0000
0000
0000
0000
0000
0000
0100
0000
0000
0000
0000
0000
0000
0000
0000
0000
0000
0000
0000
0000
0000
0000
0000
0000
0000
0000
0000
0000
0000
0000
0000
0000
0000
0000
0000
0000
,
0002
0003
0010
0000
0100
0000
1000
0000
2100
0000
0000
0000
0000
0000
0000
0000
,
3010
0000
2010
0000
3001
0020
0000
0000
,
0130
0000
1000
0000
0001
0000
1000
0010
1000
0000
0010
0000
0100
0000
0001
0000
,
1000
0000
0000
0000
0000
0000
0100
0000
0000
0010
0000
0000
0100
0000
0000
0000
0000
0000
1000
0000
0000
0000
0000
0000
0001
0000
0000
0000
0100
0000
0000
0000
0001
0000
0000
0000
0100
0000
0000
0000
0000
0000
0001
0000
0000
0000
0000
0000
,
1000
0000
0001
0010
0001
0000
1000
0000
2010
0000
0000
0000
0001
0000
0000
0000
,
3100
0000
0010
0001
0102
0000
0013
0100
,
2000
0000
0000
3000
0000
0000
0000
0000
0000
0000
0000
0000
0000
0000
0000
0000
0000
0000
0000
0001
0000
0000
0000
0000
0000
0000
0000
0000
0000
0000
0000
0000
0000
0010
0000
0000
0000
0000
0000
0000
0000
0000
0000
0000
0000
0000
0000
0000
0001
0000
0000
0000
0000
0000
0000
0000
0000
0000
0000
0000
0000
0000
0000
0000
0000
0000
0000
0000
0000
1000
0000
0000
0000
0000
0000
0000
0000
0000
0000
0000
0000
0000
0000
0000
0000
0000
0000
0000
0000
0000
0000
0000
0000
0000
0000
0000
0020
0000
0000
0000
0000
0000
0030
0000
0000
0000
0000
0000
0000
0000
0000
0000
0000
0000
0000
0000
0000
0000
0000
0000
0000
0000
0000
0000
0000
0000
0000
0000
0000
0000
0000
0000
0100
0000
0000
0000
0000
0000
0000
0000
0000
0000
0000
0000
0001
0000
0000
0000
0000
0000
0000
0000
0000
0000
0000
0000
0000
0000
0000
0000
0000
0000
1000
0000
0000
0000
0000
0000
0000
0000
0000
0000
0000
0000
0000
0000
0000
0000
0000
0000
0000
0000
0000
0000
0000
0000
0000
0000
0000
0000
0000
0000
,
0200
0000
0000
0000
0000
0000
0000
0000
0000
0300
0000
0000
0000
0000
0000
0000
0000
0010
0000
0000
0000
0000
0000
0000
0000
0000
0000
0000
0000
0000
0000
0000
0001
0000
0000
0000
0000
0000
0000
0000
0000
0000
0000
0000
0000
0000
0000
0000
1000
0000
0000
0000
0000
0000
0000
0000
0000
0000
0000
0000
0000
0000
0000
0000
0000
0000
0000
0000
0010
0000
0000
0000
0000
0000
0000
0000
0000
0000
0000
0000
0100
0000
0000
0000
0000
0000
0000
0000
0000
0000
0000
0000
0000
0000
0000
0000
0002
0000
0000
0000
0000
0000
0000
0000
0000
0000
0000
0000
0003
0000
0000
0000
0000
0000
0000
0000
0000
0000
0000
0000
0000
0000
0000
0000
0000
0000
0000
0000
0000
0000
0000
0000
1000
0000
0000
0000
0000
0000
0000
0000
0000
0000
0000
0000
0010
0000
0000
0000
0000
0000
0000
0000
0000
0000
0000
0000
0000
0000
0000
0000
0000
0000
1000
0000
0000
0000
0000
0000
0000
0000
0000
0000
0000
0000
0000
0000
0000
0000
0000
0000
0000
0000
0000
0000
0000
0000
0000
0000
0000
0000
0000
0000
,
0200
0000
0000
0000
0000
0000
0000
0000
0000
0000
0000
0000
0000
0000
0000
0300
0000
0010
0000
0000
0000
0000
0000
0000
0000
0000
0000
0000
0000
0000
0000
0000
0001
0000
0000
0000
0000
0000
0000
0000
0000
0000
0000
0000
0000
0000
0000
0000
1000
0000
0000
0000
0000
0000
0000
0000
0000
0000
0000
0000
0000
0000
0000
0000
0000
0000
0000
0000
0000
0000
0000
0000
0010
0000
0000
0000
0000
0000
0000
0000
0000
0000
0000
0000
0000
0000
0000
0000
0000
0000
0000
0000
0000
0000
0000
0000
0120
0000
0000
0000
0000
0000
0000
0000
0000
0000
0000
0000
0000
0000
0000
0000
0000
0000
0000
0000
0000
0000
0000
0000
0000
0000
0000
0000
0000
0000
0000
0000
0000
0000
0000
0000
0000
0000
0000
0000
0000
0000
0000
0000
0000
0000
0000
0000
0000
0000
0000
0000
0000
0000
0000
0000
0000
0000
0000
0000
0000
0000
0000
0000
0000
0000
0000
0000
0000
0000
0000
0000
0000
0000
0000
0000
0000
0000
0000
0000
0000
0000
0000
0000
0000
0000
0000
0000
0000
0000
0000
0000
0000
0000
0000
0000
,
2030
0000
0000
0000
,
0000
0000
0000
0000
,
0000
0000
0000
0000
,
3000
0000
0000
0000
;

//--------------- dance-single - BR+, BU (24th, 32nd--), FS, RH ----------------
#NOTEDATA:;
#STEPSTYPE:dance-single;
#DESCRIPTION:BR+, BU (24th, 32nd--), FS, RH;
#DIFFICULTY:Challenge;
#METER:16;
#RADARVALUES:0.527674,1.027729,0.489806,0.553193,0.582005,641,556,85,96,4,15,0,0,0,0.527674,1.027729,0.489806,0.553193,0.582005,641,556,85,96,4,15,0,0,0;
#CHARTNAME:Chart That Helps You Find Out;
#CHARTHASH:1552774858;
#BANNER:;
#CHARTSTYLE:;
#METERF:0.000000;
#LASTSECONDHINT:160.615372;
#CREDIT:YOSEFU, CEO of FAFO LLC;
#NOTES:
0000
0000
0000
0000
,
0000
0000
0000
0000
,
0000
0000
0000
0000
,
0000
0000
0000
0000
,
1000
0010
2000
0000
0000
0000
0000
0000
0000
0000
0000
0000
0000
0000
0000
0000
,
0000
0000
0000
0000
0000
0000
0000
0000
0000
0000
0000
0000
0000
0000
3100
0010
,
0002
0000
0000
0000
0000
0000
0000
0203
,
0320
0000
2030
0000
,
3001
0010
0002
0000
0000
0000
0000
0000
0000
0000
0000
0000
0000
0000
0000
0000
,
0000
0000
0000
0000
,
0000
0000
0000
0000
,
0000
0000
0000
0000
,
0103
0010
0200
0000
0000
0000
0000
0000
0000
0000
0000
0000
0000
0000
0000
0000
,
0000
0000
0000
0302
,
0023
0000
0000
0000
0000
0000
0000
0230
,
0302
0000
0203
2300
,
3001
0100
0002
0000
0000
0000
0000
0000
0000
0000
0000
0000
0000
0000
0000
0000
,
0000
0000
0000
0000
,
0000
0000
0000
0000
,
0103
0010
1000
0001
0100
0010
1000
0001
0100
0010
1000
0001
1000
0100
0010
0001
,
2000
0000
0000
3020
0230
0000
0302
0000
,
2003
0000
3200
0000
0320
0000
0230
2300
,
3002
0000
0000
0023
0032
0000
0203
0000
,
0320
0000
2030
0000
3200
0000
0320
0032
,
2003
3020
0230
0320
2030
3200
0320
0032
,
2003
3020
0230
0320
2030
0000
0000
3200
,
0320
0000
2030
0000
3020
0000
0000
0032
,
2003
0000
3020
0000
,
0230
0300
0001
0000
1000
0000
0010
0000
,
0200
0300
0001
0000
0010
0000
0100
0000
,
2000
3000
0001
0000
0100
0000
0010
0000
,
2000
3000
0100
0000
0010
0000
0001
0000
,
2000
3000
0001
0000
0100
0000
0010
0000
,
2000
3000
0100
0000
0010
0000
0001
0000
,
0200
0300
0010
0000
1000
0000
0001
0000
,
1000
0100
0010
0001
0200
0000
0310
0000
,
1010
1000
0100
0010
,
0011
0001
1000
0010
,
0110
0100
0001
1000
,
1100
0100
0010
0001
,
1000
0010
0100
0001
0100
0010
1000
0001
0010
0001
1000
0010
,
0100
0001
1000
0100
0010
0001
0010
0100
1000
0001
0100
0010
,
1000
0100
0010
0001
0100
0010
1100
0000
0101
0000
1010
0000
,
0011
0000
0000
0000
,
2000
0000
0000
0000
0000
0000
3020
0000
0000
0000
0000
0000
0230
0000
0000
0000
0000
0000
0301
1000
0001
1000
0001
1000
,
0102
0000
0000
0000
2103
0000
0000
0000
3021
0000
0000
0000
1030
0000
0100
0100
,
0012
0000
0000
0000
0000
0000
2013
0000
0000
0000
0000
0000
3201
0000
0000
0000
0000
0000
0310
0000
0000
0001
0010
0001
,
1010
0000
0100
0100
0001
0000
0100
0000
0011
0000
0100
0000
0002
0000
0000
0000
,
1013
0000
0000
0000
0100
0000
1000
0000
0012
0000
0000
0000
1003
0010
0010
0001
,
1010
0100
0100
0100
0010
0001
1000
0100
1010
0100
0100
0100
0100
0100
0100
0001
,
1010
0100
0100
0100
1010
0001
1000
0100
1010
0100
0100
0100
0100
0100
0100
0001
,
1100
0000
0001
0000
0100
0000
0001
0000
0100
0000
0010
0000
1000
0000
0000
0001
0000
0000
0010
0000
0000
0100
0000
0000
1010
0000
0000
0100
0000
0000
0100
0000
0000
0100
0000
0000
0010
0000
0000
0000
0000
0000
0000
0000
0000
0000
0000
0000
,
0001
1000
0001
1000
0001
1000
0012
0000
0000
0000
0000
0000
1103
0000
0000
0102
0000
0000
0000
0000
0000
1003
0000
0000
,
0010
0000
0100
0001
2100
0000
0001
0000
3012
0000
1000
0000
0013
0000
0100
0100
,
0012
0000
0000
1000
0000
0000
2013
0000
0000
0001
0000
0000
3201
0000
0000
0010
0000
0000
1300
0001
1000
0001
1000
0001
,
1100
0000
0010
0010
0002
0000
1000
0000
2103
0000
0010
0000
3002
0000
0000
0000
,
1013
0000
0000
0000
0011
0000
0100
0000
0012
0000
0000
0000
1003
0100
0100
0001
,
1100
0010
0010
0010
1000
0000
0001
0100
0011
0100
0001
0000
0010
0010
0010
0010
,
1100
0010
0010
0010
1000
0000
0100
1100
0011
1000
0001
0000
0100
0100
0100
0100
,
1000
0000
0001
0000
0010
0000
0001
0000
0010
0000
0100
0000
1000
0000
0000
0010
0000
0000
0010
0000
0000
0001
0000
0000
1100
0000
0000
0000
0000
0000
0010
0000
0000
0100
0000
0000
0012
0000
0000
0000
0000
0000
0000
0000
0000
0000
0000
0000
,
1003
0010
0100
0001
,
1001
1000
0100
0010
,
0011
0001
0100
0010
,
1010
1000
0100
0010
,
0001
0010
0001
1000
0010
0100
0001
1000
0100
1000
0001
0100
,
0010
1000
0001
0010
0100
1000
0001
0100
0010
0100
0001
1000
,
0100
0000
0010
0000
0001
0000
0100
0000
0010
0000
1000
0000
0001
0010
0100
1000
0001
0100
0010
0100
0001
1000
0100
0010
,
0002
0000
0000
0000
0000
0000
0000
0000
0M00
0000
0000
0000
M000
0000
0000
0000
0000
0000
0000
0000
M000
0000
0000
0000
0M00
0000
0000
0000
0000
0000
1003
0000
0000
0010
0000
0000
0100
0000
0000
0010
0000
0000
1000
0000
0000
0001
0000
0000
,
0020
0000
0000
0000
0000
0000
0230
0000
0000
0000
0000
0000
2300
0000
0000
0000
0000
0000
3010
1000
0010
1000
0010
1000
,
0011
0000
0000
0000
0000
0000
1000
0000
0000
0000
0000
0000
0011
0000
0000
0000
0000
1000
0000
0000
0000
0000
0000
0000
0101
0000
0000
0000
0000
0000
0000
0000
0000
0010
0000
0000
0101
0000
0000
0000
0000
0010
0000
0000
0000
0000
0000
0000
,
0101
0000
0000
0000
0000
0000
0000
0000
1000
0000
0000
0000
0000
0001
0000
0000
1100
0000
0000
0000
0001
0000
0000
0000
0000
0000
1000
0000
0000
0000
0000
0000
0101
0000
0000
0000
0000
0000
0000
0000
0000
0000
0000
0000
0010
0000
0000
0000
0101
0000
0000
0000
0000
0000
1000
0000
0000
0000
0000
0000
0000
0000
0000
0000
,
0011
0000
0100
0000
0011
0000
0100
0100
2010
0000
0000
0000
0001
0000
0000
0000
,
3201
0000
0000
0000
1300
0000
0010
0000
1200
0000
0000
0000
0301
0010
0010
1000
,
0101
0000
0000
0000
0000
0000
0000
0000
1000
0000
0000
0000
0000
0000
0000
0000
0010
0000
0000
0000
0000
0000
0000
0100
0000
0000
0000
0000
0000
0000
0000
0000
0011
0000
0000
0000
0000
0000
0000
0000
0000
0000
0000
0000
1000
0000
0000
0000
0001
0000
0000
0000
0000
0000
1000
0000
0000
0000
0000
0000
0000
0000
0000
0000
,
0101
0000
0000
0000
0000
0000
0000
0000
0000
0000
0000
0000
0000
0000
0000
0000
0000
0000
0000
0000
0000
0010
0000
0000
0000
0000
0000
0000
0000
0000
0000
0000
0000
0000
0000
0000
0000
0000
0001
0000
0000
0000
0000
0000
0000
0000
0000
0000
0000
0000
0000
0000
0000
0000
0000
0000
0000
0000
1000
0000
0000
0000
0000
0000
0000
0000
0000
0000
0000
0000
0000
0000
0000
0000
0000
0000
0000
0000
0010
0000
0000
0000
0000
0000
0000
0000
0000
0000
0000
0000
0000
0000
0000
0000
0000
0000
1100
0000
0000
0000
0000
0000
0000
0000
0000
0000
0000
0000
0000
0000
0000
0000
0000
0000
0000
0000
0000
0000
0000
0000
0000
0000
0000
0000
0000
0000
0000
0000
0000
0000
0000
0000
0001
0000
0000
0000
0000
0000
0000
0000
0000
0000
0000
0000
1000
0000
0000
0000
0000
0000
0000
0000
0000
0000
0000
0000
0000
0000
0000
0000
0000
0000
0001
0000
0000
0000
0000
0000
0000
0000
0000
0000
0000
0000
0000
0000
0000
0000
0000
0000
0000
0000
0000
0000
0000
0000
0000
0000
0000
0000
0000
0000
,
1010
0000
0100
0000
1000
0000
0010
0010
0201
0000
0000
0000
1000
0000
0000
0000
,
0310
0001
2100
0000
3101
2010
0000
0000
,
3001
0000
0000
0000
0100
0000
0010
0000
1000
0000
0000
0000
0001
0100
0001
0100
0011
0000
0100
0000
0100
0000
0100
0000
0000
0000
0010
0000
0010
0000
0010
0000
,
1100
0000
0000
0000
0000
0000
0001
0000
0000
1000
0000
0000
0001
0000
0000
0000
0000
0000
0100
0000
0000
0000
0000
0000
0011
0000
0000
0000
0000
0000
0000
0000
0000
0000
0000
0000
1000
0000
0000
0000
0000
0000
0100
0000
0000
0000
0000
0000
1010
0000
0000
0000
0000
0000
0000
0000
0001
0000
0000
0000
0000
0000
0000
0000
1000
0000
0000
0000
0000
0000
0000
0000
0010
0000
0000
0000
0000
0000
0100
0000
0000
0000
0000
0000
0001
0000
0000
0000
0100
0000
0000
0000
0010
0000
0000
0000
,
1100
0000
0000
0000
0000
0000
0001
0000
0000
1000
0000
0000
0001
0000
0000
0000
0000
0000
0010
0000
0000
0000
0000
0000
0100
0000
0000
0000
0000
0000
1000
0000
0000
0000
0000
0000
0010
0000
0000
0000
0100
0000
0000
0000
0001
0000
0000
0000
2100
0000
0000
0000
0000
0000
0000
0000
0000
0000
0000
0000
0000
0000
0000
0000
0000
0000
0000
0000
0000
0000
0000
0000
3002
0000
0000
0000
0000
0000
0000
0000
0000
0000
0000
0000
0000
0000
0000
0000
0000
0000
0000
0000
0000
0000
0000
0000
,
2013
0000
0000
0000
3101
0000
1000
0000
0012
0000
0000
0000
1003
0100
0100
0001
,
1100
0000
0000
0000
0000
0000
0000
0000
0000
0000
0000
0000
0000
0000
0000
0000
0000
0000
0000
0001
0000
0000
0000
0000
0000
0000
0000
0000
0000
0000
0000
0000
0000
0100
0000
0000
0000
0000
0000
0000
0000
0000
0000
0000
0000
0000
0000
0000
0001
0000
0000
0000
0000
0000
0000
0000
0000
0000
0000
0000
0000
0000
0000
0000
0000
0000
0000
0000
0000
1000
0000
0000
0000
0000
0000
0000
0000
0000
0000
0000
0000
0000
0000
0000
0000
0000
0000
0000
0000
0000
0000
0000
0000
0000
0000
0000
0101
0000
0000
0000
0000
0000
0000
0000
0000
0000
0000
0000
0000
0000
0000
0000
0000
0000
0000
0000
0000
0000
0000
0000
0000
0000
0000
0000
0000
0000
0000
0000
0000
0000
0000
0000
0010
0000
0000
0000
0000
0000
0000
0000
0000
0000
0000
0000
0001
0000
0000
0000
0000
0000
0000
0000
0000
0000
0000
0000
0000
0000
0000
0000
0000
0000
1000
0000
0000
0000
0000
0000
0000
0000
0000
0000
0000
0000
0000
0000
0000
0000
0000
0000
0000
0000
0000
0000
0000
0000
0000
0000
0000
0000
0000
0000
,
0011
0000
0000
0000
0000
0000
0000
0000
0000
0000
0000
0000
0000
0000
0000
0000
0000
0100
0000
0000
0000
0000
0000
0000
0000
0000
0000
0000
0000
0000
0000
0000
0001
0000
0000
0000
0000
0000
0000
0000
0000
0000
0000
0000
0000
0000
0000
0000
1000
0000
0000
0000
0000
0000
0000
0000
0000
0000
0000
0000
0000
0000
0000
0000
0000
0000
0000
0000
0100
0000
0000
0000
0000
0000
0000
0000
0000
0000
0000
0000
0010
0000
0000
0000
0000
0000
0000
0000
0001
0000
0000
0000
0000
0000
0000
0000
1100
0000
0000
0000
0000
0000
0000
0000
0000
0000
0000
0000
0000
0000
0000
0000
0000
0000
0000
0000
0000
0000
0000
0000
0000
0000
0000
0000
0000
0000
0000
0000
0000
0000
0000
0000
0010
0000
0000
0000
0000
0000
0000
0000
0000
0000
0000
0000
0100
0000
0000
0000
0000
0000
0000
0000
0000
0000
0000
0000
0000
0000
0000
0000
0000
0000
0001
0000
0000
0000
0000
0000
0000
0000
0000
0000
0000
0000
0000
0000
0000
0000
0000
0000
0000
0000
0000
0000
0000
0000
0000
0000
0000
0000
0000
0000
,
1010
0000
0000
0000
0000
0000
0000
0000
0000
0000
0000
0000
0000
0000
0000
0000
0000
0100
0000
0000
0000
0000
0000
0000
0000
0000
0000
0000
0000
0000
0000
0000
1000
0000
0000
0000
0000
0000
0000
0000
0000
0000
0000
0000
0000
0000
0000
0000
0001
0000
0000
0000
0000
0000
0000
0000
0010
0000
0000
0000
0000
0000
0000
0000
0100
0000
0000
0000
0000
0000
0000
0000
1000
0000
0000
0000
0000
0000
0000
0000
0100
0000
0000
0000
0000
0000
0000
0000
0010
0000
0000
0000
0000
0000
0000
0000
0201
0000
0000
0000
0000
0000
0000
0000
0000
0000
0000
0000
0000
0000
0000
0000
0000
0000
0000
0000
0000
0000
0000
0000
0000
0000
0000
0000
0000
0000
0000
0000
0000
0000
0000
0000
0000
0000
0000
0000
0000
0000
0000
0000
0000
0000
0000
0000
1000
0000
0000
0000
0000
0000
0000
0000
0000
0000
0000
0000
0000
0000
0000
0000
0000
0000
0000
0000
0000
0000
0000
0000
0000
0000
0000
0000
0000
0000
0000
0000
0000
0000
0000
0000
0000
0000
0000
0000
0000
0000
0000
0000
0000
0000
0000
0000
,
2300
0000
0000
0000
,
0000
0000
0000
0000
,
0000
0000
0000
0000
,
3000
0000
0000
0000
;
