#VERSION:0.83;
#TITLE:DARK LEGACY;
#SUBTITLE:;
#ARTIST:BaSTeT;
#TITLETRANSLIT:;
#SUBTITLETRANSLIT:;
#ARTISTTRANSLIT:;
#GENRE:;
#CREDIT:;
#MUSIC:DARK LEGACY.ogg;
#BANNER:;
#BACKGROUND:;
#CDTITLE:;
#SAMPLESTART:89.619293;
#SAMPLELENGTH:19.591835;
#SELECTABLE:YES;
#OFFSET:0.395951;
#BPMS:0.000000=196.000000;
#STOPS:;
#SPEEDS:0.000000=1.000000=0.000000=0;
#SCROLLS:0.000000=1.000000;
#TICKCOUNTS:0.000000=4;
#TIMESIGNATURES:0.000000=4=4;
#LABELS:0.000000=Song Start;
#COMBOS:0.000000=1;
#FAKES:79.250000=0.020833,
130.000000=0.020833,
162.000000=0.020833,
185.250000=0.020833,
193.250000=0.020833,
217.250000=0.020833,
388.020833=0.020833,
398.000000=0.020833
;
#ORIGIN:;
#TAGS:;
#PREVIEWVID:;
#JACKET:;
#CDIMAGE:;
#DISCIMAGE:;
#BGCHANGES:;
#FGCHANGES:;

//--------------- dance-single - ----------------
#NOTEDATA:;
#STEPSTYPE:dance-single;
#DESCRIPTION:;
#DIFFICULTY:Challenge;
#METER:18;
#RADARVALUES:0.961896,1.251798,1.150721,0.241029,0.555923,866,718,148,31,0,13,0,0,8,0.961896,1.251798,1.150721,0.241029,0.555923,866,718,148,31,0,13,0,0,8;
#CHARTNAME:;
#CHARTHASH:3383112985;
#BANNER:;
#CHARTSTYLE:;
#METERF:0.000000;
#LASTSECONDHINT:122.820290;
#CREDIT:;
#NOTES:
0000
0000
0000
0000
,
0000
0000
0000
0000
,
0000
0000
0000
0000
,
0000
0000
0000
0000
,
0000
0000
0000
0000
,
0000
0000
0000
0000
,
1000
0100
0010
0001
1000
0100
0010
0001
,
1000
0100
0010
0001
1000
0100
0010
0001
,
1000
0010
0100
0001
1000
0010
0100
0001
,
0010
0100
1000
0010
0001
0010
0100
0001
,
1000
0010
0100
0001
1000
0010
0100
0001
,
1000
0010
0100
0001
1000
0010
0100
0001
,
1000
0100
0010
0001
1000
0100
0010
0001
,
1000
0010
1000
0100
0001
0100
0010
0001
,
0100
0010
1000
0001
0100
0010
1000
0001
,
0100
0010
1000
0001
0100
0010
1000
0001
,
0010
0100
1000
0001
0010
0100
1000
0001
,
0010
0000
0100
0000
1000
0000
0010
0000
0001
0010
0100
0010
0100
0001
1000
0010
,
1100
0101
0000
1100
0101
0000
1100
0101
,
0000
0000
1100
0000
0101
0000
0000
0000
1000
0010
1000
0010
0100
000M
0100
0000
,
1010
0011
0000
1010
0011
0000
1010
0011
,
0000
0000
1010
0000
0011
0000
0100
0100
1000
0001
1000
0010
0010
0001
1000
0100
,
1010
0011
0000
1010
0011
0000
1010
0011
,
0000
0000
0000
1010
0000
0000
0011
0000
0000
0000
0000
0000
0100
0000
0000
0001
1000
0001
1000
0000
0000
0001
1000
0001
,
1100
0101
0000
1100
0101
0000
1010
0011
,
0000
1010
0011
0000
0200
0000
0000
0000
,
0301
0000
0000
0000
1100
0000
0000
0001
0010
0000
0100
0000
1010
0000
0000
0001
,
0100
0000
0011
0000
1000
0100
1010
0000
,
0100
0000
0000
0000
0000
0000
1010
0000
0000
0000
0000
0000
0001
0000
0000
1000
0001
1000
0001
0000
0000
0000
0000
0000
,
0100
0000
0011
1000
0100
0010
0001
1000
,
0010
0000
0000
0000
1100
0000
0000
0000
0010
0001
0010
0100
0001
1000
0100
0010
,
0001
0100
0021
1000
1000
0100
1130
0000
,
0001
0000
1010
0100
000M
0100
0011
0000
,
1000
0000
0000
0000
0011
0000
0000
0000
1000
0010
1000
0000
0101
0000
0000
0101
,
2000
0000
0000
0000
0000
0000
0000
3001
0100
0100
0100
0100
1010
0000
0000
0000
,
0001
0010
0100
1000
0010
0000
0000
0000
0100
0000
0001
0000
1100
0000
0001
0000
,
0010
0000
0000
0000
0101
0000
0000
0000
0010
0000
0100
0000
0001
0000
0100
0010
,
0001
1000
0010
0100
0011
0000
0011
0000
1000
0000
0001
0000
1010
0000
0000
1010
,
0001
0000
0000
0000
1100
0000
0010
0100
1000
0100
0010
0100
0001
0000
0000
0000
,
1000
0000
0201
0010
0010
1000
1310
0000
,
0001
0000
1100
0010
000M
0010
0101
0000
,
1000
0000
0000
0000
0011
0000
0000
0000
0100
0001
0100
0000
0011
0000
0000
0011
,
1000
0100
1100
0001
0100
0101
1000
0101
,
1000
0000
0101
0000
0010
0000
0001
0000
1000
0100
1000
0010
0100
0001
0010
0001
,
1000
0100
1100
0001
0100
0101
1000
0101
,
1000
0000
0101
0000
0010
0000
0001
0000
0100
0001
0010
0001
0100
0010
1000
0001
,
0100
0001
0100
0001
1100
00M0
0100
1000
0100
1000
0101
0000
1000
0000
0011
0000
,
0100
0000
0011
0000
1000
0000
0001
0000
1000
0100
1000
0010
0100
0001
1000
0100
,
0010
0001
0010
0001
1010
0M00
0010
1000
0010
1000
0011
0000
0010
0000
0101
0000
,
1000
0000
0101
0000
1000
0000
0010
0000
1000
0100
1000
0010
0100
0001
0010
0001
,
1000
0010
1010
0001
0010
0011
1000
0011
,
1000
0000
0011
0000
0100
0000
0001
0000
1000
0100
1000
0010
0100
0001
0010
0001
,
1000
0010
1010
0001
0010
0011
1000
0011
,
1000
0000
0011
0000
0100
0000
0001
0000
0010
0001
0100
0010
1000
0100
1000
0001
,
0100
0001
0100
0001
1100
00M0
0100
1000
0100
1000
0101
0000
0010
0000
0101
0000
,
0010
0000
0101
0000
1000
0000
0010
0000
0100
1000
0100
0010
0100
0001
1000
0100
,
1000
0100
1000
0100
1010
0000
0001
0100
0001
0100
0011
0000
1000
0000
0011
0000
,
0100
0000
0011
0000
1000
0000
0100
0000
0010
1000
0010
0100
1000
0001
0100
0001
,
2000
0000
0000
0000
,
0001
0000
0000
0000
,
3200
0000
0000
0000
,
0010
0000
0000
0000
,
2300
0000
0000
0000
,
0001
0000
0000
0000
,
3020
0000
0000
0000
,
0100
0000
0000
0000
,
1030
0100
0010
0001
1000
0100
0010
0001
,
1000
0010
0100
0001
1000
0010
0100
0001
,
1000
0100
0010
0001
1000
0100
0010
0001
,
1000
0001
1000
0100
0001
0100
0010
0001
,
1000
0010
0100
0001
1000
0100
0010
0001
,
1000
0001
1000
0010
0001
0010
0100
0001
,
1000
0010
0100
0001
1000
0100
0010
0001
,
1000
0010
0100
0001
1000
0100
0010
0001
1000
0000
0000
0000
1000
0010
0100
0001
,
0010
0000
0100
0000
1010
0000
0001
0000
0200
0000
0001
1000
0000
0000
1000
0301
,
0200
0000
0010
0000
0011
0000
0000
0000
0301
0000
1000
0000
0101
0000
0010
0010
,
1000
0000
0001
0000
1100
0000
0001
0000
0020
0000
0001
1000
0000
0000
1000
0001
,
0230
0000
0000
0001
0000
0000
0011
0000
0000
0000
0000
0000
0301
0000
0000
1000
0000
0000
0101
0000
0010
0000
0001
0000
,
0200
0000
0001
1000
0320
0000
1000
0031
0010
0000
0100
0010
1000
0000
0010
0100
,
2000
0000
0001
0100
3020
0000
1000
0001
0230
0000
0001
1300
0200
0000
1000
0301
,
0020
0000
0001
0000
0101
0000
0000
0131
1000
0000
0101
0000
1000
0001
0100
0011
,
1000
0000
0011
0000
1000
0000
0011
0000
1000
0000
0000
0000
0101
0010
0001
1000
,
0010
0000
0100
0000
0011
0000
1000
0000
0200
0000
1000
0001
0000
0000
0001
1300
,
0200
0000
0010
0000
1010
0000
0000
0000
1300
0000
0001
0000
1100
0000
0010
0010
,
0001
0000
1000
0000
0101
0000
1000
0000
0020
0000
1000
0001
0000
0000
0001
1000
,
0230
0000
0000
1000
0000
0000
1010
0000
0000
0000
0000
0000
1300
0000
0000
0001
0000
0000
1100
0000
0010
0000
1000
0000
,
0020
0000
1000
0031
0020
0000
0001
1000
0230
0000
1000
0301
0200
0000
0001
1000
,
0320
0000
1000
0000
1100
0000
1030
0100
0010
0100
1000
0001
0100
0010
1000
0001
,
0010
0100
2000
0000
0101
0000
0000
0000
0001
0000
0000
0000
0011
0000
0000
0000
,
3001
0100
0010
1000
0001
0010
0100
1000
0020
0000
0000
0000
1100
0000
0000
0000
,
1130
0101
0000
1100
0101
0000
1100
0101
,
0000
0000
1100
0000
0101
0000
0000
0000
1010
0000
0011
0000
0100
0100
1010
0000
,
0011
0000
0100
0100
1010
0000
0011
0000
0100
0100
1010
0000
0011
0000
0100
0100
,
1010
0011
0000
1100
0101
0000
1100
0101
,
0000
1100
0101
0000
1010
0011
0000
1010
,
0011
0000
1010
0011
0000
1010
0011
0000
,
0000
0000
0000
0000
,
0200
M000
0000
0000
0000
0000
0000
0000
0000
0000
0000
0000
0000
0000
0000
0000
0000
0000
0000
0000
0000
0000
0000
0000
0000
0000
0000
0000
0000
0000
0000
0000
0000
0000
0000
0000
0000
0000
0000
0000
0000
0000
0000
0000
0000
0000
0000
0000
0000
0000
0000
0000
0000
0000
0000
0000
0000
0000
0000
0000
0000
0000
0000
0000
0000
0000
0000
0000
0000
0000
0000
0000
0000
0000
0000
0000
0000
0000
0000
0000
0000
0000
0000
0000
0000
0000
0000
0000
0000
0000
0000
0000
0000
0000
0000
0000
0000
0000
0000
0000
0000
0000
0000
0000
0000
0000
0000
0000
0000
0000
0000
0000
0000
0000
0000
0000
0000
0000
0000
0000
0000
0000
0000
0000
0000
0000
0000
0000
0000
0000
0000
0000
0000
0000
0000
0000
0000
0000
0000
0000
0000
0000
0000
0000
0000
0000
0000
0000
0000
0000
0000
0000
0000
0000
0000
0000
0000
0000
0000
0000
0000
0000
0000
0000
0000
0000
0000
0000
0000
0000
0000
0000
0000
0000
0000
0000
0000
0000
0000
0000
0000
0000
0000
0000
0000
0000
0000
0000
0000
0000
0000
0000
,
0000
0000
0000
0000
,
0000
0000
M000
0000
,
0000
0000
0000
0000
0000
0300
0000
0000
;
