#VERSION:0.83;
#TITLE:Chess and Chase;
#SUBTITLE:;
#ARTIST:litmus* ft. CielA;
#TITLETRANSLIT:;
#SUBTITLETRANSLIT:;
#ARTISTTRANSLIT:;
#GENRE:;
#CREDIT:;
#MUSIC:song.ogg;
#BANNER:banner.png;
#BACKGROUND:background.png;
#CDTITLE:;
#SAMPLESTART:52.506001;
#SAMPLELENGTH:15.000000;
#SELECTABLE:YES;
#OFFSET:-0.006000;
#BPMS:0.000000=128.000000;
#STOPS:;
#SPEEDS:0.000000=1.000000=0.000000=0;
#SCROLLS:0.000000=1.000000;
#TICKCOUNTS:0.000000=4;
#TIMESIGNATURES:0.000000=4=4;
#LABELS:0.000000=Song Start;
#COMBOS:0.000000=1;
#ORIGIN:;
#PREVIEWVID:;
#JACKET:jacket.png;
#CDIMAGE:;
#DISCIMAGE:;
#BGCHANGES:;
#FGCHANGES:;

//--------------- dance-single - KS XO JA ----------------
#NOTEDATA:;
#STEPSTYPE:dance-single;
#DESCRIPTION:KS XO JA;
#DIFFICULTY:Hard;
#METER:13;
#RADARVALUES:0.60573,0.577582,0.212489,0.482928,0.429806,439,417,22,50,34,0,2,0,0,0.60573,0.577582,0.212489,0.482928,0.429806,439,417,22,50,34,0,2,0,0;
#CHARTNAME:Check;
#CHARTSTYLE:;
#CREDIT:YOSEFU;
#NOTES:
0000
0000
0000
0000
,
0000
0000
0000
0000
,
0000
0000
0000
0000
,
0000
0000
0000
0000
,
1001
0000
0001
1000
0100
0000
1000
0000
0010
0000
0100
0000
0001
0000
0100
0000
,
0001
0000
0000
0001
0010
0000
0100
0000
1000
0000
0001
0000
0100
0001
0010
0001
,
0020
0000
003M
0010
1000
0000
0001
0000
0200
0000
030M
0100
1000
0000
0001
0000
,
0020
0000
003M
0010
1000
0000
0100
0000
0020
0000
0031
1000
0010
1000
0100
0000
,
0110
0000
0000
0000
0000
0000
1000
0000
0000
0001
0000
0000
0020
0030
0000
0000
0000
0000
0020
0030
0000
0000
0000
0000
1000
0000
0000
0000
0000
0000
0020
0030
0000
0000
0000
0000
0020
0030
0000
0000
0000
0000
0001
0000
0000
0000
0000
0000
,
0001
0000
0000
0001
0100
0000
0010
0000
1000
0000
0001
0000
1000
0100
1000
0000
,
0020
0000
M030
0010
0001
0000
1000
0000
0200
0000
M300
0100
0001
0000
1000
0000
,
0020
0000
0000
0000
M030
0000
0010
0000
0001
0000
0000
0000
0100
0000
0000
0000
0010
0000
0000
1000
0000
0000
0001
0000
4000
0000
3000
0000
4000
0000
3000
0000
,
1001
0000
1000
0010
0100
0000
0010
0000
0001
0000
0010
0000
2000
0000
0001
0000
,
3100
0000
0010
0001
1000
0000
0010
0000
0001
0000
0010
0000
0200
0010
0000
0000
,
0301
0000
1000
0100
0010
0000
0100
0000
0001
0000
0100
0000
2000
0000
0100
0000
,
3001
0000
1000
0001
0100
0000
1000
0000
0100
0000
0010
0000
0200
0001
0000
0300
,
0110
0000
0001
0010
0100
0000
0010
0000
1000
0000
0010
0000
0002
0000
1000
0000
,
0103
0000
0010
1000
0001
0000
0010
0000
1000
0000
0010
0000
0200
0010
0000
0000
,
1300
0000
0001
0100
0010
0000
0100
0000
1000
0000
0100
0000
0002
0000
0100
0000
,
1003
0001
0100
0010
1000
0100
0010
0000
,
0011
0000
0001
0000
0001
0000
1000
0000
0200
0000
M300
0100
0001
0000
1000
0000
,
0200
0000
M300
0100
0001
0000
0010
0000
0100
0000
1000
0001
0100
0000
0010
0000
,
1010
0000
1000
0000
1000
0000
1000
0000
0200
0000
M300
0100
0001
0000
1000
0000
,
0200
0000
M300
0100
0001
0000
0010
0000
0100
0000
1000
0010
0100
0000
0001
0000
,
0101
0000
0100
0000
0100
0000
0100
0000
0020
0000
0M30
0010
0001
0000
1000
0000
,
0020
0000
0M30
0010
0001
0000
0100
0000
1000
0000
0100
0010
1000
0000
0100
0000
,
1100
0000
1000
0000
1000
0000
1000
0000
0200
0000
M300
0100
0010
0000
1000
0000
,
0200
0000
M300
0100
0001
0000
0100
0000
0010
0000
0000
0000
1010
0000
0000
0000
,
0201
0000
030M
0100
1000
0000
0001
0000
0020
0000
003M
0010
1000
0000
0100
0000
,
0020
0000
0M30
0010
1000
0000
0100
0000
0001
0000
0100
0000
0010
0000
0001
0100
,
0020
0000
0M30
0010
0001
0000
1000
0000
0200
0000
M300
0100
0001
0000
0100
0010
,
1000
0000
0001
1000
0100
0000
0100
0000
0010
0000
0001
0000
0011
0000
0000
0000
,
1200
0000
M300
0100
0001
0000
1000
0000
0020
0000
M030
0010
0001
0000
0100
0000
,
0020
0000
0M30
0010
0001
0000
0100
0000
1000
0000
0100
0000
0010
0000
1000
0100
,
0020
0000
0M30
0010
1000
0000
0001
0000
0200
0000
030M
0100
1000
0000
0001
0000
,
1000
0100
1000
0100
0010
0001
0010
0001
1000
0000
0000
0000
0110
0000
0000
0000
,
1001
0000
1000
0000
1000
0000
0001
0000
0200
0000
030M
0100
1000
0000
0001
0000
,
0020
0000
003M
0010
1000
0000
0100
0000
0001
0000
0100
0010
0001
0000
0100
0000
,
0101
0000
M000
0100
1000
0000
0001
0000
0200
0000
030M
0100
1000
0000
0010
0000
,
0200
0000
03M0
0100
1000
0000
0010
0000
0001
0000
0010
0000
0110
0000
0000
0000
,
1200
0000
M300
0100
0001
0000
1000
0000
0100
0000
M000
0100
0001
0000
1000
0000
,
0020
0000
M030
0010
0001
0000
0100
0000
1000
0000
0100
0010
2000
0000
3001
0000
,
0201
0000
030M
0100
1000
0000
0001
0000
0200
0000
030M
0100
1000
0000
1000
0000
,
0001
0100
0001
0100
0010
1000
0010
1000
0001
0000
0000
0000
0110
0000
0000
0000
,
2001
0000
0000
3010
0100
0000
0001
0000
0001
0000
0100
0010
1000
0000
0100
0000
,
0001
0000
0100
0010
0001
0000
0100
0000
0010
0000
1000
0000
0010
0000
0100
0001
,
0020
0000
0000
1030
0010
0000
0100
0000
1000
0000
0001
0100
0010
0000
1000
0000
,
0100
0000
0010
0001
1000
0000
0001
0000
0010
0000
0100
0000
1100
0000
0000
0000
,
1002
0000
0000
0013
0100
0000
1000
0000
1000
0000
0100
0010
0001
0000
0100
0000
,
1000
0000
0100
0010
1000
0000
0100
0000
0010
0000
0001
0000
0010
0000
0100
1000
,
0020
0000
0000
0031
0010
0000
0100
0000
0001
0000
1000
0100
0010
0000
0001
0000
,
1000
0010
1000
0010
0100
0001
0100
0001
1000
0000
0000
0000
0110
0000
0000
0000
,
1001
0000
0000
0000
;

//--------------- dance-single - FS+ DS+ KS JA- ----------------
#NOTEDATA:;
#STEPSTYPE:dance-single;
#DESCRIPTION:FS+ DS+ KS JA-;
#DIFFICULTY:Challenge;
#METER:13;
#RADARVALUES:0.619528,0.657628,0.20283,1.120394,0.60849,449,428,21,116,38,0,2,0,0,0.619528,0.657628,0.20283,1.120394,0.60849,449,428,21,116,38,0,2,0,0;
#CHARTNAME:Checking Then Sleeping;
#CHARTSTYLE:;
#CREDIT:Maractus (X-Scale);
#NOTES:
0000
0000
0000
0000
,
0000
0000
0000
0000
,
0000
0000
0000
0000
,
0000
0000
0000
0000
,
1002
0000
1003
0010
0100
0000
0001
0000
2000
0000
0100
0000
3001
0000
0010
0000
,
0200
0000
0000
1300
0001
0000
0100
00M0
0100
0000
1000
0000
0100
1000
0100
0010
,
0002
0000
0000
0103
0001
0000
1000
0000
0001
0000
0100
00M0
0100
0000
1000
0000
,
0002
0000
0000
0000
0000
0000
0103
0000
0010
0000
0000
0000
0100
0000
0000
0000
0002
0000
0000
0000
0013
000M
1000
0000
0000
0000
0010
0000
0100
0000
0000
0000
,
2001
0000
3001
0100
0010
0000
1000
0000
0002
0000
0010
0000
1003
0000
0100
0000
,
0020
0000
0000
0031
1000
0000
0010
0M00
0010
0000
0001
0000
0100
0001
0100
0010
,
2000
0000
0000
0000
0000
0000
3100
0000
1000
0000
0000
0000
0001
0000
0000
0000
1000
0000
0000
0000
0100
0000
0010
0000
0002
0000
0000
0000
0103
000M
1000
0000
,
0020
0000
0000
0000
0000
0000
0130
0000
0001
0000
0000
0000
1000
0000
0000
0000
0001
0000
0000
0001
0000
0000
0001
0000
0400
0000
0300
0000
0040
0000
0030
0000
,
1002
0000
0013
0100
2000
0000
0100
0000
3001
0000
0100
0000
0020
0000
0000
0030
,
1000
0000
0002
0000
0010
0000
1003
0000
0002
0000
0100
0000
1003
0010
0M00
0010
,
0001
0000
0010
0100
2000
0000
0100
0000
3001
0000
0100
0000
0020
0000
0000
0030
,
1000
0000
0001
2000
0010
0000
3001
0000
2000
0000
0010
0000
3200
0000
0310
0000
,
2001
0000
3010
0100
0002
0000
0100
0000
1003
0000
0100
0000
0020
0000
0000
0030
,
0001
0000
1000
0002
0100
0000
1003
0000
0100
0000
0010
0000
0001
0100
00M0
0100
,
1000
0000
0010
0100
0002
0000
0100
0000
1003
0000
0100
0000
0020
0000
0000
0030
,
1001
0000
0002
0000
0100
0000
1003
0000
0002
0000
0010
0000
0103
0010
1000
0000
,
2001
0000
0000
0000
3001
0000
0000
0000
0010
0000
0000
0000
0100
0000
0000
0000
2000
0000
0000
0000
0000
0000
3100
M000
0001
0000
0000
0000
0100
0000
0000
0000
,
0002
0000
0000
0000
0000
0000
0103
000M
1000
0000
0000
0000
0100
0000
0000
0000
0020
0000
0000
0000
0001
0000
0000
0000
0130
0000
0000
0000
1000
0000
0000
0000
,
1002
0000
0000
0000
1003
0000
0000
0000
0010
0000
0000
0000
0100
0000
0000
0000
0002
0000
0000
0000
0000
0000
0103
000M
1000
0000
0000
0000
0100
0000
0000
0000
,
2000
0000
0000
0000
0000
0000
3100
M000
0001
0000
0000
0000
0100
0000
0000
0000
0020
0000
0000
0000
1000
0000
0000
0000
0130
0000
0000
0000
0001
0000
0000
0000
,
2001
0000
0000
0000
3001
0000
0000
0000
0100
0000
0000
0000
0010
0000
0000
0000
2000
0000
0000
0000
0000
0000
3010
M000
0100
0000
0000
0000
0010
0000
0000
0000
,
0002
0000
0000
0000
0000
0000
0013
000M
0100
0000
0000
0000
0010
0000
0000
0000
0200
0000
0000
0000
0001
0000
0000
0000
0310
0000
0000
0000
1000
0000
0000
0000
,
1002
0000
0000
0000
1003
0000
0000
0000
0100
0000
0000
0000
0010
0000
0000
0000
0002
0000
0010
0000
0000
0000
0013
000M
0100
0000
0000
0000
0010
0000
0000
0000
,
2000
0000
0010
0000
0000
0000
3010
M000
0100
0000
0000
0000
0010
0000
0000
0000
0200
0000
0000
0000
0300
0000
0000
0000
0220
0000
0000
0000
0330
0000
0000
0000
,
2002
0000
3003
0002
0100
0000
0013
000M
0010
1000
0000
2000
0100
0000
3010
M000
,
0010
0001
0000
0010
0200
0000
1000
0000
0320
0000
0001
0000
0130
0000
1000
0010
,
0200
0001
0300
0002
0010
0000
0103
000M
0100
1000
0000
2000
0010
0000
3100
M100
,
0001
1000
0002
0010
1003
0010
2010
3100
,
2002
0000
3003
2000
0100
0000
3010
M000
0010
0001
0000
0002
0100
0000
0013
000M
,
0010
1000
0000
0010
0200
0000
0001
0000
0320
0000
1000
0000
0130
0000
0001
0010
,
0200
1000
0300
2000
0010
0000
3100
M000
0100
0001
0000
0002
0010
0000
0103
000M
,
0200
0000
1300
0010
0100
0001
0100
0010
2000
0000
3001
0000
0012
0000
0103
0000
,
2002
0000
3003
0002
0010
0000
0103
000M
0100
1000
0000
2000
0010
0000
3100
M000
,
0200
0000
0001
0000
0300
00M0
0100
0000
2000
0000
0000
0000
0100
0000
0000
0000
3002
0000
0000
0000
0100
0000
0000
0000
1003
0000
0000
0000
0001
0000
0000
0000
,
2002
0000
3003
2000
0010
0000
3100
M000
0100
0001
0000
0002
0010
0000
0103
000M
,
0200
0000
1000
0000
0300
00M0
0100
0000
0002
0000
0000
0000
0100
0000
0000
0000
2003
0000
0000
0000
3100
0000
0000
0000
2100
0000
0000
0000
3010
0000
0000
0000
,
2002
0000
3003
0002
0100
0000
0013
000M
0010
1000
0000
2000
0100
0000
3010
M000
,
0020
0000
0001
0000
0030
0M00
0010
0000
2000
0000
0000
0000
0010
0000
0000
0000
3002
0000
0000
0000
0010
0000
0000
0000
1003
0000
0000
0000
0001
0000
0000
0000
,
2002
0000
3003
2000
0100
0000
3010
M000
0010
0001
0000
0002
0100
0000
0013
001M
,
2000
0000
3100
0010
0001
0010
0100
1000
0001
0100
0010
0000
2010
0000
3100
0000
,
2001
0000
0000
0000
3100
0000
1000
0000
0100
00M0
0200
0000
0001
0000
0310
0000
,
2000
0000
0100
0000
3001
0000
1000
0000
0002
0000
0100
0000
1003
0000
0010
0100
,
0002
0000
0000
0000
1003
0000
0001
0000
0100
00M0
0200
0000
1000
0000
0310
0000
,
0002
0000
0100
0000
1003
0000
0001
0000
2000
0000
0100
0000
3001
0000
0010
0100
,
2000
0000
0000
0000
3001
0000
1000
0000
0010
0M00
0020
0000
0001
0000
0130
0000
,
2000
0000
0010
0000
3001
0000
1000
0000
0002
0000
0010
0000
1003
0000
0100
0010
,
0002
0000
0000
0000
1003
0000
0001
0000
0010
0M00
0020
0000
1000
0000
0130
0000
,
0001
0010
0100
1000
0002
0000
0100
0000
2003
0000
0100
0000
3001
0000
0100
0010
,
2000
0000
0000
3000
0000
0000
0000
0000
;
