#VERSION:0.83;
#TITLE:Beyond the BLUE;
#SUBTITLE:;
#ARTIST:Ayato × sak × 田島千種;
#TITLETRANSLIT:;
#SUBTITLETRANSLIT:;
#ARTISTTRANSLIT:;
#GENRE:;
#CREDIT:;
#MUSIC:Beyond the BLUE.ogg;
#BANNER:Beyond the BLUE.png;
#BACKGROUND:Beyond the BLUE-bg.png;
#CDTITLE:cdtitle.png;
#SAMPLESTART:58.144222;
#SAMPLELENGTH:15.000000;
#SELECTABLE:YES;
#OFFSET:-0.307694;
#BPMS:0.000000=132.009995;
#STOPS:;
#SPEEDS:0.000000=1.000000=0.000000=0;
#SCROLLS:0.000000=1.000000;
#TICKCOUNTS:0.000000=4;
#TIMESIGNATURES:0.000000=3=4;
#LABELS:0.000000=Song Start;
#COMBOS:0.000000=1;
#ORIGIN:;
#TAGS:;
#PREVIEWVID:;
#JACKET:Beyond the BLUE-jacket.png;
#CDIMAGE:;
#DISCIMAGE:;
#BGCHANGES:;
#FGCHANGES:;

//--------------- dance-single - ----------------
#NOTEDATA:;
#STEPSTYPE:dance-single;
#DESCRIPTION:;
#DIFFICULTY:Challenge;
#METER:12;
#RADARVALUES:0.434492,0.472907,0.03297,0.55224,0.197817,369,365,4,67,0,0,0,0,0,0.434492,0.472907,0.03297,0.55224,0.197817,369,365,4,67,0,0,0,0,0;
#CHARTNAME:Across the Seven Seas;
#CHARTHASH:2568056366;
#BANNER:;
#CHARTSTYLE:Pad Singles;
#METERF:0.000000;
#LASTSECONDHINT:116.208015;
#CREDIT:YOSEFU Goes Voyaging;
#NOTES:
0000
0000
0000
0000
,
0000
0000
0000
0000
,
0000
0000
0000
0000
,
0000
0000
0000
0000
0000
0000
0000
0000
0000
0000
0000
0000
1000
0000
0000
0100
,
0010
0010
0001
0100
0010
0000
1000
0100
,
0000
0010
0001
0000
0000
1000
0000
0000
,
0010
0000
0000
0000
0000
0000
0100
0000
0000
0000
0000
0000
0002
0000
0000
1003
,
0100
0100
0010
0001
0200
0000
0310
2000
,
0000
0000
3001
0010
0200
0000
0000
1300
0010
0000
0010
0000
0100
0000
0010
0000
,
0002
0000
0000
0000
0013
0000
0200
0000
0000
0000
0000
0000
0302
0000
0000
0013
,
0100
0100
1000
0010
0200
0000
0301
2000
,
0000
0000
3100
0010
0002
0000
0000
0000
0000
0000
0103
0000
0010
0000
1000
0000
,
0002
0000
0000
0023
0000
0000
0130
0000
,
0000
0000
1000
0000
1000
0000
0010
0000
0200
0000
0000
0000
0301
1000
0200
0000
,
0000
0000
0000
0000
0320
0000
0000
0000
0031
1000
0020
0000
0000
0000
0000
0000
,
0130
0000
0000
0010
0000
0000
1000
0000
0001
0000
0010
0000
0100
0000
0000
0000
,
0000
0000
1000
0000
1000
0000
0001
0000
0200
0000
0000
0000
0310
1000
0200
0000
,
0000
0000
0310
0001
2000
0000
0000
0000
0000
0000
3010
0000
0100
0000
0010
0000
,
0002
0000
0013
0200
0000
0301
1000
0000
,
0000
0000
0100
0000
0010
0000
0100
0000
2000
0000
0000
0000
3001
0100
0020
0000
,
0000
0000
0000
0000
2030
0000
0000
0000
3100
0010
0002
0000
0000
0000
0000
0000
,
0103
0000
0000
0010
0000
0000
1000
0000
0000
0001
0010
0100
1000
0000
0000
0000
,
0001
0000
0002
0000
0000
0000
0000
0000
0103
0000
0000
0000
0010
1000
0100
0000
,
0010
0000
0001
0000
2000
0000
3000
0000
0010
0100
0001
0000
0010
0000
0100
0000
,
2000
0000
0000
3010
0100
0000
1000
0000
0100
0000
0010
0000
1000
0000
0000
0100
,
0010
0010
0001
0100
0010
1000
0001
1000
,
0000
0000
0200
0000
0000
0320
0000
0000
,
0032
0023
0230
2300
,
3002
0203
0320
0000
,
0000
0000
1030
0001
0020
0000
0000
0000
0000
0000
0001
0000
0000
0000
0130
1000
,
0002
0000
0003
0100
0010
0100
2000
0000
,
0000
0000
3100
0000
0010
0000
0100
0000
0001
0000
0000
0001
0000
0000
0010
0000
,
0100
0000
1000
0000
0020
0000
0000
0000
0130
0001
0010
0000
0100
0000
0010
0000
,
2000
0000
0000
0000
3010
0100
0020
0000
0000
0000
0000
0000
0031
0000
0200
0000
,
0300
0010
0001
0010
0100
0001
1000
0200
,
0000
0300
0000
0000
0020
0000
0000
0000
0031
0100
0010
0000
0100
0000
0010
0000
,
0002
0000
0000
0000
0013
0100
0010
0000
0000
0000
0010
0000
1000
0000
0000
0000
,
0100
0010
0100
0000
0000
0000
0010
0000
2000
0000
0000
0000
0000
0000
3010
0000
,
0100
1000
0002
0000
0100
0100
0000
0000
,
1003
0100
0010
0001
0000
0000
1000
0010
,
0100
0010
1000
0001
1000
0100
0010
0001
,
0100
0000
0000
0010
0000
0000
1000
0000
0001
0000
0000
0000
0100
0000
0000
0010
0000
0000
1000
0000
0000
0001
0000
0000
,
1000
0000
0000
0100
0000
0000
0010
0000
0000
0001
0000
0000
0100
0000
0000
0010
0000
0000
1000
0000
0001
0000
0000
0000
,
0010
0100
1000
0010
0100
0001
1000
0100
,
0010
0000
0001
0000
1000
0001
0000
0100
0000
0000
0001
1000
0000
0100
0000
0000
,
1000
0010
0100
0001
0010
0100
2000
0000
,
3100
0010
0001
0100
0020
0000
0031
0020
,
0000
0000
0130
0001
0000
0010
0100
0001
,
0100
0010
0001
1000
0001
0100
0020
0000
,
1030
0100
0010
0000
0100
0000
0010
0000
2000
0000
0000
0000
3010
0100
0010
0000
,
0000
0000
0010
0000
0002
0000
0000
0000
0103
0010
0100
0000
0000
0000
0010
0000
,
0002
0000
0000
0000
0000
0000
0013
0000
0100
0000
0001
0000
1000
0000
0000
0100
,
0010
0010
0001
0100
0010
1000
0100
0010
,
0001
0100
0101
0000
0000
0000
1000
0100
,
1100
0000
0000
0000
0000
0000
1000
0000
0000
0000
0000
0000
2001
0000
0000
3001
,
0010
0010
0100
1000
0020
0000
0130
0002
,
0000
0000
1003
0100
0020
0000
0000
0031
0100
0000
0100
0000
0010
0000
0100
0000
,
2000
0000
0000
0000
3100
0000
0020
0000
0000
0000
0000
0000
2030
0000
0000
3100
,
0010
0010
0001
0100
0020
0000
1030
0002
,
0000
0000
0013
0100
1000
0000
0100
0000
0001
0000
0100
0000
1000
0000
0001
0000
,
0100
0000
0010
0000
1000
0000
0100
0000
0010
0000
0001
0000
1000
0000
0000
0001
,
0000
0000
0100
0000
0000
0010
0000
0000
1000
0000
0000
0100
0000
0000
0010
0000
,
0000
0001
0000
0000
2002
0000
0000
0000
0000
0000
0000
0000
0000
0000
0000
0000
,
0000
0000
0000
3003
;
