#TITLE:Beats Like These;
#SUBTITLE:;
#ARTIST:The Unknown Project;
#TITLETRANSLIT:;
#SUBTITLETRANSLIT:;
#ARTISTTRANSLIT:;
#GENRE:;
#CREDIT:;
#BANNER:Beats Like These.png;
#BACKGROUND:Beats Like These-bg.png;
#LYRICSPATH:;
#CDTITLE:cdtitle.png;
#MUSIC:Beats Like These.ogg;
#OFFSET:0.000000;
#SAMPLESTART:45.043999;
#SAMPLELENGTH:21.839001;
#SELECTABLE:YES;
#DISPLAYBPM:176.000000;
#BPMS:0.000000=175.830002
;
#STOPS:
;
#BGCHANGES:;
#KEYSOUNDS:;
#ATTACKS:;

//---------------dance-single - ----------------
#NOTES:
     dance-single:
     :
     Beginner:
     4:
     0.169938,0.347447,0.117779,0.117779,0.000000,101.000000,91.000000,10.000000,10.000000,0.000000,0.000000,0.169938,0.347447,0.117779,0.117779,0.000000,101.000000,91.000000,10.000000,10.000000,0.000000,0.000000:
// measure 0
0000
0000
0000
0000
,  // measure 1
0000
0000
0000
0000
,  // measure 2
0000
0000
0000
0000
,  // measure 3
0000
0000
0000
0000
,  // measure 4
0000
0000
0000
0000
,  // measure 5
1000
0000
0000
0000
,  // measure 6
0001
0000
0000
0000
,  // measure 7
0100
0000
0000
0000
,  // measure 8
0020
0000
0030
0000
,  // measure 9
0110
0000
0100
0000
,  // measure 10
0001
0000
0000
0000
,  // measure 11
1000
0000
0001
0000
,  // measure 12
1000
0000
0000
0000
,  // measure 13
0010
0000
0100
0000
,  // measure 14
0010
0000
0000
0000
,  // measure 15
1000
0000
0001
0000
,  // measure 16
2000
0000
3000
0000
,  // measure 17
2002
0000
0000
0000
,  // measure 18
3003
0000
0000
0000
,  // measure 19
0220
0000
0000
0000
,  // measure 20
0330
0000
0000
0000
,  // measure 21
1000
0000
0001
0000
,  // measure 22
0100
0000
0000
0000
,  // measure 23
0010
0000
1000
0000
,  // measure 24
0002
0000
0003
0000
,  // measure 25
1001
0000
1000
0000
,  // measure 26
0100
0000
0000
0000
,  // measure 27
0010
0000
0001
0000
,  // measure 28
1000
0000
0000
0000
,  // measure 29
0010
0000
0100
0000
,  // measure 30
0001
0000
0000
0000
,  // measure 31
1000
0000
0100
0000
,  // measure 32
0020
0000
0030
0000
,  // measure 33
1001
0000
1000
0000
,  // measure 34
0010
0000
0000
0000
,  // measure 35
0100
0000
0001
0000
,  // measure 36
1000
0000
0000
0000
,  // measure 37
0100
0000
0010
0000
,  // measure 38
0001
0000
0000
0000
,  // measure 39
1000
0000
0010
0000
,  // measure 40
0200
0000
0300
0000
,  // measure 41
0001
0000
1000
0000
,  // measure 42
0001
0000
1000
0000
,  // measure 43
0010
0000
0100
0000
,  // measure 44
0010
0000
0100
0000
,  // measure 45
0001
0000
1000
0000
,  // measure 46
0001
0000
1000
0000
,  // measure 47
0100
0000
0010
0000
,  // measure 48
0100
0000
0010
0000
,  // measure 49
0001
0001
1000
0000
,  // measure 50
0010
0010
0100
0000
,  // measure 51
0001
0001
1000
0000
,  // measure 52
0100
0100
0010
0000
,  // measure 53
0001
0001
1000
0000
,  // measure 54
0010
0010
1000
0000
,  // measure 55
0001
0001
1000
0000
,  // measure 56
0200
0000
0300
0000
,  // measure 57
0110
0000
0110
0000
,  // measure 58
1001
0000
1001
0000
,  // measure 59
1001
0000
0000
0000
;

//---------------dance-single - ----------------
#NOTES:
     dance-single:
     :
     Easy:
     11:
     0.429051,0.530004,0.329780,0.129557,0.000000,255.000000,227.000000,28.000000,11.000000,0.000000,0.000000,0.429051,0.530004,0.329780,0.129557,0.000000,255.000000,227.000000,28.000000,11.000000,0.000000,0.000000:
// measure 0
0000
0000
0000
0000
,  // measure 1
0000
0000
0000
0000
,  // measure 2
0000
0000
0000
0000
,  // measure 3
0000
0000
0000
0000
,  // measure 4
0000
0000
0000
0000
,  // measure 5
1000
0010
0100
0001
,  // measure 6
1000
0100
0010
0001
,  // measure 7
1000
0010
0100
0001
,  // measure 8
2000
3000
0100
0010
,  // measure 9
0001
0100
0010
1000
,  // measure 10
0100
0000
0010
0000
0001
0000
1000
1000
,  // measure 11
0010
0100
0001
1000
,  // measure 12
0100
0000
0010
0000
0001
0000
0100
0100
,  // measure 13
0010
1000
0001
0010
,  // measure 14
0001
0000
1000
0000
0010
0000
0100
0100
,  // measure 15
0001
1000
0100
0010
,  // measure 16
0002
0003
0000
0110
,  // measure 17
0220
0000
0000
0000
,  // measure 18
0000
0000
0000
0330
0000
0000
0100
0000
,  // measure 19
2002
3003
0110
0000
,  // measure 20
1001
0110
1001
0110
,  // measure 21
1000
0010
0100
0001
,  // measure 22
1000
0000
0100
0000
0010
0000
0001
0001
,  // measure 23
1000
0001
0100
0010
,  // measure 24
2000
0000
3100
0010
,  // measure 25
0110
0100
1000
0001
,  // measure 26
0100
0000
0001
0000
1000
0000
0010
0010
,  // measure 27
0100
0001
1000
0010
,  // measure 28
0100
0000
0001
0000
1000
0000
0100
0100
,  // measure 29
0010
0001
1000
0100
,  // measure 30
0010
0000
0100
0000
1000
0000
0001
0001
,  // measure 31
0100
0010
1000
0001
,  // measure 32
0020
0030
0100
1000
,  // measure 33
0001
0100
0000
0000
0110
0000
0110
0000
,  // measure 34
0000
1000
0000
0000
1001
0000
0001
1000
,  // measure 35
0000
0100
0000
0000
0110
0000
0110
0000
,  // measure 36
0000
0001
0000
0000
1001
0000
1000
0001
,  // measure 37
0000
0101
0000
0000
0110
0000
0110
0000
,  // measure 38
0000
0001
0000
0000
1001
0000
1000
0100
,  // measure 39
0000
0110
0000
0000
0011
0000
0011
0000
,  // measure 40
0002
0000
0103
0000
0010
1000
0001
0000
,  // measure 41
1001
0000
0001
0000
0010
0000
0001
1000
,  // measure 42
0010
0000
0100
0000
0001
0000
1000
1000
,  // measure 43
0100
0000
0010
0000
0001
0000
1000
0010
,  // measure 44
0100
0000
0001
0000
0010
0000
0100
1000
,  // measure 45
0001
0000
0100
0000
0010
0000
1000
0001
,  // measure 46
0010
0000
0001
0000
1000
0000
0010
0010
,  // measure 47
0100
0000
0001
0000
1000
0000
0100
0010
,  // measure 48
0002
0000
1003
0000
0010
0100
0001
0000
,  // measure 49
1001
0000
1000
0000
0010
0000
0100
0001
,  // measure 50
1000
0000
0100
0000
0010
0000
0100
0100
,  // measure 51
1000
0000
0001
0000
0100
0000
0010
1000
,  // measure 52
0100
0000
0010
0000
0001
0000
1000
0001
,  // measure 53
0100
0000
0010
0000
1000
0000
0001
0010
,  // measure 54
0100
0000
0010
0000
0001
0000
0100
0100
,  // measure 55
0001
0000
0010
0000
0100
0000
1000
0010
,  // measure 56
0100
0000
0001
0000
1000
0100
0010
0000
,  // measure 57
0011
1000
0101
1000
,  // measure 58
0011
0000
1010
0000
1000
1000
0001
0001
,  // measure 59
2000
0000
0000
0000
,  // measure 60
3000
0000
0000
0000
;

//---------------dance-single - ----------------
#NOTES:
     dance-single:
     :
     Medium:
     13:
     0.604036,0.600671,0.082445,0.129557,0.000000,359.000000,352.000000,7.000000,11.000000,0.000000,0.000000,0.604036,0.600671,0.082445,0.129557,0.000000,359.000000,352.000000,7.000000,11.000000,0.000000,0.000000:
0000
0000
0000
0000
,
0000
0000
0000
0000
,
0000
0000
0000
0000
,
0000
0000
0000
0000
,
0000
0000
0000
0000
,
1000
0100
0010
0001
,
1000
0000
0010
0000
0100
0000
0001
0001
,
1000
0100
0010
0001
,
2000
0000
0000
3010
0100
0001
0010
0000
,
0100
0010
0001
0000
0100
0010
1000
0000
,
0001
0100
0010
0000
1000
0100
0010
0000
,
1000
0010
0100
0000
1000
0010
0100
0000
,
0001
0010
0100
0000
1000
0001
0100
0000
,
0010
1000
0100
0000
0010
0001
1000
0000
,
0010
0100
0001
0000
1000
0100
0010
0000
,
0001
0100
0010
0000
0001
0010
0100
0000
,
0002
0000
0000
1003
1000
1000
1000
1000
,
0020
0000
0000
0000
0130
0000
0001
2000
,
0000
0000
0000
3100
0100
0100
0100
0100
,
0010
0000
0011
0000
,
0110
0011
1001
1010
,
1000
0010
0100
0010
1000
0001
0100
0000
,
0010
1000
0010
0100
0001
1000
0100
0000
,
0010
0001
0010
0100
1000
0010
0100
0000
,
0002
0000
0000
0013
0100
1000
0010
0000
,
0100
0001
1000
0010
0100
0001
1000
0000
,
0100
0010
0001
1000
0010
0100
0001
0000
,
1000
0010
0100
1000
0100
0010
0100
0000
,
0010
0001
0010
0100
0001
1000
0100
0010
,
0001
1000
0100
0010
0001
1000
0010
0000
,
0100
0001
1000
0010
0100
0001
1000
0000
,
0100
0010
1000
0010
0100
0010
0001
0000
,
2000
0000
0000
3010
0100
0001
0010
0000
,
0100
1000
0100
0010
0001
1000
0010
0000
,
0100
0001
1000
0010
0100
0001
1000
1000
,
0100
0010
0001
0010
0100
1000
0001
0000
,
0100
0010
1000
0001
0010
0100
1000
0010
,
0100
0001
1000
0010
0100
0001
1000
0000
,
0100
0010
0001
1000
0010
0100
0001
0001
,
1000
0100
0010
0001
1000
0010
0100
0000
,
0002
0000
0000
0013
0100
1000
0010
0000
,
1000
0001
0100
0001
1000
0001
0100
0001
,
1000
0001
0010
0001
1000
0001
0010
0000
,
0100
0010
1000
0010
0100
0010
0001
1000
,
0010
0100
0001
1000
0100
0010
0001
0100
,
0010
1000
0001
1000
0010
1000
0001
1000
,
0010
1000
0001
1000
0100
1000
0001
0000
,
0100
0010
0001
0010
0100
0010
1000
0001
,
0020
0000
0000
0130
1000
0010
0100
0000
,
0001
1000
0100
1000
0001
1000
0010
1000
,
0001
1000
0100
0010
0001
1000
0010
0010
,
0100
1000
0100
0010
0100
0001
0010
0100
,
1000
0001
0100
0001
1000
0100
1000
0010
,
0100
0001
1000
0001
0010
0001
1000
0001
,
0100
0010
1000
0010
0100
0001
1000
1000
,
0100
0010
0100
0001
0100
0010
0001
1000
,
0020
0000
0000
0130
0001
0010
0100
0000
,
1100
1000
0001
0000
0101
0001
1000
0000
,
0002
0000
0000
0013
0001
0001
0100
0100
,
0020
0000
0000
0000
,
0030
0000
0000
0000
;

//---------------dance-single - ----------------
#NOTES:
     dance-single:
     :
     Hard:
     15:
     0.827816,0.848007,0.106001,0.058889,0.553560,492.000000,483.000000,9.000000,5.000000,0.000000,0.000000,0.827816,0.848007,0.106001,0.058889,0.553560,492.000000,483.000000,9.000000,5.000000,0.000000,0.000000:
0000
0000
0000
0000
,
0000
0000
0000
0000
,
0000
0000
0000
0000
,
0000
0000
0000
0000
,
0000
0000
0000
0000
,
1000
0001
0100
0001
,
1000
0000
0100
0000
1000
0000
0001
0001
,
0100
0010
1000
0001
,
0100
0001
0100
0001
0100
0000
0010
0000
1000
0000
0100
0000
0010
0000
0000
0000
,
0100
0000
1000
0001
1000
0000
0000
0000
0001
0000
0100
0010
0100
0000
0000
0000
,
0001
0000
1000
0001
1000
0000
0000
0000
0100
0000
0000
0000
0010
0000
0010
0000
,
0001
0000
0100
0010
0100
0000
0000
0000
1000
0000
0100
0010
0100
0000
0000
0000
,
0001
0000
1000
0100
1000
0000
0000
0000
0100
0000
0010
0000
0001
0000
0001
0000
,
1000
0000
0010
0100
0010
0000
0000
0000
1000
0000
0001
1000
0001
0000
0000
0000
,
1000
0000
0100
0010
0100
0000
0000
0000
1000
0000
0000
0000
0001
0000
0001
0000
,
0100
0000
0010
0001
0010
0000
0000
0000
0100
0000
0001
1000
0001
0000
0000
0000
,
0010
0001
0010
0001
0010
0000
0100
0000
0100
0000
0100
0000
0110
0000
0100
0000
,
0120
0000
0000
0000
0032
0000
1003
0020
,
0000
0130
0001
1000
1000
1000
1000
1000
,
2010
0000
0000
0000
3001
0000
0010
0100
,
0110
1100
1001
1010
,
1000
0000
0001
0100
0001
0000
1000
0000
0010
0000
0100
0000
0001
0000
1000
0000
,
0001
0010
0001
1000
1000
1000
1000
1000
,
0100
0000
0010
0001
0010
0000
0100
0000
1000
0000
0010
0000
0100
0000
0001
0000
,
1000
0001
1000
0001
1000
0000
0100
0000
0010
0000
0001
0000
0100
0000
0000
0000
,
0010
0000
1000
0001
1000
0000
0010
0000
0100
0000
0001
0000
1000
0000
0100
0000
,
0010
0000
0001
1000
0001
0000
0100
0000
0100
0000
0100
0000
0100
0000
0100
0000
,
0001
0000
1000
0010
1000
0000
0100
0000
0010
0000
0001
0000
0100
0000
0001
0000
,
0010
0000
0100
1000
0100
0000
0010
0000
0010
0000
0010
0000
0010
0000
0010
0000
,
0001
0000
1000
0010
1000
0000
0001
0000
0100
0000
0010
0000
0100
0000
0001
0000
,
1000
0000
0100
0010
0100
0000
1000
0000
1000
0000
1000
0000
1000
0000
1000
0000
,
0010
0000
0100
0001
0100
0000
0010
0000
1000
0000
0100
0000
0010
0000
0001
0000
,
1000
0001
1000
0001
1000
0000
0100
0000
0010
0000
0001
0000
0100
0000
0000
0000
,
0010
0000
1000
0001
0100
0000
0010
0000
1000
0001
0100
0000
0010
0000
1000
0000
,
0001
0000
0010
0100
1000
0000
0001
0000
0010
0100
1000
0000
0001
0000
0001
0000
,
0100
0000
0010
1000
0100
0000
1000
0000
0010
1000
0100
0000
0010
0000
0001
0000
,
1000
0000
0100
0010
0001
0000
0100
0000
0010
1000
0100
0000
0010
0000
0010
0000
,
0001
0000
1000
0010
0100
0000
0001
0000
1000
0100
0010
0000
0001
0000
1000
0000
,
0010
0000
0100
0001
1000
0000
0100
0000
0010
0001
1000
0000
0010
0000
0010
0000
,
0100
0000
0001
0010
0100
0000
0010
0000
0001
0100
0010
0000
1000
0000
0001
0000
,
1000
0010
1000
0010
1000
0000
0010
0000
0100
0000
0001
0000
0010
0000
0000
0000
,
0100
0000
0010
0100
1000
0100
0010
0000
0001
0000
1000
0010
0100
0010
1000
0000
,
0001
0000
1000
0100
0010
0100
1000
0000
0010
0000
0000
0000
0100
0000
0100
0000
,
0001
0000
0010
0100
0001
0100
0010
0000
0001
0000
0100
0010
0001
0010
0100
0000
,
0001
0000
1000
0100
0010
0001
0100
0000
0010
0000
0000
0000
0100
0000
0100
0000
,
0001
0000
1000
0001
0100
0001
1000
0000
0010
0000
0100
0001
0100
0010
0100
0000
,
0001
0000
1000
0100
0010
0100
1000
0000
0010
0000
0000
0000
0100
0000
0100
0000
,
0010
0000
0100
1000
0100
0010
0100
0000
0001
0000
0010
0100
0001
0100
0010
0000
,
0001
1000
0001
1000
0001
0000
0100
0000
0010
0000
1000
0000
0100
0000
0100
0000
,
0010
0000
0100
0010
0001
0010
0100
0000
1000
0000
0001
0100
0010
0100
0001
0000
,
1000
0000
0001
0010
0100
0010
0001
0000
0100
0000
0001
0000
0010
0000
0010
0000
,
0001
0000
0100
0010
0001
0010
0100
0000
0001
0000
0010
0100
0001
0100
0010
0000
,
0001
0000
1000
0010
0100
0001
0010
0000
0100
0000
0010
0000
0001
0000
0001
0000
,
1000
0000
0001
1000
0010
1000
0001
0000
0100
0000
0010
1000
0010
0100
0010
0000
,
1000
0000
0001
0010
0100
0010
0001
0000
0100
0000
0001
0000
0010
0000
0010
0000
,
0100
0000
0010
1000
0010
0100
0010
0000
0001
0000
0100
0010
0001
0010
0100
0000
,
0001
1000
0001
1000
0001
0000
0010
0000
0100
0000
1000
0000
0010
0000
0010
0000
,
0110
0100
0001
1000
1100
0100
0010
0001
,
1000
0001
1000
0001
1000
0000
0010
0000
0100
0000
0100
0000
0001
0000
0001
0000
,
0020
0000
0000
0000
,
0030
0000
0000
0000
;

//---------------dance-double - ----------------
#NOTES:
     dance-double:
     :
     Beginner:
     3:
     0.161525,0.347447,0.153112,0.129557,0.000000,96.000000,83.000000,13.000000,11.000000,0.000000,0.000000,0.161525,0.347447,0.153112,0.129557,0.000000,96.000000,83.000000,13.000000,11.000000,0.000000,0.000000:
00000000
00000000
00000000
00000000
,
00000000
00000000
00000000
00000000
,
00000000
00000000
00000000
00000000
,
00000000
00000000
00000000
00000000
,
00000000
00000000
00000000
00000000
,
00010000
00000000
00000000
00000000
,
00001000
00000000
00000000
00000000
,
01000000
00000000
00000000
00000000
,
00020000
00000000
00030000
00000000
,
10010000
00000000
10000000
00000000
,
00010000
00000000
00000000
00000000
,
01000000
00000000
00001000
00000000
,
00010000
00000000
00000000
00000000
,
00000100
00000000
00001000
00000000
,
00000001
00000000
00000000
00000000
,
00000100
00000000
00000010
00000000
,
00002000
00000000
00003000
00000000
,
00002002
00000000
00000000
00000000
,
00003003
00000000
00000000
00000000
,
00000220
00000000
00000000
00000000
,
00000330
00000000
00000000
00000000
,
00001001
00000000
00001000
00000000
,
00000010
00000000
00000000
00000000
,
00010000
00000000
00001000
00000000
,
00200000
00000000
00300000
00000000
,
01100000
00000000
01000000
00000000
,
10000000
00000000
00000000
00000000
,
00010000
00000000
01000000
00000000
,
00001000
00000000
00000000
00000000
,
00010000
00000000
00000100
00000000
,
00001000
00000000
00000000
00000000
,
00000010
00000000
00000100
00000000
,
00000002
00000000
00000003
00000000
,
00001001
00000000
00000001
00000000
,
00001000
00000000
00000000
00000000
,
00000100
00000000
00000010
00000000
,
00000001
00000000
00000000
00000000
,
00000100
00000000
00000010
00000000
,
00010000
00000000
00000000
00000000
,
00001000
00000000
00100000
00000000
,
02000000
00000000
03000000
00000000
,
01100000
00000000
00100000
00000000
,
00010000
00000000
10000000
00000000
,
00010000
00000000
01000000
00000000
,
00100000
00000000
01000000
00000000
,
00010000
00000000
01000000
00000000
,
00001000
00000000
00010000
00000000
,
00000100
00000000
00010000
00000000
,
00000020
00000000
00000030
00000000
,
00001001
00000000
00001000
00000000
,
00000010
00000000
00000100
00000000
,
00000010
00000000
00001000
00000000
,
00000001
00000000
00001000
00000000
,
00000100
00000000
00000010
00000000
,
00000100
00000000
00010000
00000000
,
00001000
00000000
01000000
00000000
,
00020000
00000000
00030000
00000000
,
10010000
00000000
10010000
00000000
,
10010000
00000000
10010000
00000000
,
10010000
00000000
00000000
00000000
;

//---------------dance-double - ----------------
#NOTES:
     dance-double:
     :
     Easy:
     10:
     0.413908,0.494671,0.435781,0.129557,0.000000,246.000000,209.000000,37.000000,11.000000,0.000000,0.000000,0.413908,0.494671,0.435781,0.129557,0.000000,246.000000,209.000000,37.000000,11.000000,0.000000,0.000000:
00000000
00000000
00000000
00000000
,
00000000
00000000
00000000
00000000
,
00000000
00000000
00000000
00000000
,
00000000
00000000
00000000
00000000
,
00000000
00000000
00000000
00000000
,
00010000
00001000
00010000
00001000
,
00100000
00001000
00100000
00001000
,
00100000
01000000
00100000
01000000
,
00200000
00000000
00310000
00010000
,
10010000
10000000
00100000
01000000
,
00100000
00000000
10000000
00000000
00010000
00000000
00100000
00100000
,
00001000
00010000
00000010
00001000
,
00000001
00000000
00000010
00000000
00000100
00000000
00001000
00001000
,
00000001
00000100
00000010
00010000
,
00001000
00000000
00100000
00000000
01000000
00000000
00100000
00100000
,
00010000
10000000
00100000
01000000
,
00020000
00000000
00030000
10010000
,
20020000
00000000
00000000
00000000
,
30030000
00000000
00000000
01100000
,
01100000
00000000
01100000
00000000
,
10010000
01100000
10010000
01100000
,
10000000
00010000
01000000
00001000
,
00010000
00000100
00000010
00000100
,
00001000
00000010
00000100
00000001
,
00002000
00000000
00003100
00000010
,
00000011
00000001
00000100
00000010
,
00000100
00000000
00000001
00000000
00001000
00000000
00000100
00000100
,
00000010
00000001
00000100
00000010
,
00001000
00000000
00000010
00000000
00010000
00000000
00001000
00001000
,
00100000
01000000
00100000
00001000
,
00010000
00000000
00001000
00000000
01000000
00000000
00010000
00010000
,
01000000
00010000
00100000
01000000
,
20000000
00000000
30010000
01000000
,
00100000
10000000
00000000
00000000
10100000
00000000
10100000
00000000
,
00000000
10010000
00000000
00000000
10010000
00000000
00000000
00110000
,
00000000
00110000
00000000
00000000
00011000
00000000
00011000
00000000
,
00000000
00010010
00000000
00000000
00001010
00000000
00001000
00000010
,
00000000
00001010
00000000
00000000
00001001
00000000
00001001
00000000
,
00000000
00000011
00000000
00000000
00000110
00000000
00000000
00001100
,
00000000
00001100
00000000
00000000
00010100
00000000
00010100
00000000
,
00020000
00000000
00000000
00000000
00031000
01000000
00010000
00000000
,
01000000
00100000
01000000
00010000
,
10000000
00000000
01000000
00000000
00100000
00000000
01000000
00100000
,
00001000
00010000
00000010
00001000
,
00000010
00000000
00000100
00000000
00000001
00000000
00001000
00000100
,
00000010
00000001
00001000
00000010
,
00000100
00000000
00000010
00000000
00010000
00000000
00001000
00100000
,
01000000
00100000
00010000
01000000
,
00200000
00000000
00000000
00000000
10300000
00010000
01000000
00000000
,
00100000
10000000
00010000
01000000
,
00001000
00000000
00010000
00000000
00000100
00000000
00000010
00000100
,
00001000
00000001
00000100
00000010
,
00001000
00000000
00000100
00000000
00000010
00000000
00000100
00010000
,
00001000
01000000
00100000
01000000
,
00001000
00000000
00010000
00000000
00001000
00000000
01000000
00010000
,
10000000
01000000
00100000
00010000
,
02000000
00000000
00000000
00000000
03001000
00010000
00000100
00000000
,
00001100
00000000
00001001
00000000
,
00001100
00001001
00000101
00000110
,
00002002
00000000
00000000
00000000
,
00003003
00000000
00000000
00000000
;

//---------------dance-double - ----------------
#NOTES:
     dance-double:
     :
     Medium:
     13:
     0.578798,0.600671,0.212002,0.129557,0.000000,344.000000,326.000000,18.000000,11.000000,0.000000,0.000000,0.578798,0.600671,0.212002,0.129557,0.000000,344.000000,326.000000,18.000000,11.000000,0.000000,0.000000:
00000000
00000000
00000000
00000000
,
00000000
00000000
00000000
00000000
,
00000000
00000000
00000000
00000000
,
00000000
00000000
00000000
00000000
,
00000000
00000000
00000000
00000000
,
00010000
00001000
01000000
00001000
,
00010000
00000000
00000100
00000000
00010000
00000000
00000100
00001000
,
00000001
00000100
00000010
00001000
,
00000002
00000000
00000000
00000013
00000100
00001000
00000010
00000000
,
00000100
00000001
00001000
00000000
00000100
00000010
00000001
00000000
,
00000100
00000010
00001000
00000000
00000010
00010000
00001000
00001000
,
00100000
01000000
10000000
00000000
00100000
00010000
00001000
00000000
,
00010000
00000100
00000010
00000000
00000100
00001000
00000001
00000100
,
00000010
00001000
00000001
00000000
00000010
00000100
00001000
00000000
,
00000001
00000100
00000010
00000000
00010000
00001000
00100000
00100000
,
01000000
00010000
00001000
00000000
00010000
00001000
00000100
00000000
,
00000020
00000000
00000000
00000130
00000001
00000010
00000100
00000000
,
00002200
00000000
00000000
00000000
,
00000000
00000300
00000000
00003001
00000001
00000001
00000001
00000001
,
00000100
00000000
00000101
00000000
,
00001010
00011000
00110000
11000000
,
10000000
00100000
01000000
00100000
10000000
00000000
10010000
00000000
,
00010000
00100000
01000000
00100000
00001000
00000000
00011000
00000000
,
00010000
00000010
00000100
00000010
00001000
00000000
00001001
00000000
,
00000002
00000000
00000000
00000013
00000100
00001000
00000010
00000000
,
00000100
00000001
00001000
00000001
00000100
00000000
00000110
00000000
,
00000010
00001000
00000001
00000010
00000100
00000000
00001000
00001000
,
00000100
00000010
00001000
00010000
01000000
00000000
01100000
00000000
,
10000000
00100000
10000000
01000000
00100000
00000000
00001000
00001000
,
00010000
00000010
00001000
00000010
00010000
00000000
00001010
00000000
,
00000010
00000100
00000001
00000100
00000010
00000000
00001010
00000000
,
00001000
00000010
00000100
00001000
00010000
00000000
00011000
00000000
,
00002000
00000000
00000000
00103000
01000000
10000000
00100000
00000000
,
01000000
00010000
00000000
01000000
00010000
00000000
10000000
01000000
,
00100000
00010000
00000000
01000000
00100000
00000000
01000000
00100000
,
00010000
00001000
00000000
00010000
00000100
00000000
00001100
00000000
,
00001000
00000010
00000000
00001000
00000010
00000000
00000001
00000010
,
00000100
00000001
00000000
00000100
00000001
00000000
00001000
00000100
,
00000010
00000001
00000000
00000100
00000010
00000000
00000100
00000010
,
00000100
00001000
00000000
00010000
00001000
00000000
00011000
00000000
,
00020000
00000000
00000000
00130000
01000000
00010000
00100000
00000000
,
01000000
10000000
01000000
00100000
00010000
10000000
00100000
00000000
,
01000000
00010000
00100000
00010000
01000000
00001000
00010000
00000000
,
00001000
00000010
00000001
00000100
00000010
00001000
00000001
00000000
,
00000010
00000100
00000010
00001000
00010000
00100000
01000000
01000000
,
00010000
10000000
01000000
10000000
00010000
00100000
01000000
00000000
,
10000000
00100000
01000000
00010000
00100000
01000000
10000000
00000000
,
00100000
00010000
00001000
00000100
00000010
00001000
00000001
00000000
,
00000020
00000000
00000000
00000130
00001000
00000010
00000100
00000000
,
00000001
00001000
00000100
00001000
00000001
00001000
00000010
00001000
,
00000100
00010000
00001000
00100000
01000000
00100000
00001000
01000000
,
00100000
00010000
00001000
00000010
00000100
00001000
00000010
00000100
,
00000001
00000010
00000100
00000010
00000001
00000100
00001000
00010000
,
01000000
00100000
01000000
10000000
01000000
00100000
00010000
01000000
,
00100000
01000000
00010000
01000000
00001000
00010000
00000100
00001000
,
00000010
00000100
00001000
00010000
01000000
00100000
00010000
01000000
,
00200000
00000000
00000000
01300000
00010000
00100000
01000000
00000000
,
11000000
10000000
00010000
00000000
01010000
01000000
00001000
00000000
,
00020000
00000000
00000000
00031000
00000010
00000010
00000100
00000100
,
00002000
00000000
00000000
00000000
,
00003000
00000000
00000000
00000000
;

//---------------dance-double - ----------------
#NOTES:
     dance-double:
     :
     Hard:
     15:
     0.799213,0.812673,0.094223,0.094223,0.429892,475.000000,467.000000,8.000000,8.000000,0.000000,0.000000,0.799213,0.812673,0.094223,0.094223,0.429892,475.000000,467.000000,8.000000,8.000000,0.000000,0.000000:
00000000
00000000
00000000
00000000
,
00000000
00000000
00000000
00000000
,
00000000
00000000
00000000
00000000
,
00000000
00000000
00000000
00000000
,
00000000
00000000
00000000
00000000
,
00010000
00001000
00000010
00000100
,
00001000
00000000
00000001
00000000
00000100
00000000
00000010
00000010
,
00001000
00000100
00000010
00001000
,
00010000
00001000
00010000
00001000
00010000
00000000
00001000
00000000
00100000
00000000
00010000
00000000
01000000
00000000
00000000
00000000
,
00100000
10000000
01000000
00100000
00001000
00010000
00000010
00001000
,
00000001
00000010
00000100
00000010
00000001
00000100
00000010
00000010
,
00001000
00000100
00000010
00001000
00010000
00100000
01000000
00010000
,
00100000
01000000
10000000
00100000
01000000
00010000
10000000
10000000
,
01000000
00100000
00010000
01000000
00100000
01000000
00001000
00010000
,
00000100
00000010
00000001
00000100
00000010
00001000
00000001
00000010
,
00000100
00000010
00001000
00010000
00100000
01000000
00010000
00100000
,
01000000
10000000
01000000
10000000
01000000
00000000
00100000
00000000
00100000
00000000
00100000
00000000
00100000
00000000
00100000
00000000
,
00102000
00000000
00000000
00000000
00023000
00000000
00030010
00002000
,
00000000
00000000
00000000
00003001
00000001
00000001
00000001
00000001
,
00002002
00003003
00002200
00003300
,
00000110
00001100
00011000
01010000
,
01000000
00010000
00100000
01000000
00100000
00010000
10000000
00100000
,
01000000
00001000
00010000
00000100
00000100
00000100
00000100
00000100
,
00000010
00000001
00000100
00000010
00001000
00000100
00000010
00000001
,
00001000
00000010
00001000
00000010
00001000
00000000
00000100
00000000
00000010
00000000
00000001
00000000
00000100
00000000
00000000
00000000
,
00000010
00000000
00001000
00000001
00000100
00000000
00000010
00000000
00000100
00000000
00001000
00000000
00010000
00000000
01000000
00000000
,
00100000
00000000
00010000
10000000
00100000
00000000
01000000
00000000
01000000
00000000
01000000
00000000
01000000
00000000
01000000
00000000
,
00010000
00000000
10000000
01000000
00100000
00000000
01000000
00000000
00010000
00000000
00001000
00000000
00000100
00000000
00000010
00000000
,
00001000
00000000
00000001
00000010
00000100
00000000
00000010
00000000
00000001
00000000
00000100
00000000
00000010
00000000
00001000
00000000
,
00000100
00000000
00000010
00000001
00001000
00000000
00000010
00000000
00000100
00000000
00001000
00000000
00010000
00000000
01000000
00000000
,
00100000
00000000
00010000
10000000
00100000
00000000
01000000
00000000
01000000
00000000
01000000
00000000
01000000
00000000
01000000
00000000
,
00010000
00000000
00100000
01000000
10000000
00000000
00100000
00000000
01000000
00000000
00100000
00000000
00010000
00000000
00001000
00000000
,
00010000
00000100
00010000
00000100
00010000
00000000
00000100
00000000
00000010
00000000
00000001
00000000
00000100
00000000
00000000
00000000
,
00000010
00000000
00001000
00000001
00000100
00000000
00000010
00000000
00001000
00000001
00000100
00000000
00000010
00000000
00000000
00000000
,
00001000
00000000
00000001
00000010
00000100
00000000
00001000
00000000
00000001
00000010
00000100
00000000
00010000
00000000
00001000
00000000
,
01000000
00000000
00010000
01000000
00100000
00000000
01000000
00000000
00010000
00100000
01000000
00000000
10000000
00100000
01000000
00000000
,
00010000
00000000
10000000
01000000
00100000
00000000
00010000
00000000
01000000
00100000
00010000
00000000
00001000
00000000
00010000
00000100
,
00001000
00000000
00000001
00000100
00000010
00000000
00001000
00000000
00000001
00000010
00000100
00000000
00010000
00000000
00000000
00000000
,
00001000
00000000
01000000
00010000
10000000
00000000
01000000
00000000
00100000
00010000
10000000
00000000
00100000
00000000
01000000
00000000
,
00001000
00000000
00010000
00000100
00001000
00000000
00000010
00000000
00000100
00000001
00000010
00000000
00001000
00010000
00001000
00000000
,
00100000
00001000
00100000
00001000
00100000
00000000
01000000
00000000
10000000
00000000
00100000
00000000
01000000
00000000
00010000
00000000
,
10000000
00000000
00100000
01000000
00010000
00000000
01000000
00000000
00001000
00000000
01000000
00001000
00010000
00000000
00000100
00000000
,
00001000
00000000
00000010
00000100
00000001
00000000
00000010
00000000
00000100
00000000
00000000
00000000
00010000
00000000
00010000
00000000
,
00001000
00000000
00010000
00100000
01000000
00000000
00010000
00000000
10000000
00000000
01000000
00100000
00010000
00000000
01000000
00000000
,
00100000
00000000
10000000
00010000
00100000
00000000
01000000
00000000
00010000
00000000
00000000
00000000
00001000
00000000
00001000
00000000
,
00010000
00000000
00000010
00001000
00000001
00000000
00000010
00000000
00000100
00000000
00001000
00000010
00000100
00000000
00000001
00000000
,
00001000
00000000
00000100
00000010
00000001
00000000
00001000
00000000
00000010
00000000
00000000
00000000
00000100
00000000
00000100
00000000
,
00000010
00000000
00000100
00001000
00010000
00000000
00001000
00000000
00100000
00000000
01000000
00100000
00010000
00000000
01000000
00000000
,
00100000
10000000
00100000
10000000
00100000
00000000
01000000
00000000
00001000
00000000
00100000
00000000
01000000
00000000
00100000
00000000
,
00001000
00000000
00010000
00001000
00010000
00001000
00010000
00000000
00000010
00000000
00001000
00000010
00001000
00000010
00001000
00000000
,
00000001
00000000
00000010
00000100
00000010
00000100
00000010
00000000
00000001
00000000
00000000
00000000
00001000
00000000
00001000
00000000
,
00000010
00000000
00000100
00001000
00010000
00001000
00010000
00000000
00001000
00000000
00100000
00010000
00100000
01000000
00100000
00000000
,
00010000
00000000
10000000
00100000
10000000
00100000
10000000
00000000
00010000
00000000
00000000
00000000
01000000
00000000
01000000
00000000
,
00010000
00000000
10000000
01000000
10000000
01000000
10000000
00000000
00010000
00000000
01000000
00001000
01000000
00001000
01000000
00000000
,
00001000
00000000
00010000
00000100
00010000
00000100
00010000
00000000
00000100
00000000
00000000
00000000
00001000
00000000
00001000
00000000
,
00000100
00000000
00000010
00001000
00010000
00001000
00010000
00000000
00100000
00000000
01000000
00100000
01000000
00010000
01000000
00000000
,
00010000
10000000
00010000
10000000
00010000
00000000
00100000
00000000
01000000
00000000
10000000
00000000
00100000
00000000
01000000
00000000
,
00001000
00010000
00000100
00000010
00000110
00000100
00001000
00000001
,
00000100
00000010
00000100
00000010
00000100
00000000
00000001
00000000
00000010
00000000
00001000
00000000
00010000
00000000
00100000
00000000
,
02000000
00000000
00000000
00000000
,
03000000
00000000
00000000
00000000
;
