#TITLE:Afterglow;
#SUBTITLE:;
#ARTIST:TriangleReality;
#TITLETRANSLIT:;
#SUBTITLETRANSLIT:;
#ARTISTTRANSLIT:;
#GENRE:House;
#CREDIT:;
#BANNER:Afterglow.png;
#BACKGROUND:Afterglow-bg.png;
#LYRICSPATH:;
#CDTITLE:cdtitle.png;
#MUSIC:Afterglow.ogg;
#OFFSET:0.000000;
#SAMPLESTART:48.750000;
#SAMPLELENGTH:15.000000;
#SELECTABLE:YES;
#BPMS:0.000000=128.000000
,234.000000=124.000000
,238.000000=120.000000
,242.000000=116.000000
,246.000000=113.000000
,249.000000=109.000000
,253.000000=105.000000
,257.000000=102.000000
,259.500000=100.000000
;
#STOPS:
;
#BGCHANGES:;
#KEYSOUNDS:;
#ATTACKS:;

//---------------dance-single - ----------------
#NOTES:
     dance-single:
     :
     Beginner:
     1:
     0.068571,0.097524,0.068571,0.000000,0.000000,63.000000,54.000000,9.000000,0.000000,0.000000,0.000000,0.068571,0.097524,0.068571,0.000000,0.000000,63.000000,54.000000,9.000000,0.000000,0.000000,0.000000:
0000
0000
0000
0000
,
0000
0000
0000
0000
,
1000
0000
0000
0000
,
0000
0000
0000
0000
,
0001
0000
0000
0000
,
0000
0000
0000
0000
,
1000
0000
0000
0000
,
0000
0000
0000
0000
,
0001
0000
0000
0000
,
0000
0000
0000
0000
,
1000
0000
0000
0000
,
0001
0000
0000
0000
,
0100
0000
0000
0000
,
0010
0000
0000
0000
,
1000
0000
0000
0000
,
0001
0000
0000
0000
,
0100
0000
0000
0000
,
0000
0000
0000
0000
,
1001
0000
0000
0000
,
0001
0000
0000
0000
,
1000
0000
0000
0000
,
0100
0000
0000
0000
,
1001
0000
0000
0000
,
1000
0000
0000
0000
,
0001
0000
0000
0000
,
0100
0000
0000
0000
,
1001
0000
0000
0000
,
0001
0000
0000
0000
,
0100
0000
0000
0000
,
0010
0000
0000
0000
,
1001
0000
0000
0000
,
1000
0000
0000
0000
,
0001
0000
0000
0000
,
0010
0000
0000
0000
,
1001
0000
0000
0000
,
0000
0000
0000
0000
,
1001
0000
0000
0000
,
1000
0000
0000
0000
,
0001
0000
0000
0000
,
0100
0000
0000
0000
,
0010
0000
0000
0000
,
1000
0000
0000
0000
,
1001
0000
0000
0000
,
0001
0000
0000
0000
,
1000
0000
0000
0000
,
0100
0000
0000
0000
,
0110
0000
0000
0000
,
0010
0000
0000
0000
,
0001
0000
0000
0000
,
1000
0000
0000
0000
,
1001
0000
0000
0000
,
0000
0000
0000
0000
,
0000
0000
0000
0000
,
0000
0000
0000
0000
,
1000
0000
0000
0000
,
0001
0000
0000
0000
,
1000
0000
0000
0000
,
0001
0000
0000
0000
,
0100
0000
0000
0000
,
0010
0000
0000
0000
,
0100
0000
0000
0000
,
0010
0000
0000
0000
,
1000
0000
0000
0000
,
0001
0000
0000
0000
,
1000
0000
0000
0000
;

//---------------dance-single - ----------------
#NOTES:
     dance-single:
     :
     Easy:
     3:
     0.114286,0.172000,0.053333,0.091429,0.000000,105.000000,98.000000,7.000000,12.000000,0.000000,0.000000,0.114286,0.172000,0.053333,0.091429,0.000000,105.000000,98.000000,7.000000,12.000000,0.000000,0.000000:
0000
0000
0000
0000
,
0000
0000
0000
0000
,
2001
0000
0000
0000
,
0000
0000
0000
0000
,
3020
0000
0000
0000
,
0000
0000
0000
0000
,
0230
0000
0000
0000
,
0000
0000
0000
0000
,
0302
0000
0000
0000
,
0000
0000
0000
0000
,
1003
0000
0001
0000
,
1000
0000
0001
0000
,
0100
0000
0010
0000
,
0100
0000
0010
0000
,
1000
0000
0001
0000
,
1000
0000
0001
0000
,
0020
0000
0000
0000
,
0000
0000
0000
0030
,
0100
0000
1000
0000
,
0100
0000
1000
0000
,
0001
0000
0100
0000
,
0001
0000
0100
0000
,
0010
0000
1000
0000
,
0010
0000
1000
0000
,
0001
0000
0010
0000
,
0200
0000
0000
0300
,
1001
0000
0001
0000
,
0100
0000
0010
0000
,
1000
0000
0001
0000
,
0100
0000
0010
0000
,
1001
0000
0001
0000
,
0010
0000
0100
0000
,
1000
0000
0001
0000
,
0020
0000
0000
0030
,
2002
0000
0000
0000
,
0000
0003
3000
0100
,
1001
0000
0001
0000
,
0100
0000
0010
1000
,
0010
0000
0100
0000
,
0001
0000
1000
0001
,
1000
0000
0100
0000
,
0010
0000
0001
1000
,
1001
0000
0001
0000
,
0100
0000
0001
0000
,
1000
0000
0100
0000
,
1000
0000
0001
0000
,
0100
0000
0010
0000
,
1000
0000
0001
0000
,
0010
0000
0001
0000
,
2000
0000
0000
3000
,
2002
0000
0000
0000
,
0000
0000
0000
0000
,
0000
0000
0000
0000
,
0000
0000
3003
0000
,
1000
0000
0000
0000
,
0001
0000
0000
0000
,
0100
0000
0000
0000
,
0010
0000
0000
0000
,
1000
0000
0001
0000
,
1000
0000
0010
0000
,
0100
0000
0010
0000
,
1000
0000
0100
0000
,
0010
0000
0001
0000
,
1000
0000
0010
0000
,
0100
0000
0001
0000
;

//---------------dance-single - ----------------
#NOTES:
     dance-single:
     :
     Medium:
     7:
     0.259048,0.370000,0.053333,0.312381,0.072381,238.000000,231.000000,7.000000,41.000000,0.000000,0.000000,0.259048,0.370000,0.053333,0.312381,0.072381,238.000000,231.000000,7.000000,41.000000,0.000000,0.000000:
0000
0000
0000
0000
,
0000
0000
0000
0000
,
2001
0000
0000
0000
,
0000
0000
0000
0000
,
3200
0000
0000
0000
,
0000
0000
0000
0000
,
0320
0000
0000
0000
,
0000
0000
0000
0000
,
0032
0000
0000
0000
,
2003
0000
0000
0000
,
3001
0100
0001
0100
,
0010
1000
0010
1000
,
0001
0010
0001
0010
,
0100
1000
0100
1000
,
0010
0100
0001
0010
,
0100
1000
0010
0100
,
0002
0000
0000
0000
,
0000
0000
0000
0003
,
2001
0000
0000
0000
3200
0300
0000
0000
0200
0300
0000
0000
0200
0300
0010
0000
,
0002
0000
0000
0000
0103
0000
0010
0000
1000
0000
0000
0001
0000
0000
0010
0000
,
0200
0000
0000
0000
2300
3000
0000
0000
2000
3000
0000
0000
2000
3000
0000
0000
,
0002
0000
0000
0000
0203
0300
0000
0000
0020
0030
0000
0000
0020
0030
0000
0000
,
1002
0000
0000
0000
0023
0030
0000
0000
0020
0030
0000
0000
0020
0030
0100
0000
,
2000
0000
0000
0000
3010
0000
0100
0000
0001
0000
0000
1000
0000
0000
0100
0000
,
0020
0000
0000
0000
0032
0003
0000
0000
0002
0003
0000
0000
0002
0003
0000
0000
,
2000
0000
0000
3000
,
2001
0000
3001
0100
0010
0000
1000
0100
,
0020
0000
1030
0010
0001
0010
0100
0010
,
0001
0000
0000
0000
1000
0000
0010
0000
0100
0000
0000
0001
0000
0000
1000
0000
,
0200
0000
0301
0100
1000
0100
0010
0100
,
2000
0000
3001
0010
0100
0000
1000
0010
,
0200
0000
1300
0100
0001
0100
0010
0100
,
0002
0000
0000
0000
1003
0000
0100
0000
0010
0000
0000
0001
0000
0000
1000
0000
,
0020
0000
0100
0130
,
2002
0000
0000
0000
,
0000
0000
3003
0000
1000
0001
1001
0000
,
1000
0000
0100
0000
0010
0001
1000
0000
,
0010
0000
0100
0000
0001
0100
0010
0001
,
0010
0000
0100
0000
0001
1000
0100
0000
,
0010
0000
0100
0000
1000
0001
0100
0010
,
0001
0000
0010
0000
0100
0001
1000
0000
,
0100
0000
0010
0000
0001
1000
0010
0000
,
0100
0001
0000
0100
0010
1000
0000
0010
,
0100
0001
0000
1000
0100
0010
0000
0001
,
0010
0100
0000
1000
0001
0100
0000
0010
,
1000
0001
0000
0100
0010
1000
0000
0100
,
0010
0001
0000
0100
0010
0001
0000
0010
,
0100
0001
0000
1000
0100
0010
0000
1000
,
0010
0100
0000
1000
0010
0100
0000
0001
,
0020
0000
0100
0130
,
2002
0000
0000
0000
,
0000
0000
0000
0000
,
0000
0000
0000
0000
,
0000
0000
3003
0000
,
1000
0000
0010
0000
,
0100
0000
0001
0000
,
1000
0000
0100
0000
,
0010
0000
0001
0000
,
1000
0010
0100
0001
,
1000
0100
0010
0001
,
1000
0010
0100
0001
,
1000
0100
0010
0001
,
1000
0010
0100
0001
,
1000
0100
0010
0001
,
1000
0010
0100
0001
;

//---------------dance-single - ----------------
#NOTES:
     dance-single:
     :
     Hard:
     12:
     0.386395,0.508571,0.053333,0.228571,0.259048,355.000000,348.000000,7.000000,30.000000,0.000000,0.000000,0.386395,0.508571,0.053333,0.228571,0.259048,355.000000,348.000000,7.000000,30.000000,0.000000,0.000000:
0000
0000
0000
0000
,
0000
0000
0000
0000
,
2001
0000
0000
0000
,
0000
0000
3020
0000
,
0230
0000
0000
0000
,
0000
0000
0000
0000
,
0302
0000
0000
0000
,
0000
0000
0023
0000
,
0230
0000
0000
0000
,
2300
0000
0000
0000
,
3001
0100
0010
0100
,
0001
1000
0100
0010
,
0100
0000
0000
0000
1000
0000
0000
0000
0001
0000
0000
0100
0000
0000
0100
0000
,
0010
0000
0000
0000
1000
0000
0000
0000
0001
0000
0000
0010
0000
0000
0010
0000
,
0100
0000
0000
0000
1000
0000
0000
0000
0010
0000
0000
0100
0000
0000
0100
0000
,
0001
0000
0000
0000
1000
0000
0000
0000
0100
0000
0000
0010
0000
0000
0010
0000
,
0002
0000
0000
0000
,
0000
0000
0000
0003
,
1002
0000
0000
0000
1003
0010
0000
0000
1000
0010
0000
0000
0100
0000
0001
0000
,
2000
0000
0000
0000
3001
0000
0010
0000
0100
0000
0001
0100
0000
0000
0010
0000
,
0002
0000
0000
0000
1003
0100
0000
0000
1000
0100
0000
0000
1000
0100
0000
0000
,
0020
0000
0000
0000
0031
0100
0000
0000
0001
1000
0000
0000
0001
1000
0000
0000
,
2100
0000
0000
0000
3001
0100
0000
0000
0001
0100
0000
0000
0010
0000
1000
0000
,
0002
0000
0000
0000
1003
0000
0100
0000
0010
0000
1000
0010
0000
0000
0100
0000
,
2000
0000
0000
0000
3001
0010
0000
0000
0001
0010
0000
0000
0001
0010
0000
0000
,
0200
0000
1300
0001
,
0102
0000
1003
0010
0100
0100
0001
1000
,
0200
0000
0000
0000
0310
0001
0010
0000
0001
1000
0001
0000
1000
0001
1000
0000
,
0020
0000
0000
0000
0130
0000
0001
0000
1000
0000
0100
0010
0000
0010
0001
0000
,
2000
0000
0000
0000
3010
0100
0010
0000
0100
0001
0100
0000
0001
0100
0001
0000
,
1002
0000
0013
0100
1000
1000
0001
0100
,
0020
0000
0000
0000
1030
0001
1000
0000
0001
0010
0001
0000
0010
0001
0010
0000
,
0200
0000
0000
0000
1300
0000
0001
0000
0100
0000
0010
1000
0000
1000
0001
0000
,
2000
0000
0010
3010
,
0202
0000
0000
0003
,
0010
0000
0000
0000
0010
0000
0000
0000
0310
0000
1000
0001
0010
0000
0001
0000
,
1000
0000
0010
0000
0100
0000
0001
0000
1000
0000
1000
0000
0100
0010
0100
0000
,
1000
0000
0001
0000
1000
0000
0010
0000
0100
0000
0010
0000
0001
0010
0100
0000
,
0001
0000
1000
0000
0001
0000
0010
0000
0100
0000
0100
0000
1000
0001
1000
0000
,
0010
0000
0100
0000
0001
0000
1000
0000
0100
0000
1000
0000
0010
0100
1000
0000
,
0100
0000
0010
0000
0100
0000
0001
0000
1000
0000
1000
0000
0010
0100
0010
0000
,
1000
0000
0001
0000
1000
0000
0100
0000
0010
0000
0010
0000
0001
1000
0001
1000
,
0001
0000
0010
0001
0000
0000
0001
1000
0000
0000
1000
0010
0000
0000
0010
0100
,
0000
0000
0100
0001
0000
0000
0001
0010
0000
0000
0010
0100
0000
0000
0100
1000
,
0000
0000
1000
0001
0000
0000
0001
0100
0000
0000
0100
0010
0000
0000
0010
1000
,
0000
0000
1000
0100
0000
0000
0100
0010
0000
0000
0010
0001
0000
0000
0001
1000
,
0000
0000
1000
0010
0000
0000
0010
0100
0000
0000
0100
1000
0000
0000
1000
0100
,
0000
0000
0100
0010
0000
0000
0010
1000
0000
0000
1000
0100
0000
0000
0100
0010
,
0000
0000
0010
1000
0000
0000
1000
0010
0000
0000
0010
0100
0000
0000
0100
1000
,
0002
0000
0100
0103
,
2020
0000
0000
0000
,
0000
0000
0000
0000
,
0000
0000
0000
0000
,
0000
0000
0000
3030
,
1000
0000
0000
0100
0010
0000
0100
0000
,
1000
0000
0000
0001
0100
0000
0010
0000
,
0100
0000
0000
0001
1000
0000
0100
0000
,
0010
0000
0001
1000
0010
0000
0100
0000
,
0010
1000
0100
0010
0100
1000
0001
0100
,
0001
0010
0100
0010
0001
1000
0010
1000
,
0100
0010
0001
1000
0010
0100
0001
1000
,
0100
1000
0010
0100
0001
1000
0100
0010
,
0001
0100
0010
1000
0001
0010
0100
0010
,
0001
0100
0010
1000
0001
0010
0100
1000
,
0010
0100
0001
1000
0100
0010
0001
0200
,
0000
0000
0000
0000
,
0000
0000
0000
0300
;

//---------------dance-double - ----------------
#NOTES:
     dance-double:
     :
     Beginner:
     1:
     0.068571,0.097524,0.068571,0.000000,0.000000,63.000000,54.000000,9.000000,0.000000,0.000000,0.000000,0.068571,0.097524,0.068571,0.000000,0.000000,63.000000,54.000000,9.000000,0.000000,0.000000,0.000000:
// measure 0
00000000
00000000
00000000
00000000
,  // measure 1
00000000
00000000
00000000
00000000
,  // measure 2
00001000
00000000
00000000
00000000
,  // measure 3
00000000
00000000
00000000
00000000
,  // measure 4
00010000
00000000
00000000
00000000
,  // measure 5
00000000
00000000
00000000
00000000
,  // measure 6
00000100
00000000
00000000
00000000
,  // measure 7
00000000
00000000
00000000
00000000
,  // measure 8
00001000
00000000
00000000
00000000
,  // measure 9
00000000
00000000
00000000
00000000
,  // measure 10
00000001
00000000
00000000
00000000
,  // measure 11
00000100
00000000
00000000
00000000
,  // measure 12
00000010
00000000
00000000
00000000
,  // measure 13
00001000
00000000
00000000
00000000
,  // measure 14
00000010
00000000
00000000
00000000
,  // measure 15
00010000
00000000
00000000
00000000
,  // measure 16
00001000
00000000
00000000
00000000
,  // measure 17
00000000
00000000
00000000
00000000
,  // measure 18
00011000
00000000
00000000
00000000
,  // measure 19
00001000
00000000
00000000
00000000
,  // measure 20
00100000
00000000
00000000
00000000
,  // measure 21
00010000
00000000
00000000
00000000
,  // measure 22
10010000
00000000
00000000
00000000
,  // measure 23
10000000
00000000
00000000
00000000
,  // measure 24
00100000
00000000
00000000
00000000
,  // measure 25
01000000
00000000
00000000
00000000
,  // measure 26
01100000
00000000
00000000
00000000
,  // measure 27
00100000
00000000
00000000
00000000
,  // measure 28
01000000
00000000
00000000
00000000
,  // measure 29
00001000
00000000
00000000
00000000
,  // measure 30
00011000
00000000
00000000
00000000
,  // measure 31
00010000
00000000
00000000
00000000
,  // measure 32
00000100
00000000
00000000
00000000
,  // measure 33
00001000
00000000
00000000
00000000
,  // measure 34
00001001
00000000
00000000
00000000
,  // measure 35
00000000
00000000
00000000
00000000
,  // measure 36
00001001
00000000
00000000
00000000
,  // measure 37
00000001
00000000
00000000
00000000
,  // measure 38
00000100
00000000
00000000
00000000
,  // measure 39
00000010
00000000
00000000
00000000
,  // measure 40
00010000
00000000
00000000
00000000
,  // measure 41
00001000
00000000
00000000
00000000
,  // measure 42
00011000
00000000
00000000
00000000
,  // measure 43
00100000
00000000
00000000
00000000
,  // measure 44
01000000
00000000
00000000
00000000
,  // measure 45
00100000
00000000
00000000
00000000
,  // measure 46
10010000
00000000
00000000
00000000
,  // measure 47
00010000
00000000
00000000
00000000
,  // measure 48
10000000
00000000
00000000
00000000
,  // measure 49
00100000
00000000
00000000
00000000
,  // measure 50
01100000
00000000
00000000
00000000
,  // measure 51
00000000
00000000
00000000
00000000
,  // measure 52
00000000
00000000
00000000
00000000
,  // measure 53
00000000
00000000
00000000
00000000
,  // measure 54
10000000
00000000
00000000
00000000
,  // measure 55
00010000
00000000
00000000
00000000
,  // measure 56
01000000
00000000
00000000
00000000
,  // measure 57
00001000
00000000
00000000
00000000
,  // measure 58
00010000
00000000
00000000
00000000
,  // measure 59
00000100
00000000
00000000
00000000
,  // measure 60
00001000
00000000
00000000
00000000
,  // measure 61
00000001
00000000
00000000
00000000
,  // measure 62
00000100
00000000
00000000
00000000
,  // measure 63
00000010
00000000
00000000
00000000
,  // measure 64
00001000
00000000
00000000
00000000
;

//---------------dance-double - ----------------
#NOTES:
     dance-double:
     :
     Easy:
     3:
     0.115374,0.172000,0.068571,0.091429,0.000000,106.000000,97.000000,9.000000,12.000000,0.000000,0.000000,0.115374,0.172000,0.068571,0.091429,0.000000,106.000000,97.000000,9.000000,12.000000,0.000000,0.000000:
// measure 0
00000000
00000000
00000000
00000000
,  // measure 1
00000000
00000000
00000000
00000000
,  // measure 2
00021000
00000000
00000000
00000000
,  // measure 3
00000000
00000000
00000000
00000000
,  // measure 4
00030200
00000000
00000000
00000000
,  // measure 5
00000000
00000000
00000000
00000000
,  // measure 6
00000320
00000000
00000000
00000000
,  // measure 7
00000000
00000000
00000000
00000000
,  // measure 8
00000032
00000000
00000000
00000000
,  // measure 9
00000000
00000000
00000000
00000000
,  // measure 10
00001003
00000000
00000010
00000000
,  // measure 11
00000100
00000000
00000001
00000000
,  // measure 12
00000010
00000000
00000100
00000000
,  // measure 13
00010000
00000000
00001000
00000000
,  // measure 14
01000000
00000000
00010000
00000000
,  // measure 15
01000000
00000000
00100000
00000000
,  // measure 16
20000000
00000000
00000000
00000000
,  // measure 17
00000000
00000000
00000000
30000000
,  // measure 18
10010000
00000000
10000000
00000000
,  // measure 19
01000000
00000000
00100000
00000000
,  // measure 20
01000000
00000000
00100000
00000000
,  // measure 21
00001000
00000000
00010000
00000000
,  // measure 22
00011000
00000000
00001000
00000000
,  // measure 23
00010000
00000000
00000010
00000000
,  // measure 24
00001000
00000000
00000010
00000000
,  // measure 25
00000200
00000000
00000300
00000000
,  // measure 26
00001001
00000000
00000001
00000000
,  // measure 27
00000010
00000000
00000100
00000000
,  // measure 28
00001000
00000000
00000100
00000000
,  // measure 29
00010000
00000000
00001000
00000000
,  // measure 30
00011000
00000000
00010000
00000000
,  // measure 31
00001000
00000000
01000000
00000000
,  // measure 32
00010000
00000000
01000000
00000000
,  // measure 33
00200000
00000000
00300000
00000000
,  // measure 34
02200000
00000000
00000000
00000000
,  // measure 35
00000000
00000000
00000000
03300000
,  // measure 36
10010000
00000000
10000000
00000000
,  // measure 37
01000000
00000000
00100000
01000000
,  // measure 38
00100000
00000000
01000000
00000000
,  // measure 39
00100000
00000000
00001000
00010000
,  // measure 40
00001000
00000000
00010000
00000000
,  // measure 41
00000010
00000000
00001000
00000010
,  // measure 42
00001000
00000000
00000001
00000000
,  // measure 43
00000100
00000000
00000010
00000000
,  // measure 44
00001000
00000000
00000001
00000000
,  // measure 45
00000010
00000000
00000100
00000000
,  // measure 46
00000110
00000000
00000100
00000000
,  // measure 47
00010000
00000000
00001000
00000000
,  // measure 48
01000000
00000000
00010000
00000000
,  // measure 49
02000000
00000000
03000000
00000000
,  // measure 50
02200000
00000000
00000000
00000000
,  // measure 51
00000000
00000000
00000000
00000000
,  // measure 52
00000000
00000000
00000000
00000000
,  // measure 53
00000000
00000000
00000000
03300000
,  // measure 54
10000000
00000000
00000000
00000000
,  // measure 55
00010000
00000000
00000000
00000000
,  // measure 56
01000000
00000000
00000000
00000000
,  // measure 57
00001000
00000000
00000000
00000000
,  // measure 58
00010000
00000000
00001000
00000000
,  // measure 59
00010000
00000000
00000010
00000000
,  // measure 60
00001000
00000000
00000010
00000000
,  // measure 61
00000100
00000000
00000001
00000000
,  // measure 62
00000010
00000000
00000100
00000000
,  // measure 63
00010000
00000000
00001000
00000000
,  // measure 64
01000000
00000000
00010000
00000000
;

//---------------dance-double - ----------------
#NOTES:
     dance-double:
     :
     Medium:
     8:
     0.265578,0.370714,0.053333,0.320000,0.072381,244.000000,237.000000,7.000000,42.000000,0.000000,0.000000,0.265578,0.370714,0.053333,0.320000,0.072381,244.000000,237.000000,7.000000,42.000000,0.000000,0.000000:
// measure 0
00000000
00000000
00000000
00000000
,  // measure 1
00000000
00000000
00000000
00000000
,  // measure 2
00012000
00000000
00000000
00000000
,  // measure 3
00000000
00000000
00000000
00000000
,  // measure 4
00003020
00000000
00000000
00000000
,  // measure 5
00000000
00000000
00000000
00000000
,  // measure 6
00000230
00000000
00000000
00000000
,  // measure 7
00000000
00000000
00000000
00000000
,  // measure 8
00002300
00000000
00000000
00000000
,  // measure 9
00003002
00000000
00000000
00000000
,  // measure 10
00000103
00000010
00000100
00000010
,  // measure 11
00001000
00000001
00001000
00000001
,  // measure 12
00000010
00000100
00000010
00000100
,  // measure 13
00010000
00001000
00010000
00001000
,  // measure 14
01000000
00100000
01000000
00100000
,  // measure 15
10000000
00010000
10000000
00010000
,  // measure 16
00200000
00000000
00000000
00000000
,  // measure 17
00000000
00000000
00000000
00300000
,  // measure 18
01200000
00000000
00000000
00000000
00320000
00030000
00000000
00000000
00020000
00030000
00000000
00000000
00020000
00030000
10000000
00000000
,  // measure 19
00200000
00000000
00000000
00000000
01300000
00000000
00001000
00000000
00010000
00000000
00000000
00000100
00000000
00000000
00001000
00000000
,  // measure 20
00000002
00000000
00000000
00000000
00000203
00000300
00000000
00000000
00000200
00000300
00000000
00000000
00000200
00000300
00000000
00000000
,  // measure 21
00000020
00000000
00000000
00000000
00002030
00003000
00000000
00000000
00000002
00000003
00000000
00000000
00000002
00000003
00000000
00000000
,  // measure 22
00000012
00000000
00000000
00000000
00002003
00003000
00000000
00000000
00002000
00003000
00000000
00000000
00002000
00003000
00000010
00000000
,  // measure 23
00000200
00000000
00000000
00000000
00000301
00000000
00001000
00000000
00000100
00000000
00000000
00010000
00000000
00000000
00001000
00000000
,  // measure 24
02000000
00000000
00000000
00000000
03020000
00030000
00000000
00000000
00020000
00030000
00000000
00000000
00020000
00030000
00000000
00000000
,  // measure 25
00200000
00000000
00000000
00300000
,  // measure 26
01200000
00000000
00310000
10000000
00100000
00000000
01000000
00010000
,  // measure 27
20000000
00000000
31000000
00010000
00001000
00010000
01000000
00010000
,  // measure 28
00002000
00000000
00000000
00000000
00013000
00000000
00000010
00000000
00001000
00000000
00000000
00000001
00000000
00000000
00000010
00000000
,  // measure 29
00000200
00000000
00000310
00001000
00010000
00001000
00000010
00001000
,  // measure 30
00020000
00000000
00031000
01000000
00100000
00000000
10000000
00010000
,  // measure 31
00200000
00000000
01300000
00010000
00001000
00010000
01000000
00010000
,  // measure 32
00002000
00000000
00000000
00000000
00013000
00000000
00000010
00000000
00000100
00000000
00000000
00000001
00000000
00000000
00001000
00000000
,  // measure 33
00000200
00000000
00000010
00000310
,  // measure 34
00002002
00000000
00000000
00000000
,  // measure 35
00000000
00000000
00003003
00000000
00001000
00000001
00001001
00000000
,  // measure 36
00001000
00000000
00000010
00000000
00000100
00000001
00001000
00000000
,  // measure 37
00000100
00000000
00000010
00000000
00001000
00010000
00100000
00000000
,  // measure 38
01000000
00000000
00010000
00000000
00100000
01000000
10000000
00000000
,  // measure 39
00100000
00000000
01000000
00000000
10000000
01000000
00010000
01000000
,  // measure 40
00001000
00000000
00010000
00000000
00000100
00000010
00000001
00000000
,  // measure 41
00000100
00000000
00000010
00000000
00001000
00000001
00000010
00000001
,  // measure 42
00001000
00000010
00000000
00000100
00000001
00000010
00000000
00000100
,  // measure 43
00001000
00000001
00000000
00000100
00000010
00001000
00000000
00000010
,  // measure 44
00010000
00001000
00000000
00100000
00001000
00010000
00000000
01000000
,  // measure 45
00100000
00010000
00000000
10000000
00100000
01000000
00000000
00010000
,  // measure 46
10000000
00100000
00000000
00010000
00100000
01000000
00000000
00100000
,  // measure 47
00010000
00001000
00000000
00000010
00000100
00001000
00000000
00000010
,  // measure 48
00000100
00001000
00000000
00010000
00100000
01000000
00000000
00010000
,  // measure 49
20000000
00000000
01000000
31000000
,  // measure 50
00220000
00000000
00000000
00000000
,  // measure 51
00000000
00000000
00000000
00000000
,  // measure 52
00000000
00000000
00000000
00000000
,  // measure 53
00000000
00000000
00000000
00330000
,  // measure 54
00010000
00000000
10000000
00100000
,  // measure 55
01000000
00000000
00010000
10000000
,  // measure 56
01000000
00000000
00100000
00001000
,  // measure 57
00010000
00000010
00001000
00000001
,  // measure 58
00000010
00001000
00010000
00100000
,  // measure 59
01000000
00010000
00100000
01000000
,  // measure 60
10000000
00100000
00010000
00001000
,  // measure 61
00000010
00000100
00001000
00000001
,  // measure 62
00000100
00001000
00010000
01000000
,  // measure 63
10000000
00100000
00010000
00001000
,  // measure 64
00000010
00000000
00000001
00000000
00000100
00000000
00001000
00010000
;

//---------------dance-double - ----------------
#NOTES:
     dance-double:
     :
     Hard:
     12:
     0.382041,0.508571,0.053333,0.228571,0.251429,351.000000,344.000000,7.000000,30.000000,0.000000,0.000000,0.382041,0.508571,0.053333,0.228571,0.251429,351.000000,344.000000,7.000000,30.000000,0.000000,0.000000:
// measure 0
00000000
00000000
00000000
00000000
,  // measure 1
00000000
00000000
00000000
00000000
,  // measure 2
00021000
00000000
00000000
00000000
,  // measure 3
00000000
00000000
00230000
00000000
,  // measure 4
02300000
00000000
00000000
00000000
,  // measure 5
00000000
00000000
00000000
00000000
,  // measure 6
03020000
00000000
00000000
00000000
,  // measure 7
00000000
00000000
00230000
00000000
,  // measure 8
02300000
00000000
00000000
00000000
,  // measure 9
03020000
00000000
00000000
00000000
,  // measure 10
00031000
00010000
00000100
00001000
,  // measure 11
00000001
00000100
00000010
00001000
,  // measure 12
00000100
00000000
00000000
00000000
00000010
00000000
00000000
00000000
00000001
00000000
00000000
00001000
00000000
00000000
00001000
00000000
,  // measure 13
00000010
00000000
00000000
00000000
00010000
00000000
00000000
00000000
00001000
00000000
00000000
00100000
00000000
00000000
00100000
00000000
,  // measure 14
01000000
00000000
00000000
00000000
10000000
00000000
00000000
00000000
00010000
00000000
00000000
01000000
00000000
00000000
01000000
00000000
,  // measure 15
00001000
00000000
00000000
00000000
00010000
00000000
00000000
00000000
00000100
00000000
00000000
00000010
00000000
00000000
00000010
00000000
,  // measure 16
00000002
00000000
00000000
00000000
,  // measure 17
00000000
00000000
00000000
00000003
,  // measure 18
00001002
00000000
00000000
00000000
00001003
00000010
00000000
00000000
00001000
00000010
00000000
00000000
00001000
00000000
00000001
00000000
,  // measure 19
00000020
00000000
00000000
00000000
00000130
00000000
00000001
00000000
00000100
00000000
00000000
00010000
00000000
00000000
00001000
00000000
,  // measure 20
02000000
00000000
00000000
00000000
03010000
10000000
00000000
00000000
00010000
10000000
00000000
00000000
00010000
10000000
00000000
00000000
,  // measure 21
02000000
00000000
00000000
00000000
03100000
00010000
00000000
00000000
10000000
00010000
00000000
00000000
10000000
00010000
00000000
00000000
,  // measure 22
10020000
00000000
00000000
00000000
01030000
00001000
00000000
00000000
01000000
00001000
00000000
00000000
01000000
00000000
00001000
00000000
,  // measure 23
00020000
00000000
00000000
00000000
00031000
00000000
00000010
00000000
00000001
00000000
00000000
00001000
00000000
00000000
00000010
00000000
,  // measure 24
00000200
00000000
00000000
00000000
00000301
00001000
00000000
00000000
00000001
00001000
00000000
00000000
00000001
00001000
00000000
00000000
,  // measure 25
00000200
00000000
00000310
00000001
,  // measure 26
00001002
00000000
00000103
00000010
00010000
00010000
00001000
00100000
,  // measure 27
02000000
00000000
00000000
00000000
13000000
00010000
10000000
00000000
00010000
01000000
00010000
00000000
01000000
00010000
01000000
00000000
,  // measure 28
00200000
00000000
00000000
00000000
10300000
00000000
01000000
00000000
00100000
00000000
00001000
00010000
00000000
00010000
00000010
00000000
,  // measure 29
00002000
00000000
00000000
00000000
00003001
00000100
00000001
00000000
00001000
00000001
00001000
00000000
00000001
00001000
00000001
00000000
,  // measure 30
00001002
00000000
00000013
00000100
00010000
00010000
00001000
01000000
,  // measure 31
00200000
00000000
00000000
00000000
10300000
00010000
10000000
00000000
00010000
00100000
00010000
00000000
00100000
00010000
00100000
00000000
,  // measure 32
02000000
00000000
00000000
00000000
13000000
00000000
00100000
00000000
01000000
00000000
00001000
00010000
00000000
00010000
00000100
00000000
,  // measure 33
00000020
00000000
00000100
00000130
,  // measure 34
00002002
00000000
00000000
00000003
,  // measure 35
00000010
00000000
00000000
00000000
00000010
00000000
00000000
00000000
00003010
00000000
00000100
00000001
00001000
00000000
00000010
00000000
,  // measure 36
00000100
00000000
00000001
00000000
00000100
00000000
00000010
00000000
00000100
00000000
00001000
00000000
00010000
00001000
00100000
00000000
,  // measure 37
01000000
00100000
00010000
01000000
00100000
01000000
10000000
01000000
,  // measure 38
00010000
00000000
10000000
00000000
01000000
00000000
00100000
00000000
00001000
00000000
00001000
00000000
00010000
00000010
00001000
00000000
,  // measure 39
00000001
00000010
00000100
00000010
00000001
00000100
00001000
00010000
,  // measure 40
01000000
00000000
10000000
00000000
00100000
00000000
01000000
00000000
00100000
00000000
00010000
00000000
00001000
00010000
00000010
00000000
,  // measure 41
00001000
00000000
00000001
00000000
00000010
00000000
00000100
00000000
00000010
00000000
00000001
00000000
00001000
00000010
00001000
00000010
,  // measure 42
00001000
00000000
00000010
00001000
00000000
00000000
00001000
00000001
00000000
00000000
00000001
00000010
00000000
00000000
00000010
00000100
,  // measure 43
00000000
00000000
00000100
00010000
00000000
00000000
00010000
00001000
00000000
00000000
00001000
01000000
00000000
00000000
01000000
00010000
,  // measure 44
00000000
00000000
00010000
00100000
00000000
00000000
00100000
01000000
00000000
00000000
01000000
10000000
00000000
00000000
10000000
00100000
,  // measure 45
00000000
00000000
00100000
01000000
00000000
00000000
01000000
00001000
00000000
00000000
00001000
00010000
00000000
00000000
00010000
00000100
,  // measure 46
00000000
00000000
00000100
00000010
00000000
00000000
00000010
00000001
00000000
00000000
00000001
00000100
00000000
00000000
00000100
00001000
,  // measure 47
00000000
00000000
00001000
00010000
00000000
00000000
00010000
01000000
00000000
00000000
01000000
00100000
00000000
00000000
00100000
00010000
,  // measure 48
00000000
00000000
00010000
01000000
00000000
00000000
01000000
00100000
00000000
00000000
00100000
00010000
00000000
00000000
00010000
00001000
,  // measure 49
00020000
00000000
00000100
00030100
,  // measure 50
00002002
00000000
00000000
00000000
,  // measure 51
00000000
00000000
00000000
00000000
,  // measure 52
00000000
00000000
00000000
00000000
,  // measure 53
00000000
00000000
00000000
00003003
,  // measure 54
00000001
00000000
00000000
00000100
00000010
00000000
00010000
00000000
,  // measure 55
00001000
00000000
00000000
00100000
01000000
00000000
10000000
00000000
,  // measure 56
00010000
00000000
00000000
01000000
00100000
00000000
01000000
00000000
,  // measure 57
00001000
00000000
00010000
00000100
00000010
00000000
00000100
00000000
,  // measure 58
00001000
00000001
00000100
00000010
00000100
00000001
00001000
00000100
,  // measure 59
00000010
00000100
00010000
00001000
01000000
00100000
00010000
00001000
,  // measure 60
00010000
00000100
00000010
00000001
00000100
00000010
00000100
00001000
,  // measure 61
00010000
00001000
00100000
01000000
10000000
00100000
01000000
00100000
,  // measure 62
00010000
00001000
00010000
00100000
01000000
00001000
00010000
00100000
,  // measure 63
01000000
00001000
00100000
01000000
00010000
00001000
00000010
00000100
,  // measure 64
00001000
00000010
00000100
00000001
00000010
00001000
00010000
00200000
,  // measure 65
00000000
00000000
00000000
00000000
,  // measure 66
00000000
00000000
00000000
00300000
;
