#VERSION:0.83;
#TITLE:1st Samurai;
#SUBTITLE:;
#ARTIST:sampling masters MEGA;
#TITLETRANSLIT:;
#SUBTITLETRANSLIT:;
#ARTISTTRANSLIT:;
#GENRE:;
#CREDIT:;
#MUSIC:1st Samurai.ogg;
#BANNER:;
#BACKGROUND:;
#CDTITLE:;
#SAMPLESTART:55.238526;
#SAMPLELENGTH:16.457143;
#SELECTABLE:YES;
#OFFSET:-0.381383;
#BPMS:0.000000=175.000000
,268.000000=200.000000
;
#STOPS:;
#SPEEDS:0.000000=1.000000=0.000000=0;
#SCROLLS:0.000000=1.000000;
#TICKCOUNTS:0.000000=4;
#TIMESIGNATURES:0.000000=4=4;
#LABELS:0.000000=Song Start;
#COMBOS:0.000000=1;
#ORIGIN:;
#PREVIEWVID:;
#JACKET:;
#CDIMAGE:;
#DISCIMAGE:;
#BGCHANGES:;
#FGCHANGES:;

//--------------- dance-single - ----------------
#NOTEDATA:;
#STEPSTYPE:dance-single;
#DESCRIPTION:;
#DIFFICULTY:Challenge;
#METER:15;
#RADARVALUES:0,0,0,0,0;
#CHARTNAME:;
#CHARTSTYLE:Pad Singles;
#CREDIT:ヨセフ;
#NOTES:
0000
0000
0000
0000
,
0000
0000
0000
0000
,
0000
0000
0000
0000
,
0000
0000
0000
0000
,
1000
0100
0010
0001
0100
0001
0010
0100
,
1000
0010
0001
0010
1000
0001
0010
0100
,
1000
0010
0100
0001
0010
0001
0100
0010
,
1000
0100
0001
0100
1000
0001
0100
0010
,
1000
0000
0001
0010
0000
0000
0100
0000
1000
0000
0001
0100
0000
0000
0010
0000
,
1000
0000
0001
0010
0000
0000
0100
0000
1000
0000
0001
0100
0000
0000
0010
0000
,
1000
0100
0001
0100
1000
0001
0100
0010
,
1000
0000
0010
0000
0001
0000
0010
0000
1000
0000
0001
0010
0100
0000
0000
0000
,
1000
0000
0001
0100
0010
0000
1000
0000
0000
0000
0001
0000
0010
0000
0100
0000
,
2000
0010
0010
0010
0010
0010
0010
0010
,
3001
0000
1000
0100
0010
0000
0001
0000
0000
0000
1000
0000
0010
0000
0100
0000
,
0002
0010
0010
0010
0010
0010
0010
0010
,
1003
0000
0010
0100
0001
0000
1000
0000
0000
0000
0100
0000
0010
0000
0001
0000
,
0200
0000
0010
0000
0010
0000
0010
0000
0010
0000
0010
0000
0310
1000
0010
0000
,
1000
0000
0100
0010
0001
0000
1000
0000
0000
0000
0010
0000
0100
0000
0001
0000
,
0010
0000
0100
1000
0001
0000
0010
0000
0010
0100
1000
0000
1000
0000
0000
0000
,
0001
1000
1010
0000
1000
0001
0011
0000
,
0001
1000
1100
0000
1000
0001
0101
0000
,
0001
1000
1010
0000
1000
0001
0011
0000
,
0001
1000
1100
0000
1000
0001
0101
0000
,
0100
0010
0000
0100
0001
0000
0000
0000
0100
0010
0001
0000
0000
0010
0000
0000
,
1000
0010
0000
1000
0001
0000
0000
0000
0010
0100
0001
0000
0000
0100
0000
0000
,
1000
0100
0000
0010
0001
0000
0000
0000
1000
0010
0000
0100
0001
0000
0000
0000
,
1000
0100
0000
1000
0001
0000
0000
0000
0100
0000
1000
0000
0000
0100
0000
0000
,
0010
0100
0000
0010
1000
0000
0000
0000
0010
0100
1000
0000
0000
0100
0000
0000
,
0001
0100
0000
0001
1000
0000
0000
0000
0100
0010
1000
0000
0000
0010
0000
0000
,
0001
0010
0000
0100
1000
0000
0000
0000
0001
0100
0000
0010
1000
0000
0000
0000
,
0001
0010
0000
0001
1000
0000
0000
0000
0010
0000
0001
0000
0000
0010
0000
0000
,
1000
0000
0001
0100
0010
0000
0000
0000
1000
0000
0001
0000
1001
0000
0000
0000
,
1000
0000
0100
0010
0002
0000
0000
0000
0000
0000
0000
0000
1003
0000
0000
0000
,
0001
0000
1000
0010
0100
0000
0000
0000
0001
0000
1000
0000
1001
0000
0000
0000
,
0001
0100
1000
0001
0010
1000
0001
1000
,
0001
0000
0100
0000
1000
0000
0100
0000
0001
0100
0000
0010
1000
0000
0000
0000
,
0001
0000
0010
0000
1000
0000
0010
0000
0001
0010
0000
0100
1000
0000
0000
0000
,
0001
0000
0100
0000
1000
0000
0100
0000
0001
0100
0000
0010
1000
0000
0000
0000
,
0001
0010
1000
0001
0100
1000
0001
1000
,
0010
1000
0100
0000
1000
0000
0000
0000
0010
1000
0100
0000
1000
0000
0000
0000
,
0010
1000
0100
0000
1000
0000
0000
0000
0010
1000
0100
0000
1000
0000
0000
0000
,
0010
1000
0100
0000
0010
0001
0100
0000
0010
1000
0100
0000
0010
0001
0100
0000
,
0001
0100
0001
0100
0001
0000
0000
0000
1000
0100
1000
0100
1000
0000
0000
0000
,
0001
0100
1000
0100
0001
1000
0010
0100
,
0001
0010
1000
0010
0001
1000
0100
0010
,
0001
0100
1000
0100
0001
1000
0100
0010
,
0001
0001
0001
0001
0001
0001
0001
0001
,
1000
0000
0010
0100
0001
0000
1000
0000
0000
0000
0010
0100
0001
0000
1000
0000
,
0000
0000
0100
0010
0001
0000
1000
0000
0000
0000
0100
0010
0001
0000
1000
0000
,
0000
0000
0010
0100
0001
0000
0010
0000
0000
0000
0100
1000
0001
0000
0100
0000
,
0001
0001
0001
0001
0001
0001
0001
0001
,
0010
0001
0100
0000
0010
1000
0100
0000
0010
0001
0100
0000
0010
1000
0100
0000
,
0010
0001
0100
0000
0010
1000
0100
0000
0010
0001
0100
0000
0010
1000
0100
0000
,
1000
0100
0010
0000
0001
0100
0010
0000
1000
0100
0010
0000
0001
0100
0010
0000
,
1000
0100
0010
0000
0001
0100
0010
0000
1000
0100
0010
0000
0001
0100
0010
0000
,
1000
0100
0010
0000
0001
0000
1000
0000
0001
0100
0010
0000
1000
0000
0001
0000
,
1000
0100
0010
0000
0001
0000
1000
0000
0010
0100
0001
0000
1000
0000
0100
0000
,
0010
0001
0100
0000
0010
0000
1000
0000
0001
1000
0100
0000
0010
0000
0001
0000
,
0100
0010
1000
0000
0100
0000
0010
0000
0001
0100
0010
0000
1000
0000
0001
0000
,
0010
0100
0010
0100
0010
0000
0001
0000
1000
0010
1000
0010
1000
0000
0001
0000
,
1000
0100
1000
0100
1000
0000
0010
0000
0100
0001
0100
0001
0100
0000
0010
0000
,
1000
0010
0000
0000
0100
0001
0000
0000
1000
0100
0000
0000
0010
0001
0000
0000
,
0100
0010
0000
0000
1000
0100
0000
0000
0001
0100
0000
0000
1000
0001
0000
0000
,
1000
0100
1000
0100
0001
0100
0001
0100
,
1000
0010
1000
0010
0001
0010
1000
0001
,
2002
0000
0000
0000
0000
0000
0000
0000
0000
0000
0000
0000
0000
0003
0000
0000
,
0000
0000
0000
3100
,
0010
0001
0100
0000
0010
0000
0000
0000
0100
0001
0010
0000
0100
0000
0000
0000
,
0010
0001
0100
0000
0010
0000
0000
0000
0100
0001
0010
0000
0100
0000
0000
0000
,
1000
0100
0000
0000
0010
0001
0000
0000
1000
0010
0000
0000
0100
0001
0000
0000
,
0010
0100
0000
0000
1000
0010
0000
0000
0001
0010
0000
0000
1000
0001
0000
0000
,
1000
0100
1000
0100
0001
0100
0001
0100
,
1000
0010
1000
0010
0001
0010
0001
0010
,
2000
0000
0000
3000
,
1010
0000
1010
0000
0000
0000
1001
0000
0000
0000
0000
0000
,
0011
0000
1001
0000
,
1010
0000
0100
0000
;
