#TITLE:with you...;
#SUBTITLE:;
#ARTIST:Sota Fujimori;
#TITLETRANSLIT:;
#SUBTITLETRANSLIT:;
#ARTISTTRANSLIT:;
#CREDIT:Steps and graphics by Xythar (sources - mightydrak and flight643 on sxc.hu);
#BANNER:with you....png;
#BACKGROUND:with you...-bg.png;
#LYRICSPATH:;
#CDTITLE:cdtitle.png;
#MUSIC:with you....mp3;
#OFFSET:-7.537;
#SAMPLESTART:15.610;
#SAMPLELENGTH:14.220;
#SELECTABLE:YES;
#BPMS:0.000=135.000;
#STOPS:;
#BGCHANGES:-12.000=with you....avi=1.000=1=1=0,
275.000=with you...-bg.png=1.000=0=0=1,
99999=-nosongbg-=1.000=0=0=0 // don't automatically add -songbackground-
;

//---------------dance-single - ----------------
#NOTES:
     dance-single:
     :
     Hard:
     7:
     0.399,0.413,0.075,0.180,0.034:
0000
0000
0000
0000
,
0000
0000
0000
0000
,
0000
0000
0000
0000
,
0000
0000
0000
0000
,
0000
0000
0000
0000
,
1000
0000
0010
0000
1000
0000
0010
0100
,
0001
0000
0010
0000
0100
0000
0010
0001
,
0100
1000
0100
0001
,
0010
0100
0010
0001
0100
0010
1000
0000
,
0002
0000
0103
0000
0001
0010
0100
0000
,
2000
0000
3100
0000
1000
0100
0010
0000
,
0200
0310
0020
0130
,
0010
0100
1000
0001
0100
0000
0110
0000
,
2000
0000
3001
0000
0010
0100
1000
0000
,
0002
0000
1003
0000
0100
0010
0001
0000
,
0010
0100
1000
0100
0010
0001
0010
0000
,
0100
0010
0001
0000
0001
0010
0100
0000
,
2000
0100
3100
1000
,
0020
0100
0130
0001
,
0200
0010
0310
1000
,
0002
0010
0013
0100
,
2000
0000
3020
0000
0130
0001
0010
0000
,
0001
0001
0100
0010
2000
0000
3000
0000
,
0100
0010
0001
0000
0001
0010
0100
0000
,
1000
0010
0100
0010
1000
0000
0100
0010
,
0002
0000
0010
0000
0103
0000
1000
0100
,
0020
0100
0031
0001
,
0010
0000
0100
0000
1000
0000
0100
0010
,
0001
0100
0010
1000
0100
1000
0010
0000
,
0100
0001
0010
0000
0100
0000
1000
0000
,
0100
0010
0001
0010
0100
0000
1000
0001
,
0100
0000
0100
0001
1000
0000
0001
0100
,
0010
1000
0001
0010
0100
0000
0110
0000
,
1000
0100
0010
0000
0010
0100
1000
0000
,
0100
0010
0001
0000
0001
0010
0100
0000
,
1000
0100
0010
0001
0010
0100
1000
0000
,
0001
0100
0010
0100
0001
0000
1001
0000
,
0021
0000
0130
0000
0010
0001
0010
0000
,
2001
0000
3010
0000
0100
0010
0100
0000
,
2010
0000
3100
0000
1000
0001
1000
0000
,
0100
0010
0100
1000
0001
0100
0010
0000
,
1000
0000
0001
0000
1000
0010
0100
0000
,
0001
0010
0100
1000
0100
0010
0001
0000
,
0020
0230
2300
3001
,
0100
0010
1000
0001
1000
0010
0100
0000
,
0001
0000
0000
0020
0000
0000
0000
0000
0000
0000
0130
0000
0000
0000
0000
0000
,
1000
0000
0000
0100
0000
0000
1000
0000
0000
0001
0000
0000
0000
0010
0000
0000
,
0100
0000
0000
0000
0000
2000
0000
0000
0010
0000
3010
0000
0000
0000
0000
0000
,
0100
0000
0000
0002
0000
0000
0000
0000
0000
0013
0000
0000
0100
0000
0000
0000
,
1000
0100
0010
0001
,
0010
0100
1000
0000
1000
0100
0010
0000
,
0100
0000
0010
0000
0001
0001
0000
0000
,
0010
0000
0000
0000
0010
0000
0000
0000
0000
0100
0000
0100
0000
0000
0000
0000
,
1000
0100
1000
0010
,
1000
0100
0010
0100
1000
0001
0100
0000
,
0001
0100
1000
0000
1000
0100
0001
0000
,
0001
0100
0010
1000
0010
0100
0001
0000
,
0101
0100
0010
1000
,
0010
1000
0001
1000
0100
0000
0100
1000
,
0001
0010
0001
0000
1000
0100
0010
0100
,
1000
0000
0010
0000
0001
0010
0100
0000
,
1000
0100
0010
0001
,
1000
0010
0100
0101
,
0001
0010
0100
1000
,
0001
0100
0010
1010
,
1000
0100
0010
0000
0100
0010
0001
0000
,
0001
0010
0100
0000
0010
0100
1000
0000
,
0001
0010
0100
1000
0100
0010
0001
0000
,
0100
0010
1000
1001
;

//---------------dance-single - ----------------
#NOTES:
     dance-single:
     :
     Medium:
     4:
     0.261,0.258,0.105,0.068,0.000:
0000
0000
0000
0000
,
0000
0000
0000
0000
,
0000
0000
0000
0000
,
0000
0000
0000
0000
,
0000
0000
0000
0000
,
1000
0100
0010
0100
,
0010
0001
0100
0000
,
0001
0010
0100
1000
,
0001
0100
0010
1000
,
1001
0000
1000
0100
,
0110
0000
0001
0010
,
0100
0010
0001
0100
,
0001
0100
0001
0000
,
2000
0100
0000
0001
,
0001
3001
0000
0000
,
0001
0100
0010
1000
,
0001
0010
0100
1000
,
0000
0100
0010
0000
,
0100
0010
0100
0000
,
0001
0100
0010
0100
,
0001
1000
0100
1100
,
1000
0100
0010
0001
,
0010
0100
0010
0000
,
1000
0100
0010
0001
,
0100
0010
1000
0100
,
0020
0000
0031
0010
,
0200
0000
1300
0000
,
0001
0010
0100
1000
,
0010
0000
0100
0000
0001
0100
0001
0000
,
1000
0100
0010
0000
,
0001
0000
0100
0000
,
1000
0100
0001
0000
,
1000
0000
0100
0110
,
0020
0000
0031
0000
,
0020
0000
0130
0000
,
0001
0000
0010
0000
0100
1000
0100
0000
,
1000
0010
0100
0001
,
1000
0100
0010
0000
,
0010
0000
0100
0000
1000
0100
1000
0000
,
0001
0100
0010
0100
,
0001
0010
0100
1000
,
0100
1000
0010
1000
,
0001
1000
0100
1000
,
0200
0000
0320
0000
,
0032
0000
2003
0001
,
3001
0000
0000
0010
,
0110
0000
0010
0100
,
1100
0000
0001
1000
,
1001
0001
0010
0100
,
1000
0010
0100
0010
,
1000
0001
1000
0001
,
0010
0000
0100
0000
0010
0010
0000
0000
,
0001
0010
0100
1000
,
1001
1000
0100
0010
,
0001
0100
0010
0100
,
0001
1000
0010
1000
,
0001
0100
0010
0100
,
0001
1000
0100
1000
,
0001
0010
0001
0100
,
0010
1000
0100
1000
,
0001
0010
0100
0010
,
0001
0000
1000
0000
,
0010
0000
0100
0000
,
1001
0000
0110
0000
,
1100
0000
0011
0000
,
1000
0100
0010
0001
,
0010
0100
1000
1001
,
0001
0010
0100
1000
,
0000
0100
0010
0000
0001
0000
1001
0000
;

//---------------dance-single - ----------------
#NOTES:
     dance-single:
     :
     Easy:
     2:
     0.173,0.181,0.083,0.015,0.000: // measure 1
0000
0000
0000
0000
,  // measure 2
0000
0000
0000
0000
,  // measure 3
0000
0000
0000
0000
,  // measure 4
0000
0000
0000
0000
,  // measure 5
0000
0000
0000
0000
,  // measure 6
1000
0000
0000
0001
,  // measure 7
0010
0000
0000
0100
,  // measure 8
1000
0100
0010
0000
,  // measure 9
0001
0000
0010
0000
,  // measure 10
0001
0000
0010
0000
,  // measure 11
0100
0000
0010
0000
,  // measure 12
0100
0010
0001
0000
,  // measure 13
1000
0000
1000
0000
,  // measure 14
0001
0010
0000
0100
,  // measure 15
0010
0100
0000
1000
,  // measure 16
0100
1000
0000
1000
,  // measure 17
0100
0000
0100
0000
,  // measure 18
1000
0000
0001
0000
,  // measure 19
0100
0000
0010
0000
,  // measure 20
0100
0000
0001
0000
,  // measure 21
1000
0000
0001
0000
,  // measure 22
1000
0100
0000
0100
,  // measure 23
1000
0100
0000
0010
,  // measure 24
0001
0010
0000
0100
,  // measure 25
0010
0100
0010
0000
,  // measure 26
0002
0000
0000
1000
,  // measure 27
2003
0000
0000
0010
,  // measure 28
3010
0000
0100
0000
,  // measure 29
0001
0010
0100
1000
,  // measure 30
0100
0000
0010
0000
,  // measure 31
0100
0000
0010
0000
,  // measure 32
0001
0000
0100
0000
,  // measure 33
0010
0000
0100
0000
,  // measure 34
0110
0000
0010
0000
,  // measure 35
0001
0000
0010
0000
,  // measure 36
0001
1000
0100
1000
,  // measure 37
0001
0000
1000
0000
,  // measure 38
0100
0100
0100
0000
,  // measure 39
0010
0001
0010
0001
,  // measure 40
1000
0000
0100
0000
,  // measure 41
0010
0000
0100
0000
,  // measure 42
1000
0100
1000
0100
,  // measure 43
1000
0000
0001
0000
,  // measure 44
0010
0100
1000
0000
,  // measure 45
0100
0010
0001
0000
,  // measure 46
1001
0000
0000
0000
,  // measure 47
0110
0000
0000
0000
,  // measure 48
0011
0000
1000
1000
,  // measure 49
1000
0000
0001
0000
,  // measure 50
0100
0000
0010
0000
,  // measure 51
1000
0000
0100
0000
,  // measure 52
1000
0000
1001
0000
,  // measure 53
0010
0010
0000
1100
,  // measure 54
0000
1000
0000
0100
,  // measure 55
0000
0010
0000
0001
,  // measure 56
0000
1000
0000
0010
,  // measure 57
0000
0100
0000
0001
,  // measure 58
0000
0010
0000
0001
,  // measure 59
0000
0100
0000
0010
,  // measure 60
0000
1000
0000
0010
,  // measure 61
0000
1000
0000
0001
,  // measure 62
1001
0000
0000
0000
,  // measure 63
0110
0000
0000
0000
,  // measure 64
0110
0000
0000
0000
,  // measure 65
1001
0000
0000
0000
,  // measure 66
0001
0010
0000
0100
,  // measure 67
0010
0001
0000
1000
,  // measure 68
0100
0010
0000
0001
,  // measure 69
0010
0100
0000
1001
;

//---------------dance-single - ----------------
#NOTES:
     dance-single:
     :
     Beginner:
     1:
     0.117,0.155,0.038,0.000,0.000:
0000
0000
0000
0000
,
0000
0000
0000
0000
,
0000
0000
0000
0000
,
0000
0000
0000
0000
,
0000
0000
0000
0000
,
1000
0000
0000
0000
,
0100
0000
0000
0000
,
0010
0000
0001
0000
,
0010
0000
0100
0000
,
1000
0000
0000
0000
,
0010
0000
0000
0000
,
1000
0000
0001
0000
,
0100
0000
0010
0000
,
0100
0000
0000
0000
,
0001
0000
0000
0000
,
0010
0000
0001
0000
,
0100
0000
0001
0000
,
1000
0000
0000
0000
,
0001
0000
0010
0000
,
0100
0000
0010
0000
,
0001
0000
1000
0000
,
0001
0000
0000
0000
,
1000
1000
1000
0000
,
0100
0000
0010
0000
,
0100
0000
0010
0000
,
1001
0000
0000
0000
,
0110
0000
0000
0000
,
0001
0000
0000
0000
,
0010
0000
0100
0000
,
1000
0000
0000
0000
,
0001
0000
0000
0000
,
0100
0000
0001
0000
,
0010
0000
0001
0000
,
1001
0000
0000
0000
,
1000
0000
0100
0000
,
0010
0000
0100
0000
,
1000
0000
0000
0000
,
0001
0000
0010
0000
,
0001
0000
1000
0000
,
0001
0000
0100
0000
,
0001
0000
1000
0000
,
0001
0000
0000
0000
,
1000
0000
0000
0000
,
0010
0000
0100
0000
,
0010
0000
0100
0000
,
0001
0000
0000
0000
,
1000
0000
0000
0000
,
0010
0000
0000
0000
,
0100
0000
0000
0000
,
0001
0000
0010
0000
,
0001
0000
1000
0000
,
0100
0000
0010
0010
,
0000
0000
0000
1001
,
0000
1000
0000
0100
,
0000
0010
0000
0100
,
0000
0010
0000
0001
,
0000
0100
0000
0010
,
0000
1000
0000
0001
,
0000
1000
0000
0100
,
0000
1000
0000
0010
,
0000
0100
0000
0010
,
0010
0000
0000
0000
,
1000
0000
0001
0000
,
1000
0000
0000
0000
,
0010
0000
0100
0000
,
0010
0000
0000
0000
,
1000
0000
0100
0000
,
1000
0000
0000
0000
,
0000
0001
0000
1001
;
