#TITLE:smooooch・∀・;
#SUBTITLE:-秋葉工房mix-;
#ARTIST:Remixed by DJ Command;
#TITLETRANSLIT:smooooch;
#SUBTITLETRANSLIT:-Akiba Atelier mix-;
#ARTISTTRANSLIT:;
#CREDIT:Xythar;
#BANNER:smooooch Akiba Atelier mix.png;
#BACKGROUND:smooooch Akiba Atelier mix-bg.png;
#LYRICSPATH:;
#CDTITLE:cdtitle.png;
#MUSIC:smooooch Akiba Atelier mix.ogg;
#OFFSET:-0.438;
#SAMPLESTART:78.580;
#SAMPLELENGTH:22.334;
#SELECTABLE:YES;
#BPMS:0.000=172.000;
#STOPS:;
#BGCHANGES:-1.267=smooooch Akiba Atelier mix.avi=1.000=1=0=1,
99999=-nosongbg-=1.000=0=0=0 // don't automatically add -songbackground-
;

//---------------dance-single - ----------------
#NOTES:
     dance-single:
     :
     Hard:
     8:
     0.546,0.578,0.357,0.221,0.017:
0000
0000
0000
0000
,
0000
0000
0000
0000
,
0000
0000
0000
0000
,
0000
0000
0000
0000
,
0000
0000
0000
0000
,
0000
0000
0000
0000
,
0000
0000
0000
0000
,
0000
0000
0000
0000
,
1000
0001
0010
0000
0001
1000
0010
0000
,
0100
0100
2001
3010
,
0100
0001
0010
0000
0100
1000
0010
0000
,
0100
1001
1100
0101
,
0010
1000
0010
1000
0001
0000
2100
0000
,
0001
0000
3010
0000
0100
0001
0010
0000
,
0100
1000
0100
1000
0001
1000
0001
1000
,
0010
1000
0001
0010
0100
0000
1001
0000
,
0100
0001
0100
0001
0000
1000
0100
0001
,
0100
1000
0000
0001
0100
0000
0100
0000
,
0001
0010
0100
0000
1000
0010
0100
0000
,
2100
0001
3010
0101
,
0010
1000
0001
1000
0000
0100
1000
0001
,
0100
0001
0000
0010
0100
0000
1001
0000
,
0100
0011
0100
1010
,
0001
0100
0010
0000
2100
0000
3010
0000
,
0101
0000
0101
0000
0010
1000
0000
0002
,
0000
0000
0003
0000
1000
0100
0010
0001
,
0100
0010
0100
0010
0100
0001
0000
1000
,
0100
1000
0010
0100
0001
0010
0001
1000
,
0010
0000
0101
0000
0010
1000
0000
0001
,
0010
0100
1000
0020
0000
0000
0030
0000
,
1000
0100
1000
0000
0101
0000
1100
0000
,
2001
0000
0010
3010
,
0100
0001
1000
0001
0010
0100
1000
0000
,
0010
0000
1000
0001
0000
1000
0001
0000
0010
0000
0100
0000
1100
0000
0000
0000
,
0001
0100
1000
0100
0001
0100
1000
0100
,
0001
0001
0001
0000
2100
0000
3010
0000
,
0101
0000
0011
0000
0100
1000
0010
0000
,
1000
0000
0100
0010
0000
0100
0010
0000
0001
0000
0100
0000
0010
0000
0000
0000
,
1000
0100
1000
0010
1000
0100
1000
0001
,
0100
0100
0100
0100
0010
0010
1010
0000
,
0002
0000
0003
0000
,
0200
0000
0310
1000
,
0002
0000
0003
0000
,
1000
0100
0001
0010
,
2000
0000
3000
0000
,
0002
0000
0103
1000
,
0200
0000
0300
0000
,
0002
0000
1003
0100
,
0020
0000
1000
0000
0031
0000
0000
0200
,
0000
0320
0000
2030
0100
0000
0001
0000
,
0010
0000
0100
0000
3020
0000
0000
0230
,
0000
0000
1000
0000
0010
0000
0301
1000
,
0100
0000
0010
0000
0002
0000
0000
2003
,
0000
0010
0000
0001
3002
0000
0000
0000
,
1000
1000
0000
0000
0010
0013
0000
0000
,
1100
0000
1010
0000
0101
0000
0011
0001
,
1001
0000
0100
1000
0010
0000
0100
0001
,
0010
0000
0100
1000
0010
1000
0001
0010
,
0001
1100
0001
0101
,
0010
1000
0001
1000
0100
1000
0001
1000
,
0010
0000
1001
0000
0100
1000
0010
0000
,
0100
0000
1001
0000
0100
0010
0001
0000
,
0100
0010
0100
1000
0100
0010
0100
1000
,
0100
0010
0100
0001
0010
0000
1100
0000
,
0001
1000
0010
1000
0000
0001
0010
0001
,
1000
0010
0000
1000
0100
0000
0010
0000
,
0100
1000
0010
0000
0100
0001
0010
0000
,
0100
1000
0010
1000
0100
0000
0011
0000
,
0100
1000
0010
0100
0000
0001
0010
0001
,
1000
0010
0000
1000
0001
0000
0100
0000
,
0001
0100
0001
0100
0010
1000
0010
1000
,
0001
0010
0100
1000
0010
0000
0101
0000
,
1100
0000
1100
0000
0001
0100
0000
0010
,
2000
0000
3001
0000
1000
0100
0010
0001
,
0100
0010
1000
0010
0100
0010
0000
1000
,
0001
0010
0001
1000
0010
0100
0001
0010
,
0100
1010
1001
1100
,
0001
0100
0010
1000
0000
0100
0010
0001
,
0100
0010
0100
0010
0000
1000
0100
0010
,
0001
2100
0001
3010
,
0101
0000
0000
0000
;

//---------------dance-single - ----------------
#NOTES:
     dance-single:
     :
     Challenge:
     11:
     0.885,1.000,0.348,0.459,0.574: // measure 1
0000
0000
0000
0000
,  // measure 2
0000
0000
0000
0000
,  // measure 3
0000
0000
0000
0000
,  // measure 4
0000
0000
0000
0000
,  // measure 5
0000
0000
0000
0000
,  // measure 6
0000
0000
0000
0000
,  // measure 7
0000
0000
0000
0000
,  // measure 8
0000
0000
0000
0000
,  // measure 9
1001
0000
0001
0000
0100
0000
0010
0000
1000
0000
0001
0010
0100
0000
0010
0000
,  // measure 10
0001
0000
0000
0100
0000
0000
0010
0000
0000
0100
0000
0000
0001
0000
0000
1000
0100
1000
0100
0000
0000
0010
0000
0000
,  // measure 11
0002
0000
0100
0000
1000
1003
0010
1000
,  // measure 12
1000
0000
0000
0000
0000
0000
0100
0000
1000
0000
0100
0000
1000
0000
0000
0000
0000
0000
0001
0000
0000
0000
0000
0000
0100
0000
0000
0000
0000
0000
1000
0000
0000
0000
0000
0000
0100
0000
0000
0000
0000
0000
0001
0000
0000
1000
0000
0000
,  // measure 13
0200
0000
0000
0000
0000
0000
1000
0000
0000
1000
0000
0000
0310
0000
0000
0010
0000
0000
0001
0010
0001
0010
0000
0000
,  // measure 14
0001
0000
1000
0000
0100
0000
1000
0000
0010
0000
0100
0010
1000
0000
1000
0000
,  // measure 15
0100
0010
0001
1000
0001
0100
0001
1000
0001
0010
0001
1000
0010
0100
0001
1000
,  // measure 16
0001
0010
0100
1000
0001
0100
0010
1000
0100
0000
1100
0000
1001
0000
0011
0000
,  // measure 17
0001
0100
0010
1000
0100
0010
0100
0020
,  // measure 18
0001
0000
0001
0000
0000
0000
0100
0000
0130
0000
0100
1000
0001
0000
0100
0000
,  // measure 19
0020
0000
0001
0001
0000
1000
1030
0001
,  // measure 20
0010
0000
0100
1000
0001
0000
0200
0000
0010
0000
0301
0000
1001
0000
1000
0000
,  // measure 21
0020
0000
0100
0100
0000
1000
1030
0001
,  // measure 22
1000
0100
1000
0020
0100
0100
1030
0001
,  // measure 23
1000
0001
0010
0001
1000
0010
1000
0001
1000
0100
0010
0001
0100
0010
0100
0001
,  // measure 24
0010
0100
0010
0001
0100
0001
1000
0000
0001
0000
0010
0000
0100
0000
1000
0000
,  // measure 25
1001
0000
1100
0000
1001
0101
0000
0010
,  // measure 26
1000
0001
0000
1000
0010
0000
1000
0100
1000
0010
0100
0001
0010
0100
1000
0010
,  // measure 27
0100
0001
0100
0001
0200
0000
0010
0000
0001
0000
0301
0000
1001
0000
0100
0000
,  // measure 28
1000
0010
0100
0001
1000
0100
0010
0001
0100
0010
0100
0001
0010
0100
1000
0010
,  // measure 29
0100
0000
0101
0000
1001
1010
0000
0001
,  // measure 30
0010
0100
1000
0010
0100
0010
1000
0000
0002
0000
1000
0000
0010
0000
0013
0000
,  // measure 31
0100
1000
0001
1000
0010
0000
0100
0000
0001
0000
0010
0000
0100
0000
1000
0000
,  // measure 32
0020
0000
0000
0030
1100
0000
1001
0000
,  // measure 33
1000
0100
0010
0001
0100
0010
0100
0001
,  // measure 34
1000
0000
0001
0100
0000
0010
1000
0000
0001
0010
0100
1000
0001
0100
0010
1000
,  // measure 35
0001
0000
1000
0000
1100
0000
0001
0000
0101
0000
1000
0000
0100
0000
1000
0001
,  // measure 36
0100
0000
0010
0000
1000
0000
0001
0000
1000
0100
0010
0001
1000
0010
0100
0001
,  // measure 37
1000
0010
1000
0001
0010
0100
1000
0010
,  // measure 38
0100
0000
0001
0010
0000
0100
1000
0000
0001
0100
0010
1000
0100
0010
0001
0100
,  // measure 39
0010
1010
0001
0011
2000
0100
0100
3002
,  // measure 40
0010
0000
0010
0000
0013
0000
0010
0000
0100
1000
0100
1000
0001
0000
0000
0000
,  // measure 41
1000
0000
0001
0000
1000
0000
0001
0100
,  // measure 42
0000
0010
0000
1000
0100
0000
0010
0001
,  // measure 43
1000
0000
0010
0000
0100
0001
0000
1000
,  // measure 44
0000
0001
0010
0001
1000
0000
0100
1000
,  // measure 45
0020
0000
0100
0000
2030
0000
0001
3002
,  // measure 46
0000
1000
0010
0013
0000
0100
1000
0001
,  // measure 47
2000
0000
0010
0000
0100
0000
0001
3001
,  // measure 48
0000
0100
0010
0100
0001
0000
0010
0100
,  // measure 49
2000
0000
0200
3000
0002
0300
0203
2000
,  // measure 50
0300
0000
0002
0000
3000
0000
0010
0000
0023
0000
0000
0000
0200
0030
2000
0300
,  // measure 51
0020
3000
0100
0000
1000
2030
0000
3002
,  // measure 52
0000
0000
2000
0003
0200
3000
0002
0300
2000
0003
0002
3000
0200
0003
2000
0300
,  // measure 53
0020
3000
0000
0000
0032
0000
0020
0003
2000
0030
0000
0000
0000
0000
0200
3000
,  // measure 54
0000
0000
2000
0300
0000
0000
0010
0000
3020
0000
0000
0000
0000
0000
0030
0000
,  // measure 55
2100
0001
3100
0010
0102
1000
0103
0010
,  // measure 56
1100
0001
0011
1000
1010
0001
0101
1001
,  // measure 57
1010
0000
0001
0000
1000
0000
0100
0000
1000
0000
0001
1000
0010
0000
0100
0001
,  // measure 58
1000
0000
0000
0100
0000
0000
0001
0000
0000
0100
0000
0000
1000
0000
0000
0001
1000
0001
1000
0000
0000
0010
0000
0000
,  // measure 59
0200
0000
1000
0000
0010
0010
0000
0301
,  // measure 60
1000
0000
0000
0000
0000
0000
0100
0000
1000
0000
0100
0000
1000
0000
0000
0000
0000
0000
0001
0000
0000
0000
0000
0000
0100
0000
0000
0000
0000
0000
0010
0000
0000
0000
0000
0000
1000
0000
0000
0000
0000
0000
0100
0000
0000
0010
0000
0000
,  // measure 61
0001
0000
0000
0100
0000
0000
0010
0000
0000
0100
0000
0000
0001
0000
0000
1000
0000
0000
0001
0010
0001
0010
0000
0000
,  // measure 62
0100
1000
0001
1000
0010
0100
0001
1000
,  // measure 63
0001
0100
0010
1000
0100
0010
0001
0100
0010
0100
0001
0010
0001
1000
0100
0010
,  // measure 64
0001
0100
0010
1000
0001
1000
0010
1000
0002
0000
1000
0000
1000
0000
0013
0000
,  // measure 65
0100
1000
0100
1000
0001
0100
0010
2000
,  // measure 66
0100
0100
0000
0010
3010
0100
0001
0100
,  // measure 67
0020
1000
1000
0230
0001
0010
0310
1000
,  // measure 68
0100
0000
0010
0001
1000
0000
0010
0100
0001
0000
1000
0100
0010
0000
0001
0000
,  // measure 69
1000
0010
1000
0001
0010
0100
1000
0020
,  // measure 70
0001
0001
0000
1000
1030
0001
0010
0100
,  // measure 71
1000
0010
1000
0001
0010
0100
1000
0001
0010
0100
1000
0001
0100
0010
1000
0100
,  // measure 72
1000
0010
0100
0001
1000
0100
0010
0001
2000
0000
0010
0000
0010
0000
3001
0000
,  // measure 73
0101
0000
1010
0000
1100
1001
0000
0101
,  // measure 74
0001
1000
0000
0001
1000
0000
0001
0100
0010
1000
0100
0010
0001
0100
0010
1000
,  // measure 75
0001
1000
0001
1000
0010
0000
0100
0000
0101
0000
1001
0000
0000
0000
1100
0000
,  // measure 76
0100
1000
0010
0100
0001
0010
0100
0010
0001
0100
0010
1000
0001
0010
0100
1000
,  // measure 77
0001
0000
1100
0000
1001
1010
0000
0001
,  // measure 78
1000
0100
0010
0001
0100
0010
1000
0000
0200
0000
0010
0000
1000
0000
0310
0000
,  // measure 79
0001
0010
0001
1000
0001
0000
0101
0000
0001
0000
1000
0000
0100
0000
1000
0000
,  // measure 80
2002
0000
0000
0000
0000
0000
3003
0000
0100
0010
0100
0010
0001
0000
1000
0000
,  // measure 81
1001
0000
0000
0000
;

//---------------dance-single - ----------------
#NOTES:
     dance-single:
     :
     Medium:
     6:
     0.454,0.510,0.187,0.476,0.000:
0000
0000
0000
0000
,
0000
0000
0000
0000
,
0000
0000
0000
0000
,
0000
0000
0000
0000
,
0000
0000
0000
0000
,
0000
0000
0000
0000
,
0000
0000
0000
0000
,
0000
0000
0000
0000
,
0001
0000
1000
0100
1000
0000
0000
0001
,
0000
0100
0000
0010
2000
0000
3001
0000
,
0010
0000
0010
0000
0001
1000
0000
0020
,
0000
0001
0100
1030
,
0001
0000
1000
0010
1000
0000
0000
0001
,
0000
1000
0000
0010
2000
0000
3100
0000
,
0001
0100
0002
0000
1003
0100
2000
0000
,
0001
3001
1000
1001
,
0001
0000
0100
0010
0000
0100
0000
0001
,
0100
0001
0000
0010
0001
0000
1000
0000
,
0010
1010
0100
0101
,
0001
0000
1000
0001
1000
0000
0010
0000
,
0100
0000
0001
1000
0000
0100
0000
1000
,
0001
1000
0000
0010
1000
0000
0001
0000
,
2000
0100
3002
0100
,
1003
0010
1000
0000
0001
0000
1001
0000
,
0100
0000
0100
0000
1000
0010
0000
0100
,
0002
0003
1000
0010
,
0100
0000
0100
0000
0001
1000
0000
0001
,
0020
0230
2300
3020
,
0130
0000
0100
0000
0001
0010
0000
0001
,
2000
3020
0230
0302
,
1003
0000
0010
1000
0000
0001
1000
0001
,
0000
1000
0100
0000
0010
0000
1001
0000
,
0100
1000
1000
0010
,
0100
1001
0010
1001
,
0001
1000
0001
0000
1000
0100
1000
0000
,
0001
0100
0001
0000
2100
0000
3001
0000
,
0100
0100
0010
1001
,
0100
0000
1000
0000
0001
1000
0001
0000
,
1000
1100
0001
0101
,
0020
1000
1030
1001
,
0200
0000
0300
0000
,
2000
0000
3001
1000
,
0020
0000
0030
0000
,
0200
0000
0301
1000
,
0002
0000
0003
0000
,
2000
0000
3001
0100
,
0002
0000
0003
0000
,
0020
0000
0130
1000
,
0002
0000
1000
0000
2003
0000
0000
0010
,
0000
0001
3001
0100
,
0010
0000
0100
0000
0002
0000
0000
0023
,
0000
0230
2300
3020
,
0230
0000
0001
0000
0302
0000
0000
0100
,
0000
1000
2003
0000
,
0001
3002
0010
0013
,
0100
1001
0010
1100
,
0001
0000
0100
0000
0020
0000
0000
1030
,
0000
0001
0000
1000
0010
0000
0100
0000
,
0001
0000
0010
0000
0002
0000
0000
2003
,
0000
3200
0320
0032
,
1003
0000
0001
1000
0002
0000
0000
1003
,
0000
0010
0000
1000
0001
0000
0000
0000
,
1000
0100
1000
0000
0001
0100
0001
0000
,
1100
0010
0100
1001
,
0100
0000
0010
0001
0000
1000
0000
0001
,
0100
0001
0000
1000
0001
0000
0010
0000
,
0100
0000
1000
0010
0000
1000
0001
1000
,
0000
0001
1000
0000
0001
0000
1001
0000
,
1000
0000
0001
0100
0000
0001
0000
1000
,
0100
1000
0000
0001
0000
0100
0000
0010
,
1000
1010
0001
0011
,
0100
1000
0001
1001
,
1000
0000
1000
0000
0001
0100
0000
0020
,
0000
0030
2000
3200
,
0010
0000
0310
0000
0001
0010
0000
0001
,
2000
3020
0230
0302
,
1003
0000
1001
0000
0001
0100
0000
0010
,
0200
1000
0010
0301
,
1000
0100
1000
0000
0001
0000
0101
0000
,
0020
2030
3200
0320
,
0031
0000
0000
0000
;

//---------------dance-single - ----------------
#NOTES:
     dance-single:
     :
     Easy:
     4:
     0.305,0.304,0.017,0.238,0.000:
0000
0000
0000
0000
,
0000
0000
0000
0000
,
0000
0000
0000
0000
,
0000
0000
0000
0000
,
0000
0000
0000
0000
,
0000
0000
0000
0000
,
0000
0000
0000
0000
,
0000
0000
0000
0000
,
1000
0001
1000
0000
,
0001
0100
0001
1000
,
0200
0000
2300
0000
,
3010
0100
0001
0100
,
0001
1000
0001
0000
,
0100
0010
0100
0000
,
0001
0010
0100
1000
,
0010
0010
0010
0000
,
0100
0001
0100
0001
,
1000
0001
1000
0000
,
0100
1000
0100
1000
,
0001
1000
0001
0000
,
1000
0010
1000
0010
,
1000
0001
1000
0000
,
0001
0010
0100
1000
,
0010
0100
0001
0000
,
1000
1000
0001
1000
,
0020
0000
0130
0001
,
0010
0010
0100
0000
,
1000
0010
0100
0001
,
1000
1000
0001
0010
,
0002
0000
2003
0000
,
3010
0010
0100
0001
,
2000
0000
0001
3001
,
0100
0100
0100
0100
,
0010
0010
0010
0010
,
1000
1000
1000
1000
,
0001
0001
0001
0001
,
1000
0001
1000
0000
,
0001
1000
0001
0000
,
0100
0100
0100
0100
,
0010
0010
0010
0010
,
2000
0000
3000
0000
,
0002
0000
1003
0000
,
0020
0000
0030
0000
,
0200
0000
0301
0000
,
2000
0000
3000
0000
,
0002
0000
1003
0000
,
0020
0000
0030
0000
,
0200
0000
0301
0000
,
1000
0001
2000
0000
,
3002
0000
0103
0010
,
0200
0000
0302
0000
,
1003
0100
0010
0001
,
1000
0001
2000
0000
,
3020
0000
0230
0000
,
0001
0000
0301
0000
,
1001
0001
1001
1000
,
0010
1000
0002
0000
,
1003
0100
1000
0001
,
2000
0000
3020
0000
,
0130
0001
0010
0100
,
1000
0001
1000
0000
,
0001
0100
0001
0000
,
2000
0000
3200
0000
,
0310
0001
1000
0000
,
0001
0100
0001
0000
,
1000
0100
1000
0000
,
0001
0010
0001
0000
,
1000
0010
1000
0001
,
1000
0100
0010
0000
,
0001
0100
0010
0000
,
1000
0001
0010
0000
,
0100
1000
0001
1000
,
0001
0001
0002
0000
,
1003
0000
0100
1000
,
0010
0010
0010
0000
,
0100
0001
0010
0100
,
1000
1000
1000
0000
,
0001
0100
0001
0000
,
1000
0100
0010
0001
,
2000
0000
3001
0000
;

//---------------dance-single - ----------------
#NOTES:
     dance-single:
     :
     Beginner:
     2:
     0.157,0.203,0.000,0.000,0.000:
0000
0000
0000
0000
,
0000
0000
0000
0000
,
0000
0000
0000
0000
,
0000
0000
0000
0000
,
0000
0000
0000
0000
,
0000
0000
0000
0000
,
0000
0000
0000
0000
,
0000
0000
0000
0000
,
1000
0000
0000
0000
,
0001
0000
0000
0000
,
1000
0000
0010
0000
,
1000
0000
0001
0000
,
1000
0000
0000
0000
,
0010
0000
0000
0000
,
0100
0000
0001
0000
,
1000
0000
0001
0001
,
0001
0000
0000
0000
,
1000
0000
0000
0000
,
0010
0000
0100
0000
,
0010
0000
0000
0000
,
1000
0000
0000
0000
,
0100
0000
0000
0000
,
1000
0000
0001
0000
,
1000
0000
0001
0000
,
1000
1000
1000
0000
,
0010
0000
0100
0000
,
0001
0001
0001
0000
,
0010
0000
0100
0000
,
1000
1000
1000
0000
,
0001
0000
1000
0000
,
0010
0000
0100
0000
,
0001
0000
1000
0000
,
0001
0000
0000
0000
,
1000
1000
1000
0000
,
0001
0000
1000
0000
,
0001
0001
0001
0000
,
1000
0000
0100
0000
,
0010
0010
0010
0000
,
0001
0000
0100
0000
,
0010
0010
0010
0000
,
1000
0000
0000
0000
,
0000
0000
0000
0000
,
0001
0000
0000
0000
,
1000
0000
0001
0000
,
1000
0000
0000
0000
,
0001
0000
0000
0000
,
1000
0000
0000
0000
,
0001
0000
1000
0000
,
0001
0000
0000
0000
,
0010
0000
0000
0000
,
0100
0000
0100
0000
,
0100
0000
1000
0000
,
0001
0000
0000
0000
,
1000
0000
0000
0000
,
0010
0000
0010
0000
,
0100
0100
0100
0000
,
0001
0000
1000
0000
,
0001
0000
1000
0000
,
0010
0000
0100
0000
,
0001
0000
0000
0000
,
1000
0000
0100
0000
,
1000
0000
0001
0000
,
1000
0000
0001
0000
,
1000
0000
0000
0000
,
0001
0000
0000
0000
,
1000
0000
0010
0000
,
1000
0000
0000
0000
,
0001
0000
0100
0000
,
0001
0000
0000
0000
,
1000
0000
0001
0000
,
1000
0000
0001
0000
,
1000
0000
0000
0000
,
0001
0001
0001
0000
,
1000
0000
0010
0000
,
0100
0100
0100
0000
,
0001
0000
1000
0000
,
0001
0001
0001
0000
,
1000
0000
0001
0000
,
0010
0000
0100
0000
,
1000
0000
0001
0000
;
