#TITLE:mosaic;
#SUBTITLE:;
#ARTIST:Auridy;
#TITLETRANSLIT:;
#SUBTITLETRANSLIT:;
#ARTISTTRANSLIT:;
#CREDIT:Xythar;
#BANNER:mosaic.png;
#BACKGROUND:mosaic-bg.png;
#LYRICSPATH:;
#CDTITLE:bmiidx.png;
#MUSIC:mosaic.mp3;
#OFFSET:-0.428;
#SAMPLESTART:65.530;
#SAMPLELENGTH:20.400;
#SELECTABLE:YES;
#BPMS:0.000=188.000;
#STOPS:;
#BGCHANGES:;

//---------------dance-single - ----------------
#NOTES:
     dance-single:
     :
     Hard:
     8:
     0.631,0.614,0.414,0.290,0.000:
0000
0000
0000
0000
,
0000
0000
0000
0000
,
2100
0000
0001
0000
3010
0000
0100
0010
,
0000
1000
0010
1000
0001
0000
0010
0000
,
1001
0000
1000
0010
0000
1000
0100
0010
,
0000
0001
0100
0010
1000
0000
0100
0000
,
0012
0000
1000
0000
0103
0000
0010
0100
,
0000
0001
0100
0001
1000
0000
0001
0000
,
0110
0000
1000
0010
0000
1000
0001
0010
,
0000
0100
1000
0001
1000
0010
1000
0001
,
1000
0100
0010
0000
2001
0000
3010
0000
,
0100
0001
1000
0001
0000
0010
0100
0010
,
0001
0000
0100
1000
0000
0100
0010
0100
,
0000
0001
0010
0100
1000
0000
1001
0000
,
0001
0100
0010
0100
0001
1000
0001
0010
,
0000
0100
1000
0001
0000
0100
0010
0100
,
0001
0000
1000
0010
0000
1000
0001
0010
,
0000
0001
1000
0001
1000
0000
0100
0000
,
2010
0000
3100
0000
0010
1000
0001
0000
,
2100
0000
3001
0000
0010
0100
1000
0000
,
0201
0000
0310
0000
1000
0001
0010
0000
,
0100
1000
0010
0100
0001
0010
0100
1000
,
2001
0000
3010
0000
0100
0001
0010
0000
,
1002
0000
0103
0000
0010
1000
0100
0000
,
0012
0000
1003
0000
0001
0100
0010
0000
,
0100
0000
0000
0000
,
0001
0010
0100
2000
0000
0010
3010
0000
,
0001
0010
0100
2000
0000
0010
3010
0000
,
1000
0100
0010
0002
0000
0100
0103
0000
,
0001
0010
0100
2000
0000
0010
3010
0000
,
2000
0000
3002
0000
0103
0010
0000
0100
,
0002
0000
0023
0000
0130
1000
0000
0001
,
2000
0000
3020
0000
0130
0001
0000
0010
,
0002
0000
2003
0000
0010
3010
0000
0100
,
0002
0000
0023
0000
0130
1000
0000
0001
,
2000
0000
3020
0000
0130
0001
0000
0010
,
0001
0000
1000
0100
0000
1000
0010
1000
,
0000
0001
1000
0001
1000
0000
0110
0000
,
1100
0000
1001
0000
1000
0001
0100
0000
,
0101
0000
0011
0000
0010
0001
0100
0000
,
0101
0000
1010
0000
0010
1000
0001
0000
,
2100
0001
0010
3100
,
1001
0000
1010
0000
0100
0001
0010
0000
,
1100
0000
1001
0000
0100
0010
0100
0000
,
1001
0000
1010
0000
0100
0001
1000
0000
,
0001
0000
0000
0000
,
1000
0000
0000
0000
,
0001
0010
0001
1000
0001
0010
0100
1000
,
0001
0100
0010
1000
0000
0000
0000
1000
,
0001
0100
0010
1000
0000
0000
0000
0000
,
0000
0000
0000
0000
,
1010
0000
1001
0000
0011
0000
0100
1000
,
0000
0001
1000
0010
1000
0000
0001
0000
,
0110
0000
1000
0100
0000
0010
0001
1000
,
0000
0001
0100
0010
1000
0001
0010
0100
,
1100
0000
1001
0000
0101
0000
0010
1000
,
0000
0001
1000
0100
1000
0000
0010
0000
,
1001
0000
0100
0010
0000
1000
0100
1000
,
0001
0100
0010
1000
0001
0010
0100
1000
,
0010
1100
1001
1010
,
0001
0010
0100
1000
0000
0010
0100
0010
,
2000
0000
0010
3010
0000
0100
0001
0010
,
0000
0100
1000
0001
1000
0000
0010
0000
,
0100
0001
0010
0100
1000
0010
1000
0001
,
1000
0100
0010
0001
0000
0000
0000
0000
,
1100
0000
0001
0100
0000
0010
1000
0001
,
0000
1000
0100
1000
0001
0000
1001
0000
,
0000
0001
0010
0001
1000
0000
1001
0000
,
0001
0100
1000
0100
0001
0010
0100
1000
,
0000
0001
0100
0010
2000
0000
3001
0000
;

//---------------dance-single - ----------------
#NOTES:
     dance-single:
     :
     Medium:
     7:
     0.472,0.433,0.052,0.124,0.000:
0000
0000
0000
0000
,
0000
0000
0000
0000
,
0001
0000
1000
0000
0001
0000
1000
0010
,
0000
1000
0000
0001
0010
0000
0001
0000
,
1000
0000
0001
0100
0000
0010
1000
0010
,
0000
0100
0000
0001
1000
0000
0100
0000
,
1001
0000
0001
0000
1000
0000
0100
1000
,
0000
0010
0000
0100
0001
0000
0010
0000
,
0100
0000
1000
0010
0000
1000
0001
1000
,
0000
0001
0010
0001
1000
0000
0000
0000
,
0001
0100
0010
1000
,
0001
0000
1000
0010
0000
0100
0001
0000
,
1000
0000
0100
1000
0000
0010
0100
0010
,
0000
0100
0000
0001
1000
0000
1001
0000
,
0001
0000
0100
0000
0010
0000
1000
0001
,
0000
1000
0100
1000
0000
0001
0100
0000
,
0010
0000
0010
1000
0000
0001
1000
0001
,
0000
1000
0100
1000
0001
0000
0000
0000
,
1000
0002
0100
0013
,
0100
2000
0010
3100
,
0010
0002
0100
1003
,
0001
0010
0100
1000
,
0020
0100
1030
0001
,
2000
0100
3001
0010
,
0200
0010
0301
1000
,
1001
0000
0000
0000
,
0001
0100
0001
1000
0000
0000
0000
0000
,
0001
0010
0001
1000
0000
0000
0000
0000
,
1000
0100
1000
0001
0000
0000
0000
0000
,
0001
0100
0001
1000
0000
0000
0000
0000
,
0100
0000
1000
0000
0001
0010
0000
0001
,
1000
0000
0010
0000
0100
0001
0000
1000
,
0001
0000
0010
0000
0100
1000
0000
0001
,
1000
0000
0010
0000
0100
0001
0000
1000
,
0010
0000
0100
0000
0001
0010
0000
0100
,
1000
0000
0010
0000
0100
0001
0000
0100
,
0010
0000
1000
0010
0000
1000
0001
1000
,
0000
0001
1000
0001
1000
0000
0100
0000
,
2000
0010
0001
3010
,
0002
0100
1000
0103
,
2000
0100
0001
3010
,
0001
0100
0010
1000
,
0002
0010
1000
0103
,
0020
0001
0100
1030
,
0200
0001
0010
1300
,
0001
0000
0000
0000
,
1000
0000
0000
0000
,
0001
0100
0001
0100
0001
0100
0001
0100
,
0001
0010
0001
1000
0000
0000
0000
1000
,
0001
0100
0001
1000
0000
0000
0000
0000
,
0000
0000
0000
0000
,
0001
0000
1000
0000
0010
0000
0100
0010
,
0000
1000
0000
0001
0010
0000
0001
0000
,
1000
0000
0100
1000
0000
0001
1000
0010
,
0000
0100
0001
0000
1000
0000
0000
0000
,
0001
0000
1000
0000
0100
0000
1000
0001
,
0000
0100
0000
0001
1000
0000
0010
0000
,
0100
0000
0100
0001
0000
0010
0001
1000
,
0000
0001
1000
0001
1000
0000
0000
0000
,
0001
0100
0010
1000
,
0001
0000
1000
0100
0000
1000
0010
0000
,
0100
0000
0100
0001
0000
1000
0001
0010
,
0000
0010
0000
0100
1000
0000
0000
0000
,
1000
0010
1000
0010
1000
0010
1000
0010
,
1000
0100
1000
0001
0000
0000
0000
0000
,
0010
0000
0001
1000
0000
0001
1000
0001
,
0000
1000
0100
1000
0001
0000
0100
0000
,
0000
0001
0010
0001
1000
0000
0010
0000
,
0100
1001
0010
0100
,
0000
1000
0001
1000
0001
0000
1001
0000
;

//---------------dance-single - ----------------
#NOTES:
     dance-single:
     :
     Easy:
     4:
     0.280,0.361,0.145,0.000,0.000: // measure 1
0000
0000
0000
0000
,  // measure 2
0000
0000
0000
0000
,  // measure 3
1000
0000
0001
0000
,  // measure 4
1000
0001
0010
0000
,  // measure 5
0100
1000
0001
0000
,  // measure 6
1000
0001
0010
0100
,  // measure 7
1000
0000
0010
0000
,  // measure 8
0100
0001
1000
0000
,  // measure 9
0001
1000
0010
0000
,  // measure 10
0100
0001
0100
0000
,  // measure 11
0010
1000
0010
1000
,  // measure 12
0001
0000
0000
0000
,  // measure 13
1000
0000
0001
0000
,  // measure 14
0010
0100
1000
0000
,  // measure 15
0001
0100
0001
0100
,  // measure 16
0010
0000
0000
0000
,  // measure 17
1000
0000
0100
0000
,  // measure 18
1000
0001
1000
0000
,  // measure 19
0001
0100
0001
0000
,  // measure 20
1000
0100
1000
0000
,  // measure 21
0001
0010
0001
0000
,  // measure 22
1000
0001
0010
0100
,  // measure 23
1000
0010
1000
0000
,  // measure 24
0001
0100
0001
0000
,  // measure 25
1000
0100
1000
0000
,  // measure 26
0001
0000
0000
0000
,  // measure 27
1001
1001
0000
0000
,  // measure 28
1001
1001
0000
0000
,  // measure 29
0110
0110
0000
0000
,  // measure 30
1001
1001
0000
0000
,  // measure 31
1000
0000
0010
0000
,  // measure 32
1000
0000
0001
0000
,  // measure 33
0010
0000
0100
0000
,  // measure 34
1000
0000
0000
0000
,  // measure 35
0001
0000
0100
0000
,  // measure 36
0001
0000
0010
0000
,  // measure 37
0001
0000
1000
0000
,  // measure 38
0001
0001
0001
0000
,  // measure 39
1000
0010
1000
0000
,  // measure 40
0001
0100
0001
0000
,  // measure 41
1000
0100
1000
0000
,  // measure 42
0001
0010
0100
1000
,  // measure 43
0010
0100
0010
0000
,  // measure 44
0100
0001
0100
0000
,  // measure 45
0001
1000
0001
0000
,  // measure 46
1001
0000
0000
0000
,  // measure 47
0110
0000
0000
0000
,  // measure 48
0001
0100
0010
1000
,  // measure 49
0001
1000
0000
0000
,  // measure 50
0001
1000
0000
0000
,  // measure 51
0000
0000
0000
0000
,  // measure 52
1000
0000
0010
0000
,  // measure 53
0100
0001
0010
0000
,  // measure 54
0100
1000
0010
0000
,  // measure 55
0100
0000
1001
0000
,  // measure 56
1000
0000
0001
0000
,  // measure 57
1000
0100
1000
0000
,  // measure 58
0001
0100
0001
0000
,  // measure 59
1000
0000
0110
0000
,  // measure 60
0001
0100
0010
1000
,  // measure 61
0001
1000
0001
0000
,  // measure 62
1000
0000
0010
0000
,  // measure 63
0100
0001
0100
0000
,  // measure 64
0001
0010
0100
1000
,  // measure 65
0100
0010
0001
0000
,  // measure 66
1000
0000
0010
0000
,  // measure 67
1000
0001
1001
0000
,  // measure 68
0001
1000
1001
0000
,  // measure 69
0010
0000
0100
0000
,  // measure 70
0001
1000
0001
1000
;

//---------------dance-single - ----------------
#NOTES:
     dance-single:
     :
     Beginner:
     2:
     0.151,0.252,0.000,0.000,0.000:
0000
0000
0000
0000
,
0000
0000
0000
0000
,
1000
0000
0000
0000
,
0001
0000
0000
0000
,
1000
0000
0001
0000
,
1000
0000
0000
0000
,
0001
0000
0000
0000
,
0010
0000
0000
0000
,
0100
0000
1000
0000
,
0001
0000
0000
0000
,
1000
0000
0010
0000
,
0100
0000
0000
0000
,
0001
0000
1000
0000
,
0001
0000
0000
0000
,
1000
0000
0100
0000
,
0010
0000
0000
0000
,
0001
0000
1000
0000
,
0010
0000
0000
0000
,
1000
0000
0000
0000
,
0001
0000
0000
0000
,
1000
0000
0000
0000
,
0010
0000
0100
0000
,
0001
0000
0000
0000
,
1000
0000
0000
0000
,
0010
0000
0000
0000
,
1000
0000
0000
0000
,
0100
0100
0000
0000
,
0100
0100
0000
0000
,
0010
0010
0000
0000
,
0100
0100
0000
0000
,
1000
0000
0000
0000
,
0001
0000
0000
0000
,
0100
0000
0000
0000
,
0010
0000
0000
0000
,
1000
0000
0000
0000
,
0001
0000
0000
0000
,
1000
0000
0000
0000
,
0000
0000
0000
0000
,
0001
0000
1000
0000
,
0001
0000
1000
0000
,
0001
0000
1000
0000
,
0010
0000
0000
0000
,
1000
0000
0100
0000
,
1000
0000
0100
0000
,
1000
0000
0001
0000
,
1000
0000
0000
0000
,
0010
0000
0000
0000
,
0100
0000
0100
0100
,
0100
0000
0000
0000
,
0010
0010
0000
0000
,
1000
0000
0000
0000
,
0001
0000
1000
0000
,
0010
0000
1000
0000
,
0001
0000
0000
0000
,
1000
0000
0000
0000
,
0010
0000
0100
0000
,
0010
0000
0100
0000
,
0001
0000
0000
0000
,
1000
0000
0000
0000
,
0001
0000
0010
0000
,
0100
0000
1000
0000
,
0010
0000
0000
0000
,
0100
0000
0000
0000
,
0001
0000
0100
0000
,
0010
0000
1000
0000
,
0100
0000
0000
0000
,
0010
0010
0010
0000
,
0001
0001
0001
0000
,
1000
0000
0001
0000
,
1000
1000
1000
0000
;
