#TITLE:love the world;
#SUBTITLE:;
#ARTIST:Perfume;
#TITLETRANSLIT:;
#SUBTITLETRANSLIT:;
#ARTISTTRANSLIT:;
#CREDIT:Xythar and lrxevan;
#BANNER:love the world.png;
#BACKGROUND:love the world-bg.png;
#LYRICSPATH:love the world.lrc;
#CDTITLE:cdtitle.png;
#MUSIC:love the world.ogg;
#OFFSET:-0.194;
#SAMPLESTART:58.110;
#SAMPLELENGTH:14.750;
#SELECTABLE:YES;
#BPMS:0.000=130.000;
#STOPS:;
#BGCHANGES:-0.430=love the world.avi=1.000=1=1=0,
99999=-nosongbg-=1.000=0=0=0 // don't automatically add -songbackground-
;

//---------------dance-single - ----------------
#NOTES:
     dance-single:
     :
     Easy:
     2:
     0.186,0.184,0.017,0.033,0.000: // measure 1
0000
0000
0000
0000
,  // measure 2
0000
0000
0000
0000
,  // measure 3
0000
0000
0000
0000
,  // measure 4
0000
0000
0000
0000
,  // measure 5
1000
1000
0000
0001
,  // measure 6
0001
0000
0100
0000
,  // measure 7
0010
0010
0000
1000
,  // measure 8
1000
0000
0100
0000
,  // measure 9
1000
0000
0001
0000
,  // measure 10
1000
0001
1000
0000
,  // measure 11
0010
0000
0100
0000
,  // measure 12
0010
0100
0010
0000
,  // measure 13
1000
0000
0100
0000
,  // measure 14
1000
0100
1000
0000
,  // measure 15
0001
0000
0100
0000
,  // measure 16
0001
0100
0001
0000
,  // measure 17
1000
1000
0001
0000
,  // measure 18
0001
0001
1000
0000
,  // measure 19
0100
0100
0010
0000
,  // measure 20
0010
0010
0100
0000
,  // measure 21
1000
1000
0010
0000
,  // measure 22
0010
0010
1000
0000
,  // measure 23
0001
0001
0010
0000
,  // measure 24
0010
0010
0001
0000
,  // measure 25
2000
0000
3001
0000
,  // measure 26
1000
0001
1000
0000
,  // measure 27
0020
0000
0130
0000
,  // measure 28
0010
0100
0010
0000
,  // measure 29
2000
0000
3100
0000
,  // measure 30
0002
0000
0103
0000
,  // measure 31
1000
0000
0001
0000
,  // measure 32
1001
0000
0000
0000
,  // measure 33
1000
0010
0000
0000
,  // measure 34
1000
0100
0000
0000
,  // measure 35
0010
0001
0000
0000
,  // measure 36
0100
0001
0000
0000
,  // measure 37
1000
0100
1000
0000
,  // measure 38
0001
0100
0001
0000
,  // measure 39
1000
0010
1000
0000
,  // measure 40
0001
0010
0001
0000
,  // measure 41
1000
1000
0100
0000
,  // measure 42
0001
0001
0100
0000
,  // measure 43
0010
0010
0001
0000
,  // measure 44
0010
0010
1000
0000
,  // measure 45
1000
0001
0100
0000
,  // measure 46
0001
1000
0100
0000
,  // measure 47
0010
0100
0001
0000
,  // measure 48
0000
0000
1000
0001
,  // measure 49
1001
0000
0010
0000
,  // measure 50
0100
0001
0010
0000
,  // measure 51
0100
0000
1000
0000
,  // measure 52
0010
0100
0001
0000
,  // measure 53
0010
0000
0100
0000
,  // measure 54
1000
0000
0001
1000
,  // measure 55
0010
0000
0100
0000
,  // measure 56
0001
0000
1000
0001
,  // measure 57
0010
0000
0100
0000
,  // measure 58
1000
1000
0001
0001
,  // measure 59
0100
0000
0010
0000
,  // measure 60
0100
0100
0010
0010
,  // measure 61
1000
0000
0000
0000
,  // measure 62
0001
0000
0000
0000
,  // measure 63
0100
0000
0000
0000
,  // measure 64
0010
0000
0000
0000
;

//---------------dance-single - ----------------
#NOTES:
     dance-single:
     :
     Medium:
     4:
     0.272,0.293,0.125,0.033,0.000:
0000
0000
0000
0000
,
0000
0000
0000
0000
,
0000
0000
0000
0000
,
0000
1000
0000
0000
,
1000
0000
0000
1000
0000
0000
0000
0000
,
0001
1000
0001
1000
,
0001
0000
0000
0001
0000
0000
0000
0000
,
0010
0100
0010
0100
,
0000
1000
1000
0000
,
0001
0100
0001
0100
,
0000
1000
1000
0000
,
0100
0010
0100
0010
,
0001
1000
1000
0000
,
0001
0100
0001
0100
,
0000
0010
0010
0000
,
1000
0100
1000
1000
,
0001
0100
0001
0000
,
1000
0100
1000
0001
,
0100
0010
0100
0000
,
0001
0010
0001
1000
,
0001
0010
0100
0000
,
1000
0010
0100
0001
,
1000
0001
1000
0000
,
1000
0000
1000
0000
,
0001
0002
1000
1003
,
1000
2000
0001
3001
,
0002
1000
1003
1000
,
2000
0001
3001
1000
,
0001
1001
0000
1001
,
0000
0110
0000
0110
,
0010
0000
0000
1000
0000
0100
0000
1000
,
0000
0000
1001
0000
,
1000
0100
1000
0100
,
0010
0001
0010
0001
,
0100
0010
0100
0010
,
1000
0001
1000
0001
,
0100
0001
0100
0001
,
0010
1000
0010
1000
,
0010
0100
0010
0001
,
1000
0001
1000
0000
,
0001
0100
0001
1001
,
0100
0010
0100
0110
,
1000
0001
1000
1001
,
0001
0100
0001
1001
,
1000
0010
1000
0110
,
0100
0001
0100
1001
,
1000
0000
0100
0000
0010
0000
0000
1000
,
0000
0100
0000
0010
0000
0001
0000
1000
,
0000
0001
0000
0100
0000
0001
0000
1000
,
0000
0100
0000
1000
0000
0001
0000
0010
,
0000
0001
0000
0010
0000
0100
0000
1000
,
0000
0010
0000
1000
0000
0001
0000
0100
,
0000
0001
0000
0010
0000
0001
0000
1000
,
0000
0001
0000
0010
0000
0100
0000
1000
,
0000
0010
0000
1000
0000
0001
0000
0100
,
0000
0001
0000
1000
0000
0001
0000
1000
,
0001
0000
0000
0001
0000
0000
0000
0000
,
1000
0100
0010
0001
,
1000
0000
0000
1000
0000
0000
0000
0000
,
0010
0100
0001
1000
,
1001
0000
0000
1001
0000
0000
0000
0000
,
1000
0010
1000
0100
,
0110
0000
0000
0110
0000
0000
0000
0000
,
0010
0100
1000
0001
;

//---------------dance-single - ----------------
#NOTES:
     dance-single:
     :
     Hard:
     7:
     0.440,0.427,0.242,0.083,0.000:
0000
0000
0000
0000
,
0000
0000
0000
0000
,
0000
0000
0000
0000
,
0000
0000
0000
0000
,
1001
0000
0100
0010
0000
0001
0100
0000
,
0010
1000
0001
0000
0010
0000
0100
0000
,
1010
0000
0100
0001
0000
1000
0100
0000
,
1000
0001
0100
0000
0001
0010
1000
0010
,
0001
0000
2100
0000
3001
0000
0100
0010
,
0000
1000
0100
0000
0010
0001
0100
0001
,
0010
0000
2100
0000
3010
0000
0100
0001
,
0000
1000
0100
0000
1000
0010
0001
0010
,
1000
0000
0201
0000
0310
0000
1000
0100
,
0000
0010
0001
0000
1000
0010
0100
0010
,
1000
0000
0001
0100
1000
0000
0001
0010
,
0000
0100
1000
0000
1020
0000
0130
0001
,
1000
0000
0011
0001
1000
0000
0001
0000
,
1000
0010
0100
0010
1000
1000
0100
0010
,
0001
0000
1010
0010
0100
0000
0001
0000
,
1000
0100
0001
0100
1000
1000
0010
0100
,
0001
0000
1100
1000
0010
0000
0100
0000
,
0001
0010
0100
1000
0010
0010
0100
0001
,
1000
0000
0101
0001
1000
0000
0001
0000
,
1000
0010
0100
0001
0010
0000
1000
0010
,
0002
0100
1000
0013
,
0100
1000
0010
0100
0001
0000
0010
0100
,
2000
0010
0001
3100
,
0010
0001
0100
0001
0010
0000
0100
1000
,
0020
0001
0100
1030
,
0200
0001
0010
1300
,
0110
0000
0000
0001
0000
1000
0000
1001
,
0000
0000
0000
0000
,
0101
0000
0010
0000
1000
0001
0010
0000
,
0100
0000
1001
0000
0100
0001
0010
0001
,
0100
0000
1000
0100
0001
0000
1000
0100
,
0001
0000
1001
0000
0100
1000
0010
1000
,
0100
0000
0011
0000
0001
0100
0010
0100
,
0001
0000
1100
0000
0001
0010
1000
0010
,
0001
0000
0110
0000
1000
0100
0001
0100
,
1000
0000
0001
0000
1000
0010
0100
0000
,
0011
0000
1100
0000
0001
1000
0010
0000
,
0101
0000
1010
0000
0100
1000
0010
1000
,
0100
0000
0010
0001
0100
0000
0010
1000
,
0100
0000
0011
0000
0100
1000
0010
1000
,
0001
0000
0110
0000
1000
0001
0100
0010
,
0100
0000
1001
0000
0100
0010
0001
0100
,
0010
0000
1000
0000
0001
1000
0100
0010
,
0000
0000
0000
0000
0001
0001
1000
0010
,
0100
0001
0010
0100
0000
1000
0010
0100
,
0000
1000
0010
0100
0000
0001
0010
0100
,
0100
1000
0001
0100
0000
1000
0001
0100
,
0000
0001
1000
0100
0100
0010
0001
0100
,
0010
1000
0100
0010
0000
1000
0100
0010
,
0000
0100
1000
0010
0010
0100
0001
0010
,
1000
0010
0001
1000
0000
0100
0010
0001
,
0000
0100
0010
0001
0000
1000
0010
0010
,
1000
0000
0001
0100
0000
0010
1000
0000
,
0001
1000
0001
0000
1100
0000
0101
0000
,
0010
0000
1000
0100
0000
0010
0001
0000
,
0100
0010
0100
0000
0011
0000
1010
0000
,
0001
0000
0000
1000
0000
0000
0000
0001
,
0000
1000
0100
0000
1000
0000
0000
0000
,
0010
0000
0000
0100
0000
0000
0000
0001
,
0000
1000
0001
0020
0000
0230
0000
1300
;

//---------------dance-single - ----------------
#NOTES:
     dance-single:
     :
     Challenge:
     8:
     0.468,0.506,0.276,0.050,0.038:
0000
0000
0000
0000
,
0000
0000
0000
0000
,
0000
0000
0000
0000
,
0000
0000
0000
0000
,
1010
0000
1000
0001
0000
0001
0010
0000
,
0010
0001
0100
0001
1000
0100
0010
0000
,
0101
0000
0001
0100
0000
0100
0010
0000
,
1000
0100
1000
0001
0010
0100
1000
0000
,
0001
1100
0101
0010
,
0100
1000
0010
1000
0100
0010
0001
0000
,
1000
0000
0101
0000
1001
0000
1000
0001
,
1000
0000
0001
0100
1000
0000
0001
1000
,
0100
1100
0101
0010
,
1000
0100
1000
0000
0001
0010
0001
1000
,
0100
0000
0011
0000
1010
0000
0100
0001
,
1000
0000
0010
0001
0100
0000
0010
1000
,
0100
1000
0010
1000
0000
0001
0100
0000
,
0001
1000
0001
1000
1000
1000
1000
1000
,
0001
0000
0010
0100
0010
0001
1000
0000
,
0001
1000
0001
1000
0001
0000
1000
1000
,
0001
0000
0010
0001
0100
0010
1000
0000
,
0100
0010
0001
0100
0010
0010
0010
0010
,
1000
0000
0100
1000
0010
0000
0100
0001
,
0010
0001
1000
0100
,
0010
0002
0100
0000
0010
0000
1003
0000
,
0010
0001
1000
0000
0100
0001
1000
0000
,
0010
0200
1000
0000
0010
0000
1300
0000
,
0010
0000
0101
0000
1000
0100
0010
0001
,
1000
0020
0100
0000
0100
0000
0130
0000
,
0100
0002
0100
0000
0100
0000
0103
0000
,
1001
0000
0010
1100
0000
0110
0000
0011
,
0000
0000
1001
0000
,
0010
1000
0100
1000
0010
0100
0001
1000
,
0001
0010
1000
0010
0001
0100
0010
1000
,
0100
0000
1001
0000
0010
0010
1001
0000
,
1000
0000
1010
0000
0001
0001
0110
0000
,
0001
0100
0010
1000
0001
0010
0100
1000
,
0010
0100
0010
0100
0001
0010
1000
0010
,
0100
1001
0002
1003
,
0020
1000
1030
0000
0010
1000
0001
0000
,
1000
0100
0001
0100
0010
0001
0100
1000
,
0100
0010
1000
0100
1000
0010
0100
0001
,
1000
0000
0101
0000
1000
1000
0101
0000
,
0010
0000
1001
0000
0100
0010
1001
0000
,
0010
1000
0100
0001
0100
0010
0001
0100
,
1000
0010
1000
0100
0001
1000
0100
1000
,
0000
0001
0000
0100
0000
0001
0010
0100
,
0000
1000
0100
0010
0000
0100
0000
0100
,
1000
0010
1000
0000
0001
0000
0100
0000
0000
0000
0001
0000
0001
0000
0000
0000
,
1000
0000
0001
0010
0001
0000
1000
0000
0100
0000
0010
0000
0001
0000
0000
0000
,
1000
0010
1000
0000
0100
0000
1000
0000
0000
0000
0010
0000
0010
0000
0000
0000
,
0100
0000
0010
0100
0010
0000
0100
0000
0001
0010
0001
0000
1000
0100
1000
0000
,
0001
0100
0001
0000
0100
0000
0001
0000
0000
0000
0100
0000
0100
0000
0000
0000
,
1000
0000
0100
1000
0100
0000
1000
0000
0001
0000
0010
0000
0100
0000
0000
0000
,
1000
0001
1000
0000
1000
0000
0001
0000
0000
0000
0010
0000
0010
0000
0010
0000
,
0000
0001
0000
0100
0000
0010
0000
1000
,
0011
0000
0000
1100
0000
0000
0000
0000
,
0010
0001
1000
0100
1000
0001
0010
0000
,
0110
0000
0000
1001
0000
0000
0000
0000
,
1000
0100
0010
0001
0100
0010
1000
0000
,
0011
0000
0000
1100
0000
0000
0000
0000
,
0001
0000
0001
0000
1000
0001
1000
0000
,
0101
0000
0000
1100
0000
0000
0000
0000
,
1000
0000
1000
0000
0001
1000
0001
0000
;
