#TITLE:jewelry girl*;
#SUBTITLE:;
#ARTIST:jun;
#TITLETRANSLIT:;
#SUBTITLETRANSLIT:;
#ARTISTTRANSLIT:;
#CREDIT:Steps and graphics by Xythar;
#BANNER:jewelry girl.png;
#BACKGROUND:jewelry girl-bg.png;
#LYRICSPATH:;
#CDTITLE:popnmusic.png;
#MUSIC:jewelry girl.mp3;
#OFFSET:-5.282;
#SAMPLESTART:36.500;
#SAMPLELENGTH:11.980;
#SELECTABLE:YES;
#BPMS:0.000=173.000;
#STOPS:84.000=1.040
;
#BGCHANGES:;

//---------------dance-single - ----------------
#NOTES:
     dance-single:
     :
     Easy:
     4:
     0.279,0.280,0.175,0.000,0.000:
0000
0000
0000
0000
,
1001
0000
0001
0010
,
0100
1000
0010
0000
,
0101
0000
0001
1000
,
1001
0000
1000
0100
,
0010
0000
0001
0000
,
0100
0000
0010
1000
,
0100
0000
0010
0000
,
0001
0000
1000
0100
,
0010
0000
0001
0000
,
0100
0000
0010
0100
,
0001
0000
1000
0100
,
0010
0000
0001
0010
,
0100
0000
1000
0000
,
0010
0000
0100
0001
,
1000
0100
0010
0000
,
0001
0000
1000
0010
,
0100
0010
1000
0000
,
0001
0000
0010
0000
,
0100
1000
0010
1000
,
0001
0000
0010
0000
,
0100
1000
0010
0100
,
0001
0100
0000
0010
,
1000
0100
0010
0001
,
1000
0010
0000
0100
,
0001
1001
0000
0100
,
0010
0001
1000
0010
,
0000
0100
0001
1000
,
0100
0010
0100
1000
,
0001
0100
0010
1000
,
0000
0100
0000
0010
,
0001
0010
0100
1000
,
0010
0100
0000
0001
,
1000
1001
0000
0001
,
0010
0100
1000
0010
,
0100
0010
1000
0100
,
0010
0001
1000
0001
,
1000
1001
0000
0001
,
0000
0010
0000
0100
,
0000
1100
0000
1000
,
0000
0010
0100
0001
,
0000
1001
0000
0001
,
0000
0010
0001
1000
,
0000
1010
0000
0100
,
0001
0101
0000
1000
,
0100
1100
0000
0010
,
0000
0001
1000
0001
,
0000
1100
0000
0010
,
0000
0001
0100
0010
,
0000
1010
0000
0001
,
0000
0100
0010
1000
,
0000
1001
0000
0000
,
0000
0110
0000
0001
,
0010
0100
0000
0000
;

//---------------dance-single - ----------------
#NOTES:
     dance-single:
     :
     Hard:
     8:
     0.550,0.529,0.585,0.000,0.000: // measure 1
0000
0000
0000
0000
,  // measure 2
1001
0000
1001
0000
0001
0000
0010
0100
,  // measure 3
0000
0100
1000
0000
0010
0000
0100
0000
,  // measure 4
0101
0000
0101
0000
0001
1000
0100
0000
,  // measure 5
0110
0000
0110
0000
0001
0010
0100
1000
,  // measure 6
0010
0000
0100
0000
0001
0000
1000
0010
,  // measure 7
0000
0100
0001
0100
0010
0000
1000
0000
,  // measure 8
1100
1100
0100
1000
,  // measure 9
0010
0100
0001
0100
,  // measure 10
1010
0000
1010
0000
0100
0000
0001
0010
,  // measure 11
0000
0100
0010
0100
1000
0000
0001
0000
,  // measure 12
0101
0101
0001
1000
,  // measure 13
1100
0000
1100
0000
0010
0000
0001
0010
,  // measure 14
0100
0001
0100
1000
,  // measure 15
0010
0000
0100
0000
1000
0000
0100
0001
,  // measure 16
0100
0001
0010
0100
,  // measure 17
1000
0000
0010
0000
0100
0001
1000
0100
,  // measure 18
1000
0001
0010
0100
,  // measure 19
1000
0000
0010
0000
0100
0001
1000
0100
,  // measure 20
0010
0001
0100
1000
,  // measure 21
0100
0000
0001
1000
0100
1000
0001
0100
,  // measure 22
0010
0000
1000
0100
0010
0001
0100
0010
,  // measure 23
0100
0001
1000
0000
1100
0000
0110
0000
,  // measure 24
0011
0000
1001
0000
0001
0100
0010
0000
,  // measure 25
1010
0000
0101
0000
0001
0010
0000
0100
,  // measure 26
1000
0001
0100
0010
0100
0001
1000
0100
,  // measure 27
0010
0001
1000
0010
0100
0010
1000
0001
,  // measure 28
0010
0011
0110
1100
,  // measure 29
1001
0000
0001
0100
0010
1000
0100
0010
,  // measure 30
0100
0000
0011
0000
1000
0100
1000
0001
,  // measure 31
0100
0000
0110
0000
1000
0010
0100
0001
,  // measure 32
1000
1010
0110
0101
,  // measure 33
0001
0010
0100
1000
0010
0100
0000
0100
,  // measure 34
0001
1000
0100
0000
0110
0000
0011
0000
,  // measure 35
1000
0100
0010
0001
0100
0000
1010
0000
,  // measure 36
0001
1000
0010
0000
0101
0000
0110
0000
,  // measure 37
1010
0000
0001
0010
0100
1000
0001
0100
,  // measure 38
0010
0100
0001
0000
0101
0000
0100
0000
,  // measure 39
0001
1000
0000
0100
0010
0001
0100
0000
,  // measure 40
0010
1000
0100
0000
0110
0000
0010
0000
,  // measure 41
0001
0010
0000
0100
1000
0001
0100
0000
,  // measure 42
0010
1000
0100
0000
1100
0000
0001
0000
,  // measure 43
0100
0010
0000
0100
0001
1000
0010
0000
,  // measure 44
1000
1100
0110
0001
,  // measure 45
0100
0000
0101
0000
0110
0000
1000
0100
,  // measure 46
0010
0001
1000
0000
1001
0000
0001
0000
,  // measure 47
0010
0100
0000
1000
0001
0100
0001
0000
,  // measure 48
1000
0110
0011
0001
,  // measure 49
0100
0010
0000
1000
0100
0010
0001
0000
,  // measure 50
1000
1010
0110
0001
,  // measure 51
1000
0100
0000
1000
0010
0100
0001
0000
,  // measure 52
1000
0000
0011
0000
0110
0000
0001
0010
,  // measure 53
0100
1000
0010
0000
0110
0000
0010
1000
,  // measure 54
0001
1000
0100
0000
0000
0000
0000
0000
;

//---------------dance-single - ----------------
#NOTES:
     dance-single:
     :
     Medium:
     6:
     0.470,0.405,0.386,0.082,0.000:
0000
0000
0000
0000
,
1000
0000
1001
0000
0001
0000
0010
0100
,
0000
1000
0000
0010
0100
0000
0001
0000
,
0100
0110
0010
1000
,
0100
0000
0110
0000
0010
0001
0010
0000
,
0100
0000
1100
0000
1000
0000
0010
0100
,
0000
0100
0001
0000
1000
0000
0100
0000
,
0010
0011
0001
0100
,
0010
0100
0001
0010
,
0100
0000
1100
0000
1000
0000
0001
0100
,
0000
0010
0000
1000
0010
0000
0100
0000
,
0001
0011
0010
0100
,
1000
1100
1000
0010
,
0200
0001
0301
0010
,
0100
1000
0020
0100
,
0130
0002
1000
1003
,
0100
0010
0002
0100
,
0103
0010
1000
0100
,
0010
0001
2000
0010
,
3010
0000
0100
0001
0000
1000
0000
0100
,
0000
0010
0001
0000
1000
0000
0010
0000
,
0100
0000
0001
0010
0001
0000
1000
0000
,
0100
0010
0100
0000
0010
0000
0001
0000
,
0011
1000
0010
0100
,
0001
0100
0001
0000
1000
0100
0000
0100
,
1000
0000
1010
0000
0100
0001
0100
0000
,
0001
0000
0010
0000
0100
1000
0100
0000
,
1000
1010
0010
0110
,
0100
0000
0101
0000
0001
0010
0001
1000
,
0100
2000
0010
3010
,
0100
0001
0100
0000
0001
0000
0010
0000
,
0100
0000
1000
0000
0010
0100
0000
0100
,
0001
0000
1000
0000
0100
0010
0000
0010
,
0001
0000
1001
0000
0001
0100
0001
0000
,
1000
0000
0010
0000
0100
0010
0100
0000
,
0001
0010
0100
1000
,
0010
0110
0100
0101
,
0001
1000
0100
0000
0010
0000
0011
0000
,
0001
0100
0000
0100
0010
0000
1010
0000
,
1000
0100
1000
0000
0001
0000
0011
0000
,
1000
0100
0000
0100
0010
0000
0011
0000
,
0001
0100
0001
0000
0100
0000
0110
0000
,
0010
1000
0000
1000
0100
0000
0110
0000
,
0010
0011
0011
0001
,
0100
0000
1010
0000
1010
0000
1000
0001
,
2000
0001
3001
0100
,
0010
1000
0000
1000
0100
0000
0010
0000
,
0001
0010
0001
0000
1000
0000
1010
0000
,
0100
0001
0000
0001
1000
0000
0100
0000
,
0010
0011
0011
0001
,
0100
0010
0000
0010
1000
0000
0001
0000
,
0100
1010
1010
1000
,
0100
0000
0011
0000
0011
0000
0001
0010
,
0001
1000
0001
0000
0000
0000
0000
0000
;

//---------------dance-single - ----------------
#NOTES:
     dance-single:
     :
     Beginner:
     2:
     0.187,0.187,0.094,0.000,0.000:
0000
0000
0000
0000
,
1000
1000
0000
0000
,
0010
0000
0100
0000
,
0001
0001
0000
0000
,
1000
1000
0000
0000
,
0100
0000
0010
0000
,
0001
0000
1000
0000
,
0010
0010
0000
0000
,
0100
0000
0001
0000
,
1000
1000
0000
0000
,
0100
0000
0010
0000
,
0001
0001
0000
0000
,
1000
1000
0000
0000
,
0010
0000
0100
0000
,
0010
0000
0100
0000
,
0001
0000
1000
0000
,
0100
0000
0010
0000
,
0001
0000
1000
0000
,
0010
0000
0100
0000
,
0001
0000
1000
0000
,
0001
0000
0010
0000
,
0100
0000
0000
0010
,
0000
0100
0000
1000
,
0000
0010
0000
0100
,
0000
0001
0000
1000
,
0000
1001
0000
0001
,
0000
0010
0000
0100
,
0000
0110
0000
1001
,
0000
0110
0000
1001
,
0000
0001
0000
0100
,
0000
0010
0000
1000
,
0000
0100
0000
0010
,
0000
0001
0000
1000
,
0000
1001
0000
0001
,
0000
0100
0000
0010
,
0000
1000
0000
0100
,
0000
0010
0000
0001
,
0000
1001
0000
0000
,
0000
1000
0000
0010
,
0000
0100
0100
0000
,
0000
0001
0000
0010
,
0000
0100
0100
0000
,
0000
1000
0000
0010
,
0000
1000
1000
0000
,
0000
0001
0001
0000
,
0000
0100
0100
0000
,
0000
0010
0000
1000
,
0000
0100
0100
0000
,
0000
0010
0000
0001
,
0000
1000
1000
0000
,
0000
0001
0000
0100
,
0000
0010
0010
0000
,
0000
1000
1000
0000
,
0000
1001
0000
0000
;
