#TITLE:envelope;
#SUBTITLE:;
#ARTIST:onoken;
#TITLETRANSLIT:;
#SUBTITLETRANSLIT:;
#ARTISTTRANSLIT:;
#CREDIT:;
#BANNER:envelope.png;
#BACKGROUND:envelope-bg.png;
#LYRICSPATH:;
#CDTITLE:swell strings.png;
#MUSIC:envelope.ogg;
#OFFSET:-10.494;
#SAMPLESTART:77.155;
#SAMPLELENGTH:21.240;
#SELECTABLE:YES;
#BPMS:0.000=90.000;
#STOPS:;
#BGCHANGES:;

//---------------dance-single - ----------------
#NOTES:
     dance-single:
     :
     Hard:
     7:
     0.306,0.352,0.020,0.170,0.612:
0000
0000
0000
0000
,
0000
0000
0001
0000
0000
1000
0000
0000
0010
0000
0000
1000
0000
0001
0000
0000
,
0000
0000
1000
0000
0000
0100
0000
0010
0000
0001
0000
0100
0000
0001
1000
0000
,
0000
0000
0001
0000
0000
0010
0000
0000
0100
0000
0000
1000
0000
0010
0000
0000
,
0000
0000
1000
0000
0000
0100
0000
0000
0010
0000
0000
0100
0000
1000
0000
0001
,
0000
0000
1000
0010
0000
0100
0000
0000
0010
0000
0000
1000
0000
0100
0000
0000
,
0000
0000
1000
0001
0000
0100
0000
0010
0000
0100
0000
0001
0000
1000
0100
0000
,
0000
0000
1000
0010
0000
0100
0000
0000
0010
0000
0000
0100
0000
0001
0000
0000
,
0000
0000
1000
0100
0000
1000
0000
0000
0001
0000
0000
0100
0000
0001
0000
0010
,
0000
0000
0000
0100
0000
0000
0000
1000
0000
0001
0000
1000
0000
0001
0000
0000
,
0100
0000
0000
0010
0000
1000
0000
0200
0000
1000
0000
1300
0000
0001
0000
0000
,
0100
0000
0000
0010
0000
1000
0000
0001
0000
1000
0000
0100
0000
0000
0000
0000
,
1000
0000
0000
0001
0000
0100
0000
0020
0000
1000
0000
1030
0000
0010
0000
0000
,
0100
0000
0000
0001
0000
0010
0000
0100
0000
0000
0000
1000
0000
0010
0000
0100
,
0000
0000
0000
0001
0000
1000
0000
0200
0000
1000
0000
1300
0000
0010
0000
0000
,
0100
0000
0000
0001
0000
0010
0000
0100
0000
1000
0000
0010
0000
0000
0000
0000
,
0100
0000
0000
0010
0000
1000
0000
0002
0000
1000
0000
1003
0000
0100
0000
0000
,
0010
0001
0100
0010
1000
0100
1000
0010
,
0100
0000
0000
0000
0001
0000
0000
1000
0000
0100
0000
1000
0000
0010
0000
0000
,
0100
0001
0010
0100
1000
0001
0100
0010
,
1000
0000
0000
0000
0000
0000
0000
0000
0002
0000
0000
0203
0000
0000
0300
0000
,
0010
1000
0100
1000
0010
0100
0001
0010
,
0100
0000
0000
0000
0000
0000
0000
1000
0000
0010
0000
1000
0000
0001
0000
0000
,
1000
0100
1000
0010
0100
0010
1000
0001
,
0010
0000
0000
0000
0000
0000
0000
0200
0000
0000
0000
0000
2300
0000
0000
0000
,
0001
3000
0000
0000
0100
0000
0000
0001
0000
0010
0000
0001
0000
1000
0000
0000
,
0000
0000
0000
0000
0001
0000
0000
1000
0000
0100
0000
1000
0000
0000
0001
0000
,
0100
0000
0000
0000
1000
0000
0000
0100
0000
0010
0000
0100
0000
0001
0000
0000
,
0000
0000
0000
0000
1000
0000
0000
0100
0000
1000
0000
0001
0000
0000
0100
0000
,
0110
0000
0000
0000
0001
0000
0000
0010
0000
0100
0000
1000
0000
0001
0000
0000
,
0000
0000
0000
0000
1000
0000
0000
0010
0000
1000
0000
0001
0000
0000
0010
0000
,
0100
0000
0000
0000
1000
0000
0000
0010
0000
0001
0000
0010
0000
0100
0000
0000
,
0000
0000
0000
0000
0001
0000
0000
1000
0000
0100
0000
1000
0000
0000
0001
0000
,
0201
0000
0000
0000
0010
0000
0000
0310
0000
1000
0000
0100
0000
0000
2000
0000
,
0000
0001
0000
0000
3100
0000
0000
0010
0000
0001
0000
0100
0000
0000
0010
0000
,
0200
0000
0000
0000
0010
0000
0000
0301
0000
1000
0000
0100
0000
0000
1000
0000
,
0020
0000
0000
0000
0100
0000
0000
1030
0000
0001
0000
0010
0000
0001
1000
0000
,
0010
0000
0000
0100
0000
0001
0100
0002
0000
1000
0000
1003
0000
0100
0010
0200
,
0000
1000
0000
1300
0000
0010
0100
0020
0000
1000
0000
1030
0000
0100
1000
0200
,
0000
1000
0000
1300
0000
0001
0100
0002
0000
0100
0000
1003
0000
0100
0010
0200
,
0000
1000
0000
0310
0000
0001
1000
0002
0000
0100
0000
0013
0000
0000
0000
0000
,
0200
0000
1000
1000
0000
0310
0000
0000
0002
0000
0000
0100
0000
2003
0000
0000
,
0000
0000
0010
3010
0000
0001
0000
0100
0000
0010
0000
1000
0000
0001
0010
0000
,
0002
0000
0100
0100
0000
2003
0000
0000
0010
0000
0000
0001
0000
3200
0000
0000
,
0000
0000
0010
0010
0000
1300
0000
0001
0000
0100
0000
0010
0000
1000
0001
0000
,
1001
0000
0000
0000
;

//---------------dance-single - ----------------
#NOTES:
     dance-single:
     :
     Challenge:
     11:
     0.789,0.689,0.456,0.014,1.000:
0000
0000
0000
0000
,
1000
0000
0000
0000
0001
0000
0100
0001
0100
0000
0010
0000
1000
0000
0100
0000
1000
0000
0001
0000
0000
0000
1001
0000
0000
0000
0001
0000
1000
0000
1000
0000
,
0010
0000
0100
0000
0001
0100
0001
0100
0001
0000
1000
0000
0010
0000
1000
0100
1000
0100
1000
0000
0001
0000
0100
0000
0010
0000
0100
0001
0100
0000
0001
0000
,
0000
0000
1000
0000
1100
0000
0001
0000
0100
0000
0010
1000
0001
1000
0001
1000
0010
0000
0100
0000
0000
0000
0100
0001
0100
0000
0010
0000
1000
0100
1000
0100
,
1000
0001
1000
0001
0100
0000
0100
0010
0100
0000
0101
0000
0010
0000
1000
0000
0000
0000
0001
0010
0100
0000
1000
0001
0100
0000
0010
1000
0001
0000
0010
0000
,
1100
0000
0000
0000
0001
0100
0001
0100
0001
0000
1000
0000
0100
0000
1000
0000
0010
0000
0100
0000
0000
0000
0101
0000
0000
0000
0010
0000
1000
0000
0001
0000
,
0010
0000
0100
0000
1000
0010
0100
0010
1000
0000
0001
0000
0101
0000
1000
0100
0010
0100
1000
0000
0001
0000
0100
0000
0010
0000
1000
0100
0010
0000
1001
0000
,
0000
0000
0100
0000
1001
0000
0001
0000
0100
0000
0010
1000
0001
1000
0010
1000
0001
0000
0100
0000
0000
0000
0100
0010
0100
0000
0001
0000
0010
0100
1000
0100
,
0010
0100
1000
0100
0010
0000
0001
1000
0001
0000
1001
0000
0000
0000
1000
0000
0010
0000
0100
0001
0100
0000
0010
1000
0010
0000
1000
0001
1000
0000
0010
0000
,
0101
0000
0000
0000
1000
0000
0100
0010
0001
0000
1000
0000
0010
0000
1000
0000
0001
0000
0101
0000
0000
0000
0101
0000
0010
0000
1000
0000
0001
0000
1000
0000
,
0100
0000
0010
0000
0001
0100
0010
0100
0001
0000
0101
0000
0001
0000
1000
0100
0010
0100
1000
0000
0001
0000
0100
0000
0010
0000
0100
0001
1000
0000
0100
0000
,
0010
0000
0001
0000
1001
0000
0001
0000
1000
0000
0001
0100
0010
0100
0001
1000
0001
0000
1000
0000
0000
0000
1000
0100
0010
0000
0001
0000
0100
0000
0001
0100
,
0001
0100
0010
0100
0001
0000
1000
0100
0010
0000
0011
0000
0001
0000
0101
0000
0000
0000
0100
0001
1000
0000
0001
0000
1001
0000
0100
0010
0100
0000
0001
0000
,
0100
0000
1001
0000
0001
0100
0010
1000
0001
1000
0000
1001
0001
0010
0100
1000
,
0001
0000
0100
0000
0010
1000
0010
1000
0001
0000
0100
0000
0010
0000
0100
0001
0100
0001
1000
0000
0001
0000
0010
0000
0100
0000
1000
0001
1000
0000
0001
0000
,
0000
0000
0000
0000
1001
0000
0100
0000
1000
0000
0010
0100
0010
0100
0010
0100
0001
0000
0101
0000
0000
0000
1000
0100
0010
0000
0001
0000
1000
0010
0100
0010
,
1000
0100
0010
0001
1000
0000
0001
0100
0010
0000
1010
0000
0000
0000
1010
0000
0000
0000
0001
0010
0100
0000
0010
0100
1000
0000
0001
1000
0010
0000
0100
0000
,
1001
0000
0000
0000
0001
0100
0000
0100
0000
0101
0000
1010
0001
1000
0100
1000
,
0010
0000
0100
0000
0000
0000
0100
0001
0100
0000
0101
0000
0000
0000
0001
0000
0000
0000
1000
0000
0100
0000
0010
0000
0001
0000
0100
0000
0010
0000
1000
0000
,
0000
0000
0000
0000
0101
0000
0010
0000
1000
0000
0001
0000
0000
0000
1000
0000
0000
0000
1100
0000
0000
0000
0001
0100
0001
0000
0000
0000
1000
0000
0100
0000
,
0000
0000
1000
0000
0010
0000
0100
0001
0100
0000
0101
0000
0000
0000
0100
0000
0010
0000
1000
0000
0001
0000
1000
0100
0010
0000
0001
0100
0010
0000
1000
0001
,
0010
0000
1001
0000
0001
0010
0000
0010
0000
0011
0000
0011
0100
1000
0001
0100
,
0010
0000
0000
0000
0000
0000
1000
0001
1000
0000
1001
0000
0000
0000
0010
0000
0000
0000
0100
0000
0001
0000
0010
0000
0001
0000
1000
0000
0010
0000
0100
0000
,
0000
0000
0000
0000
0101
0000
0010
0000
1000
0000
0001
0000
1000
0000
0100
0000
0000
0000
1100
0000
0000
0000
1000
0100
1000
0000
0000
0000
0001
0000
0100
0000
,
0000
0000
0001
0000
1000
0000
0001
0010
0100
0000
1000
0000
0000
0000
0002
0000
0000
0000
0000
0000
0000
0000
0000
0000
1003
0100
0010
0001
0100
0010
1000
0001
,
1000
0000
0000
0000
0001
0000
1000
0001
1000
0000
1001
0000
0001
0000
0100
0000
0010
0000
1000
0000
0000
0000
1100
0000
0000
0000
0001
0000
0100
0000
0010
0000
,
1000
0000
1000
0000
0001
0100
0001
0100
0001
0000
0101
0000
1000
0000
0100
0010
0100
0010
0001
0000
1000
0000
0010
0000
0100
0000
0001
0100
0001
0000
1000
0000
,
0001
0000
0000
0000
1001
0000
0001
0000
0100
0000
0010
1000
0001
1000
0100
1000
0001
0000
1001
0000
0000
0000
1000
0010
1000
0000
0001
0000
1000
0100
0010
0100
,
1000
0001
1000
0010
1000
0000
0001
0100
0001
0000
0001
0000
1000
0000
1001
0000
0000
0000
1001
0000
0001
0000
1000
0010
1000
0000
0001
0100
0001
0000
1000
0000
,
1001
0000
0000
0000
0001
0100
0001
0100
0001
0000
1000
0000
0001
0000
0010
0000
0100
0000
1001
0000
0000
0000
1010
0000
0100
0000
0001
0000
0010
0000
0001
0000
,
1000
0000
0010
0000
0100
0001
0100
0001
1000
0000
1001
0000
1000
0000
0001
0010
0100
0010
0001
0000
1000
0000
0010
0000
0100
0000
0001
0100
0001
0000
1000
0000
,
0001
0000
0000
0000
1010
0000
0001
0000
0010
0000
0100
1000
0100
1000
0001
1000
0001
0000
1001
0000
0000
0000
1000
0010
1000
0000
0001
0000
0100
0010
0100
0010
,
1000
0001
0010
0001
1000
0000
0001
0100
0001
0000
1000
0000
0100
0000
1100
0000
0000
0000
1100
0000
0001
0000
1000
0100
1000
0000
0001
0100
0001
0000
0100
0000
,
0020
0000
0000
0000
1000
0000
0000
1000
0030
1000
0000
1000
0000
1000
0001
0000
,
0000
0010
0000
0010
0100
0000
0000
1000
0000
0010
0000
1000
0000
0001
0000
0000
,
0100
0000
0000
0000
0100
0000
0010
1000
0000
0001
0000
0001
0000
0000
1000
0000
,
0000
0000
1000
0000
0000
0000
0000
0000
0001
0000
0000
0000
1000
0000
0010
0000
0000
0000
0100
0000
0000
0000
0001
0000
0000
0000
1000
0100
0010
0001
1000
0010
,
0100
0000
0000
0000
0001
0100
0001
0100
0001
0000
1000
0000
0100
0000
1000
0000
0010
0000
0101
0000
0000
0000
0101
0000
0010
0000
1000
0000
0001
0000
1000
0000
,
0100
0000
1000
0000
0001
0100
0010
0100
0001
0000
0101
0000
0000
0000
1000
0100
0010
0100
1000
0000
0001
0000
0100
0000
0010
0000
1000
0001
1000
0000
0010
0000
,
0100
0000
0000
0000
0101
0000
0000
0000
0010
0000
1000
0001
0010
0001
1000
0010
1000
0000
1010
0000
0000
0000
0001
0100
0001
0000
1000
0000
0100
0010
0001
1000
,
0010
1000
0001
0010
0100
0000
1000
0001
1000
0000
1001
0000
0000
0000
0101
0000
0010
0000
1000
0000
0001
0000
0010
0000
0000
0000
0001
0100
0010
1000
0100
0010
,
0001
0000
0000
0000
1000
0000
0010
0100
0010
0000
0100
0000
0001
0000
1000
0000
0100
0000
1100
0000
0000
0000
1001
0000
0001
0000
0100
0000
0010
0000
1000
0000
,
0001
0000
0010
0000
0100
1000
0100
1000
0001
0000
1001
0000
0000
0000
1000
0010
0100
0010
1000
0000
0001
0000
1000
0000
0001
0000
0010
0100
1000
0000
0010
0000
,
1000
0000
0001
0000
1001
0000
0000
0000
1000
0000
0001
0100
0001
0100
0010
1000
0001
0000
1001
0000
0000
0000
0001
0100
0001
0000
1000
0000
0001
0010
0100
0010
,
0001
1000
0001
0100
0010
0000
1000
0100
1000
0000
1100
0000
0001
0000
1100
0000
0001
0000
1100
0000
0001
0000
1000
0100
0010
0000
0100
0010
0001
0000
1000
0000
,
1001
0000
0000
0000
;

//---------------dance-single - ----------------
#NOTES:
     dance-single:
     :
     Medium:
     4:
     0.205,0.199,0.014,0.014,0.000:
0000
0000
0000
0000
,
1000
0000
0001
0100
0000
0010
1000
0001
,
0000
1000
0100
1000
0001
0000
0100
0010
,
1000
0000
0001
0010
0000
0001
1000
0010
,
0000
0100
0001
1000
0001
0000
1000
0000
,
1001
0000
0001
0100
0000
0001
1000
0100
,
0000
1000
0010
1000
0001
0000
0010
0100
,
1000
0000
0001
0100
0010
0000
1000
0001
,
0000
1000
0100
1000
0010
0000
0100
0001
,
1000
0000
0001
0000
0100
0010
0100
0001
,
1000
0000
0100
0000
1000
0010
0100
0010
,
1000
0000
0001
0000
0010
0000
0100
1000
,
0001
0000
1000
0000
0010
0100
0010
0000
,
1000
0000
0001
0000
0010
0000
1000
0010
,
0001
0000
1000
0010
1000
0000
0001
0000
,
0010
0000
0100
0000
1000
0010
0100
0000
,
0010
1000
0001
0000
1000
0000
0000
0000
,
0001
0000
0100
0000
0010
0000
1000
0001
,
0010
0000
0000
0000
,
0100
0000
1000
0000
0010
0000
0100
0001
,
1000
0000
0002
0000
,
0013
0000
0100
0000
1000
0000
0001
1000
,
0010
0000
0000
0000
,
0100
0000
0001
0000
0010
0000
0001
1000
,
0010
0000
0200
0000
,
0301
0000
1000
0000
0001
1000
0010
0000
,
0100
0000
0010
0000
1000
0001
0010
0000
,
0000
0000
0100
0000
1000
0001
0100
0000
,
0010
0000
1000
0000
0010
1000
0100
0000
,
0001
0000
0100
0000
1000
0010
0100
0000
,
0000
0000
0010
0000
0100
0001
0010
0000
,
0100
0000
1000
0000
0010
0100
0001
0000
,
1000
0000
0010
0000
0100
0001
0001
0000
,
1001
0000
0000
0000
,
0000
0000
0000
0000
,
0010
0100
0001
0000
,
0010
0100
1000
0000
,
0001
0000
1000
0001
1000
0000
0001
1000
,
0001
0000
1000
0010
1000
0000
0001
0100
,
0001
0000
1000
0100
1000
0000
0001
0010
,
0001
0000
1000
0010
1000
0001
0000
0000
,
1000
0000
0001
0100
0000
0001
0010
0001
,
1000
0000
0010
0100
0001
0100
0010
0000
,
1000
0000
0001
0100
0010
0000
1000
0001
,
0000
1000
0100
1000
0010
0000
0100
0001
,
1000
0000
0000
0000
;

//---------------dance-single - ----------------
#NOTES:
     dance-single:
     :
     Easy:
     2:
     0.104,0.138,0.000,0.068,0.000: // measure 1
0000
0000
0000
0000
,  // measure 2
1000
0000
0001
0000
,  // measure 3
0000
1000
0010
1000
,  // measure 4
0001
0000
0010
0000
,  // measure 5
0000
0001
0100
0001
,  // measure 6
1000
0000
0100
0000
,  // measure 7
0000
1000
0100
1000
,  // measure 8
0001
0000
0100
0000
,  // measure 9
0000
0001
0010
0001
,  // measure 10
1000
0000
0001
0000
,  // measure 11
1000
0010
1000
0000
,  // measure 12
0001
0000
1000
0000
,  // measure 13
0001
0100
0001
0000
,  // measure 14
1000
0000
0100
0000
,  // measure 15
0010
0001
0010
0000
,  // measure 16
0001
0000
1000
0000
,  // measure 17
0001
0100
0001
0000
,  // measure 18
1000
0100
0010
0001
,  // measure 19
0100
0000
0000
0000
,  // measure 20
0010
1000
0100
0010
,  // measure 21
0100
0000
2000
0000
,  // measure 22
3010
0100
0010
0100
,  // measure 23
0001
0000
0000
0000
,  // measure 24
1000
0010
1000
0001
,  // measure 25
0010
0000
0200
0000
,  // measure 26
1300
0000
0010
0000
,  // measure 27
0100
0000
0001
0010
,  // measure 28
0001
0000
1000
0000
,  // measure 29
0010
0000
1000
0100
,  // measure 30
0010
0000
0001
0000
,  // measure 31
0100
0000
0010
1000
,  // measure 32
0001
0000
1000
0000
,  // measure 33
0010
0000
0100
0010
,  // measure 34
0100
0000
0000
0000
,  // measure 35
0000
0000
0000
0000
,  // measure 36
0001
0000
0000
0000
,  // measure 37
0000
0000
0000
0000
,  // measure 38
2000
0000
0000
0000
,  // measure 39
0000
0000
0000
0000
,  // measure 40
3200
0000
0000
0000
,  // measure 41
0000
0000
0000
0000
,  // measure 42
0320
0000
0032
0000
,  // measure 43
2003
0000
3010
0100
,  // measure 44
0020
0000
2030
0000
,  // measure 45
3002
0000
0013
0100
,  // measure 46
1000
0000
0000
0000
;

//---------------dance-single - ----------------
#NOTES:
     dance-single:
     :
     Beginner:
     1:
     0.047,0.077,0.000,0.027,0.000: // measure 1
0000
0000
0000
0000
,  // measure 2
1000
0000
0000
0000
,  // measure 3
0000
0000
0000
0000
,  // measure 4
0001
0000
0000
0000
,  // measure 5
0000
0000
0000
0000
,  // measure 6
1000
0000
0000
0000
,  // measure 7
0000
0000
0000
0000
,  // measure 8
0001
0000
0000
0000
,  // measure 9
0000
0000
0000
0000
,  // measure 10
1000
0000
1000
0000
,  // measure 11
1000
0000
0000
0000
,  // measure 12
0001
0000
0001
0000
,  // measure 13
0001
0000
0000
0000
,  // measure 14
0010
0000
0000
0000
,  // measure 15
0010
0000
0000
0000
,  // measure 16
0100
0000
0000
0000
,  // measure 17
0100
0000
0000
0000
,  // measure 18
1000
0000
1000
0000
,  // measure 19
1000
0000
0000
0000
,  // measure 20
0010
0000
0010
0000
,  // measure 21
0010
0000
0000
0000
,  // measure 22
0100
0000
0100
0000
,  // measure 23
0100
0000
0000
0000
,  // measure 24
0001
0000
0001
0000
,  // measure 25
0001
0000
0000
0000
,  // measure 26
1000
0000
0000
0000
,  // measure 27
0010
0000
0000
0000
,  // measure 28
0100
0000
0000
0000
,  // measure 29
0001
0000
0000
0000
,  // measure 30
1000
0000
1000
0000
,  // measure 31
0010
0000
0010
0000
,  // measure 32
0100
0000
0100
0000
,  // measure 33
0001
0000
0001
0000
,  // measure 34
1000
0000
0000
0000
,  // measure 35
0000
0000
0000
0000
,  // measure 36
0000
0000
0000
0000
,  // measure 37
0000
0000
0000
0000
,  // measure 38
0002
0000
0000
0000
,  // measure 39
0000
0000
0003
0000
,  // measure 40
2000
0000
0000
0000
,  // measure 41
0000
0000
3000
0000
,  // measure 42
0020
0000
0000
0000
,  // measure 43
0000
0000
0030
0000
,  // measure 44
0200
0000
0000
0000
,  // measure 45
0000
0000
0300
0000
,  // measure 46
0001
0000
0000
0000
;
