#TITLE:bass 2 bass;
#SUBTITLE:;
#ARTIST:Ryu☆;
#TITLETRANSLIT:;
#SUBTITLETRANSLIT:;
#ARTISTTRANSLIT:Ryu*;
#CREDIT:Xythar;
#BANNER:bass 2 bass.png;
#BACKGROUND:bass 2 bass-bg.png;
#LYRICSPATH:;
#CDTITLE:jubeat.png;
#MUSIC:bass 2 bass.mp3;
#OFFSET:-0.368;
#SAMPLESTART:32.940;
#SAMPLELENGTH:13.714;
#SELECTABLE:YES;
#BPMS:0.000=140.000;
#STOPS:;
#BGCHANGES:;

//---------------dance-single - ----------------
#NOTES:
     dance-single:
     :
     Hard:
     7:
     0.498,0.426,0.178,0.000,0.099:
0000
0000
0000
0000
,
0001
0100
0010
1000
0000
0001
0010
0100
,
0010
0001
0100
0010
1000
0000
0011
0000
,
0100
1000
0010
0100
0000
0001
0010
0100
,
1000
0010
0100
0001
0000
1000
0000
0001
,
1000
0100
0010
0001
0000
0100
0010
1000
,
0010
0100
0001
0010
0100
0000
1001
0000
,
0100
1000
0010
0100
0000
0001
0010
0100
,
1000
0000
0011
0000
1000
0100
1000
0000
,
0010
0000
0000
0010
0000
0000
0100
0000
0001
0000
0010
0000
0100
0000
1000
0000
,
0010
0000
0000
0010
0000
0000
0100
0000
0001
0000
0100
0000
0010
0000
1000
0000
,
0100
0000
0000
0100
0000
0000
0010
0000
0001
0000
0010
0000
0001
0000
1000
0000
,
0001
0000
0000
0001
0000
0000
1000
0000
0010
0000
1000
0000
1000
0000
0001
0000
,
0010
0000
0000
0010
0000
0000
0100
0000
1000
0000
0001
0000
1000
0000
0000
0000
,
0101
0000
0010
1000
0001
0010
0100
1000
,
0010
0000
0000
0010
0000
0000
0100
0000
0001
0000
0100
0000
0010
0000
1000
0000
,
0100
0000
0000
0100
0000
0000
0010
0000
0001
0000
0100
0000
0010
0000
0000
0000
,
1000
0001
1000
0001
,
1000
0100
0010
0001
0100
0010
1000
0000
,
0001
0010
0100
1000
0000
0010
0100
0001
,
0100
0010
1000
0100
0010
0000
1001
0000
,
0010
0100
0001
0010
0000
0100
1000
0010
,
0100
0001
1000
0010
0000
0100
0000
0010
,
1000
0100
0010
0001
0000
0100
0010
1000
,
0010
0100
0001
0010
0100
0000
1001
0000
,
0010
0100
0001
0010
0000
0100
1000
0001
,
1000
0000
0110
0000
0001
0100
0010
1000
,
0100
0000
0000
0010
0000
0000
0001
0000
0100
0000
0010
0000
0100
0000
0001
0000
,
0010
0000
0000
0100
0000
0000
1000
0000
0010
0000
0010
0000
0100
0000
0100
0000
,
0001
0000
0000
1000
0000
0000
0001
0000
0100
0000
0010
0000
0100
0000
0001
0000
,
0010
0000
0000
0100
0000
0000
1000
0000
0010
0000
0100
0000
0001
0000
1000
0000
,
0001
0000
0000
0100
0000
0000
0001
0000
0010
0000
0100
0000
1000
0000
0010
0000
,
0100
0001
0100
0010
0100
0001
0010
0000
,
1100
0000
0001
0100
0010
1000
0100
0000
,
0011
0000
0100
1000
0010
0100
0001
0000
,
1000
0000
0100
0000
0010
0000
0001
0100
,
0001
0000
1000
0100
1000
0000
1001
0000
,
0010
0000
0000
0100
0000
0000
0100
0000
0000
0000
0001
0000
0000
1000
0000
0000
,
0001
0000
0000
0010
0000
0000
0010
0000
0000
0000
0100
0000
0000
1000
0000
0000
,
0010
0000
0000
0100
0000
0000
0100
0000
0000
0000
0001
0000
0000
1000
0000
0000
,
0100
0000
0000
1000
0000
0000
1000
0000
0000
0000
0001
0000
0000
0001
0000
0000
,
1000
0100
1000
0100
0010
0001
1000
0000
,
0001
0100
0001
0100
0010
1000
0001
0000
,
1000
0100
0010
0000
0001
0100
0010
0000
,
1000
0000
0001
0000
1000
0010
0100
0001
,
0000
1100
0000
0101
0000
1010
0000
0011
,
0001
0100
0010
1000
0000
0001
0010
0100
,
1000
0010
0100
0001
1000
0000
0110
0000
,
0001
0010
0100
1000
0000
0010
0100
0001
,
0100
0010
1000
0100
0000
0011
0000
0100
,
1000
0010
0100
0001
0000
1000
0001
0000
,
0100
0001
0100
0010
1000
0000
0011
0000
,
0100
1000
0010
0100
0001
0010
0100
1000
,
0001
0100
0010
1000
0001
1000
0000
0000
,
1001
0000
0000
0000
;

//---------------dance-single - ----------------
#NOTES:
     dance-single:
     :
     Medium:
     6:
     0.378,0.400,0.158,0.000,0.000:
0000
0000
0000
0000
,
1000
0100
1000
0100
0000
0010
0001
0000
,
0100
0010
1001
0000
,
0100
1000
0100
1000
0000
0010
0100
0000
,
0001
0000
1000
0010
0000
0100
0000
0010
,
1000
0010
1000
0010
0000
0100
0001
0000
,
1000
0001
0110
0000
,
0001
1000
0001
1000
0000
0010
1000
0000
,
0101
0010
1000
0000
,
0001
0010
0100
1000
,
0010
0100
0001
1000
,
0100
0000
1000
0010
,
0100
0001
0100
0000
0010
1000
0001
0000
,
1100
0000
0001
0000
0100
0010
1000
0000
,
0001
0010
0001
1000
0001
0100
0001
0000
,
1000
0000
0010
0000
0100
0001
1000
0000
,
0100
0000
0010
0001
0010
0000
0000
0000
,
0001
0100
0010
1000
,
0001
0010
0100
1000
,
0001
0100
0001
0100
0000
0010
1000
0000
,
0100
0010
1001
0000
,
0100
1000
0100
1000
0000
0010
0100
0000
,
0001
0010
0001
1000
0000
0010
0000
0100
,
0001
0100
0010
0100
0000
0001
0010
0000
,
0001
1000
0110
0000
,
0001
0010
0001
1000
0000
0001
1000
0000
,
0110
0000
0001
0000
1000
0100
1000
0000
,
0010
0100
0001
1000
,
0100
0010
0100
0010
0001
0000
1000
0000
,
0010
0100
0001
1000
,
0010
1000
0001
1000
,
0001
0100
0010
0000
1000
0100
0010
0000
,
0100
1000
0100
1000
0010
0000
0100
0000
,
0001
0000
0010
0000
0100
1000
0010
0000
,
1000
0000
0010
0000
0100
0001
0010
0000
,
0100
0100
1000
0010
,
1000
0001
1000
0000
0010
0000
1001
0000
,
0100
0000
0000
1000
0000
0010
0000
0000
,
0100
0000
0000
0001
0000
1000
0000
0000
,
0001
0000
0000
1000
0000
0010
0000
0000
,
0100
0000
0000
0001
0000
1000
0000
0000
,
0001
0010
0100
1000
,
0001
0100
0010
0000
0010
0100
0001
0000
,
1000
0000
0100
0000
0010
0001
1000
0000
,
0010
0000
0100
0000
0001
1000
0001
0000
,
0000
1100
0000
0010
0000
0101
0000
1000
,
0001
1000
0100
1000
0000
0010
0100
0000
,
0001
0010
1100
0000
,
0001
0100
0010
0100
0000
0001
0010
0000
,
0100
1000
0000
0010
0000
0100
0000
0001
,
1000
0100
1000
0001
0000
0100
0010
0000
,
1001
0110
1001
0000
,
0100
1000
0001
1000
0000
0010
0100
0000
,
1001
0000
0100
1000
0010
1000
0100
0000
,
1001
0000
0000
0000
;

//---------------dance-single - ----------------
#NOTES:
     dance-single:
     :
     Easy:
     4:
     0.252,0.266,0.030,0.000,0.000: // measure 1
0000
0000
0000
0000
,  // measure 2
1000
0000
0000
0001
0000
0000
1000
0000
,  // measure 3
0010
0100
0001
0000
,  // measure 4
1000
0000
0000
0010
0000
0000
0100
0000
,  // measure 5
0001
0000
0000
0010
0000
0000
0100
0000
,  // measure 6
1000
0000
0000
0010
0000
0000
0100
0000
,  // measure 7
0001
0100
0010
0000
,  // measure 8
1000
0000
0000
0100
0000
0000
1000
0000
,  // measure 9
0010
0100
0001
0010
,  // measure 10
0100
0100
1000
0010
,  // measure 11
0100
0001
0001
1000
,  // measure 12
0010
0100
0100
0001
,  // measure 13
1000
1000
0100
0100
,  // measure 14
1000
0010
0100
0001
,  // measure 15
0010
0010
0100
0100
,  // measure 16
1000
0010
0100
0001
,  // measure 17
0010
0100
1000
0010
,  // measure 18
0100
0000
0001
0000
,  // measure 19
1000
0001
1000
0010
,  // measure 20
0100
0000
0000
0001
0000
0000
1000
0000
,  // measure 21
0100
1000
0010
0000
,  // measure 22
0100
0000
0000
0001
0000
0000
1000
0000
,  // measure 23
0010
0000
0000
0100
0000
0001
0000
0000
,  // measure 24
1000
0000
0000
0010
0000
0000
0100
0000
,  // measure 25
0001
0010
0100
0000
,  // measure 26
1000
0000
0000
0010
0000
0000
1000
0000
,  // measure 27
0100
1000
0001
0000
,  // measure 28
1001
0010
0100
1000
,  // measure 29
0010
0010
0100
0100
,  // measure 30
0001
0010
0001
1000
,  // measure 31
0010
0100
0001
0001
,  // measure 32
1000
0100
0010
0001
,  // measure 33
1000
1000
0010
0010
,  // measure 34
0100
0001
0010
0100
,  // measure 35
1000
0010
0100
0001
,  // measure 36
1000
0000
0001
0000
,  // measure 37
1000
0001
1000
0000
,  // measure 38
0001
0000
0001
0000
,  // measure 39
1000
0000
1000
0000
,  // measure 40
0010
0000
0010
0000
,  // measure 41
0100
0000
0100
0000
,  // measure 42
0001
0010
0100
1000
,  // measure 43
0001
0100
0010
1000
,  // measure 44
0100
0010
0001
1000
,  // measure 45
0001
0000
1000
0000
,  // measure 46
0000
0001
0000
1000
0000
0001
0000
1000
,  // measure 47
0001
0000
0000
0010
0000
0000
0100
0000
,  // measure 48
1000
0010
0100
0000
,  // measure 49
0001
0000
0000
1000
0000
0000
0010
0000
,  // measure 50
0100
0000
0000
0001
0000
1000
0000
0000
,  // measure 51
0010
0000
0000
0100
0000
0000
0001
0000
,  // measure 52
1000
0100
1000
0000
,  // measure 53
1001
0000
0000
0100
0000
0000
1001
0000
,  // measure 54
0001
1000
0010
0100
,  // measure 55
0001
0000
0000
0000
;

//---------------dance-single - ----------------
#NOTES:
     dance-single:
     :
     Beginner:
     1:
     0.158,0.186,0.030,0.000,0.000: // measure 1
0000
0000
0000
0000
,  // measure 2
1000
1000
0000
0001
,  // measure 3
0001
0000
1000
0000
,  // measure 4
0010
0010
0000
0100
,  // measure 5
0100
0000
0001
0000
,  // measure 6
1000
1000
0000
0100
,  // measure 7
0100
0000
0010
0000
,  // measure 8
0001
0001
0000
1000
,  // measure 9
1000
0000
0010
0000
,  // measure 10
0100
0000
0001
0000
,  // measure 11
1000
0000
0001
0000
,  // measure 12
0010
0000
0100
0000
,  // measure 13
1000
0000
0010
0000
,  // measure 14
0100
0000
0001
0000
,  // measure 15
1000
0000
0001
0000
,  // measure 16
1000
0000
0100
0000
,  // measure 17
0010
0000
0001
0000
,  // measure 18
1000
0000
0000
0000
,  // measure 19
0010
0000
0000
0000
,  // measure 20
0100
0100
0000
0001
,  // measure 21
0001
0000
1000
0000
,  // measure 22
0010
0010
0000
1000
,  // measure 23
1000
0000
0100
0000
,  // measure 24
0010
0010
0000
0001
,  // measure 25
0001
0000
1000
0000
,  // measure 26
0010
0010
0000
0100
,  // measure 27
0100
0000
0001
0000
,  // measure 28
1000
0000
0100
0000
,  // measure 29
0010
0000
0001
0000
,  // measure 30
0100
0000
0010
0000
,  // measure 31
1000
0000
0100
0000
,  // measure 32
1000
0000
0010
0000
,  // measure 33
0100
0000
0001
0000
,  // measure 34
0010
0000
0100
0000
,  // measure 35
1000
0000
0010
0000
,  // measure 36
0100
0000
0000
0000
,  // measure 37
0001
0000
1000
0000
,  // measure 38
0001
0000
0000
0000
,  // measure 39
1000
0000
0000
0000
,  // measure 40
0100
0000
0000
0000
,  // measure 41
0010
0000
0000
0000
,  // measure 42
0001
0000
0100
0000
,  // measure 43
0010
0000
1000
0000
,  // measure 44
0100
0000
0010
0000
,  // measure 45
0001
0000
0000
0000
,  // measure 46
0000
0000
0000
0000
,  // measure 47
0001
0001
0000
1000
,  // measure 48
1000
0000
0110
0000
,  // measure 49
0100
0100
0000
0001
,  // measure 50
0001
0000
1000
0000
,  // measure 51
0010
0010
0000
0100
,  // measure 52
0100
0000
1001
0000
,  // measure 53
0100
0100
0000
0010
,  // measure 54
0010
0000
0001
0000
,  // measure 55
1001
0000
0000
0000
;
