#TITLE:You Really Got Me;
#SUBTITLE:;
#ARTIST:WaveGroup / Shoichiro Hirata;
#TITLETRANSLIT:;
#SUBTITLETRANSLIT:;
#ARTISTTRANSLIT:;
#CREDIT:Steps and graphics by Xythar;
#BANNER:You Really Got Me.png;
#BACKGROUND:You Really Got Me-bg.png;
#LYRICSPATH:;
#CDTITLE:cdtitle.png;
#MUSIC:You Really Got Me.mp3;
#OFFSET:-6.034;
#SAMPLESTART:14.520;
#SAMPLELENGTH:13.920;
#SELECTABLE:YES;
#BPMS:0.000=138.010;
#STOPS:;
#BGCHANGES:-12.750=You Really Got Me.avi=1.000=1=1=0,
240.000=You Really Got Me-bg.png=1.000=0=0=1,
99999=-nosongbg-=1.000=0=0=0 // don't automatically add -songbackground-
;

//---------------dance-single - ----------------
#NOTES:
     dance-single:
     :
     Easy:
     3:
     0.190,0.237,0.026,0.018,0.000: // measure 1
0000
0000
0000
0000
,  // measure 2
1000
0000
0001
0000
,  // measure 3
1000
0000
0010
0000
,  // measure 4
0100
0000
0001
0000
,  // measure 5
0100
0000
0010
0000
,  // measure 6
1000
0100
0010
0000
,  // measure 7
0001
0000
0100
0000
,  // measure 8
0001
0010
0100
0000
,  // measure 9
1000
0000
0100
0000
,  // measure 10
1000
0010
0100
0000
,  // measure 11
0001
0000
0010
0000
,  // measure 12
0001
0100
0010
0000
,  // measure 13
0100
0000
0110
0000
,  // measure 14
0001
0010
0001
0000
,  // measure 15
1000
0100
1000
0000
,  // measure 16
0001
0100
0001
0000
,  // measure 17
1000
0010
1000
0000
,  // measure 18
0001
1000
0001
0000
,  // measure 19
0010
0100
0010
0000
,  // measure 20
0001
0100
1000
0000
,  // measure 21
1000
0100
0001
0000
,  // measure 22
1000
0000
0000
0010
,  // measure 23
0100
0000
0000
0001
,  // measure 24
1000
0000
0100
0000
,  // measure 25
0010
0000
0000
0000
,  // measure 26
0001
0000
0000
1000
,  // measure 27
0010
0000
0000
0100
,  // measure 28
0001
0000
1000
0000
,  // measure 29
0200
0000
0000
0000
,  // measure 30
1300
0000
0000
0001
,  // measure 31
0010
0000
0000
0100
,  // measure 32
1000
0000
0010
0000
,  // measure 33
0100
0000
0000
0000
,  // measure 34
1001
0000
0000
0000
,  // measure 35
0110
0000
0000
0000
,  // measure 36
0001
0000
1000
0000
,  // measure 37
0001
0010
0100
0000
,  // measure 38
1000
0100
0010
0000
,  // measure 39
0001
0100
0010
0000
,  // measure 40
1000
0010
0100
0010
,  // measure 41
1000
0000
0001
0000
,  // measure 42
1000
0100
0010
0100
,  // measure 43
0010
0001
0100
0010
,  // measure 44
0100
0010
1000
0010
,  // measure 45
1000
0001
0010
0100
,  // measure 46
0010
0001
1000
0010
,  // measure 47
0100
0010
1000
0100
,  // measure 48
1000
0001
0100
0010
,  // measure 49
1000
0001
1000
0100
,  // measure 50
0010
0001
0100
0000
,  // measure 51
0010
0000
1000
0000
,  // measure 52
0100
0010
0100
0000
,  // measure 53
1000
0000
0010
0000
,  // measure 54
0100
0001
1000
0000
,  // measure 55
0001
0000
1000
0000
,  // measure 56
0001
1000
0010
0000
,  // measure 57
1000
0000
0000
0001
0000
0000
0010
0000
,  // measure 58
0000
0200
0000
0000
0000
0000
0000
0000
,  // measure 59
0000
0000
0000
0000
,  // measure 60
0000
0000
0000
0000
,  // measure 61
0300
0000
0000
0000
;

//---------------dance-single - ----------------
#NOTES:
     dance-single:
     :
     Hard:
     7:
     0.419,0.395,0.079,0.035,0.031:
0000
0000
0000
0000
,
1000
0000
0010
0000
1000
0100
0010
0000
,
0100
0010
0001
0000
0100
0010
1000
0000
,
0001
0000
0100
0000
0001
0010
0100
0000
,
0010
0100
1000
0000
0001
0000
0001
1000
,
0100
0100
1000
0010
0000
0000
0100
0000
,
0001
0000
0010
0000
0100
0000
0010
0001
,
0100
0100
0001
0010
0000
0000
0100
0000
,
0001
0000
0100
0000
1000
0000
0010
0100
,
0001
0001
1000
0100
0000
0000
1000
0000
,
0010
0000
0100
0000
0010
0000
1000
0100
,
0010
0010
0001
0100
0000
0000
0010
0000
,
1000
0000
0100
0000
1000
0000
0010
0100
,
0001
0001
1000
0100
0000
0010
0000
0001
,
0100
0100
0010
1000
0000
0100
0000
0001
,
0100
0100
0010
0100
0000
1000
0000
0010
,
0100
0100
1000
0100
0000
0010
0000
1000
,
0001
0001
1000
0100
0000
1000
0000
0001
,
0100
0100
0001
0010
0000
0100
0000
0010
,
0001
0001
1000
0010
0000
0100
0000
1000
,
0100
0100
0001
1000
0000
1001
0000
1000
,
0010
0000
0100
0000
0001
0000
0000
0010
0000
0000
0100
0000
0010
0000
0100
0000
,
1000
0000
0001
0000
0100
0000
0000
0001
0000
0000
1000
0000
0010
0000
0100
0000
,
0010
0000
1000
0100
0010
0000
0001
0100
,
0010
0000
0000
1000
0000
0000
0001
0000
0000
0000
1000
0000
0100
0000
1000
0000
,
0001
0000
0000
0100
0000
0000
0001
0000
0000
0000
1000
0000
0100
0000
0010
0000
,
0100
0000
0000
0001
0000
0000
0100
0000
0000
0000
1000
0000
0010
0000
0100
0000
,
0010
0000
0100
0001
0100
0000
0001
1000
,
0100
0000
0000
1000
0000
0000
0001
0000
0000
0100
0000
0000
0010
0000
0100
0000
,
0001
0000
1000
0100
0000
1000
0010
0100
,
0001
0000
0100
0010
0000
0100
0001
1000
,
0001
0000
1000
0100
1000
0000
0001
0010
,
0100
0000
1000
0010
0000
0100
0001
1000
,
1001
0000
0001
0010
0000
0100
0010
0001
,
1000
0000
0010
0100
0000
0010
1000
0100
,
1000
0000
0001
0010
0001
0000
1000
0100
,
1000
1000
0001
0100
0000
0110
0000
1000
,
0100
0100
0010
0001
0000
1001
0000
0001
,
0010
0010
0100
1000
0000
0001
0000
1000
,
0200
0010
0310
0100
,
2000
0001
3001
1000
,
0010
0100
0010
1000
0010
0100
0010
1000
,
0001
0010
0100
0010
0001
1000
0000
0100
,
0010
0001
0010
0000
0100
1000
0100
0000
,
1000
0010
0100
0001
0010
0100
1000
0000
,
0001
0100
0001
0000
1000
0010
1000
0000
,
0001
0010
0100
1000
0010
0100
0001
0000
,
1000
0100
0010
0011
,
0001
0100
1000
0100
0001
0010
1000
0010
,
0001
0001
1000
0100
0000
0000
0010
0000
,
0001
0000
1000
0000
0010
0000
0100
0001
,
0100
0100
0010
1000
0000
0000
0100
0000
,
0010
0000
0100
0000
1000
0000
0001
0010
,
0100
0100
0001
0100
0000
0000
1000
0000
,
0010
0000
0100
0000
1000
0000
0100
0001
,
1000
1000
0100
0010
0000
0001
0010
0000
,
1100
0000
0000
0110
0000
0000
0011
0000
,
0000
2002
0000
0000
0000
0000
0000
0000
,
0000
0000
0000
0000
,
0000
0000
0000
0000
,
3003
0000
0000
0000
;

//---------------dance-single - ----------------
#NOTES:
     dance-single:
     :
     Medium:
     5:
     0.350,0.343,0.018,0.044,0.000:
0000
0000
0000
0000
,
1000
0100
0010
0100
,
0010
0001
0100
0010
,
0100
0001
0010
0100
,
0010
0000
0001
0000
1000
0000
0000
0001
,
1000
0001
1000
0001
0000
0000
0010
0000
,
0100
0000
0010
0000
0001
0000
0000
1000
,
0010
1000
0010
1000
0000
0000
0001
0000
,
0100
0000
0001
0000
1000
0000
0000
0100
,
1000
0100
1000
0100
0000
0000
1000
0000
,
0001
0000
0100
0000
0010
0000
0000
0100
,
0010
0100
0010
0100
0000
0000
0010
0000
,
1000
0000
0001
0000
0100
0000
0000
0001
,
1000
0001
1000
0001
0000
0000
0000
1000
,
0001
1000
0001
1000
0000
0000
0000
0100
,
0010
0100
0010
0100
0000
0000
0000
0010
,
0100
0010
0100
0010
0000
0000
0000
0001
,
0010
0001
0010
0001
0000
0000
0000
1000
,
0100
1000
0100
1000
0000
0000
0000
0010
,
1000
0010
1000
0010
0000
0000
0000
0100
,
0001
0100
0001
0100
0000
0000
0000
0001
,
1000
0000
0100
0000
0010
0000
0001
0010
,
0001
0000
1000
0000
0010
0000
0100
0001
,
0100
0000
0010
0000
1000
0000
0100
1000
,
0100
0000
1000
0000
0001
0000
0010
0001
,
0010
0000
0100
0000
1000
0000
0001
1000
,
0001
0000
1000
0000
0100
0000
0010
0100
,
0010
0000
0100
0000
0010
0000
0001
0010
,
0002
1000
2003
0010
,
3010
0000
0100
0000
0001
0000
1000
0100
,
0010
0000
0100
0000
0010
0000
0001
0010
,
0100
0000
0010
0000
0100
0000
1000
0010
,
0100
0000
0010
0000
0100
0000
0001
0100
,
0010
0000
1000
0000
0001
0000
0010
0100
,
1000
0000
0001
0000
0100
0000
0001
1000
,
0010
0000
1000
0001
0010
0000
0000
0100
,
0010
0100
0010
0001
0000
0000
0000
1000
,
0100
1000
0100
0010
0000
0000
0000
0001
,
0010
0001
0010
0100
0000
0000
0000
1000
,
0020
0100
0130
0001
,
0100
0001
1000
0100
,
1000
0100
1000
0100
1000
0100
1000
0000
,
0001
0100
0001
0100
0001
0000
1000
0000
,
0010
0100
0010
0000
0100
0001
0100
0000
,
0001
0010
0100
0000
0100
0010
0001
0000
,
1000
0000
0010
0000
0100
0001
0100
0000
,
0010
1000
0010
0000
1000
0001
1000
0000
,
0001
0010
0100
1000
,
0001
1000
0001
1000
0001
0000
1000
0100
,
0010
0100
0010
0001
0000
0000
0100
0000
,
0010
0000
0100
0000
0001
0000
0000
1000
,
0100
0010
0100
1000
0000
0000
0001
0000
,
0100
0000
0010
0000
0100
0000
0000
0001
,
0010
0100
0010
0001
0000
0000
1000
0000
,
0010
0000
0100
0000
0001
0000
0000
1000
,
0100
0010
0001
1000
0000
0000
0001
0000
,
0100
0000
0000
0110
0000
0000
1000
0000
,
0000
2002
0000
0000
0000
0000
0000
0000
,
0000
0000
0000
0000
,
0000
0000
0000
0000
,
3003
0000
0000
0000
;

//---------------dance-single - ----------------
#NOTES:
     dance-single:
     :
     Beginner:
     1:
     0.102,0.150,0.026,0.000,0.000:
0000
0000
0000
0000
,
1000
0000
0000
0000
,
0001
0000
0000
0000
,
0010
0000
0000
0000
,
0100
0000
0000
0000
,
1000
0000
0001
0000
,
0000
0000
0000
0000
,
0001
0000
1000
0000
,
0000
0000
0000
0000
,
0100
0000
0010
0000
,
0000
0000
0000
0000
,
0010
0000
0100
0000
,
0000
0000
0000
0000
,
1000
0000
0100
0000
,
0100
0000
1000
0000
,
0001
0000
0010
0000
,
0010
0000
0001
0000
,
1000
0000
0010
0000
,
0010
0000
1000
0000
,
0001
0000
0100
0000
,
0100
0000
0001
0000
,
1000
0000
0000
0000
,
0100
0000
0000
0000
,
0010
0000
0000
0000
,
0001
0000
0000
0000
,
1000
0000
0000
0000
,
0010
0000
0000
0000
,
0100
0000
0000
0000
,
0001
0000
0000
0000
,
1000
0000
0000
0000
,
0001
0000
0000
0000
,
0010
0000
0000
0000
,
0100
0000
0000
0000
,
1000
0000
0000
0000
,
0010
0000
0000
0000
,
0100
0000
0000
0000
,
0001
0000
0100
0000
,
0010
0000
1000
0000
,
0100
0000
0010
0000
,
0100
0000
0000
0000
,
1000
0000
0001
0000
,
1000
1000
1000
0000
,
0001
0001
0001
0000
,
0100
0000
0010
0000
,
0100
0000
0001
0000
,
1001
0000
0000
0000
,
0110
0000
0000
0000
,
1001
0000
0010
0000
,
0100
0000
1000
0000
,
0010
0000
0100
0000
,
0000
0000
0000
0000
,
0001
0000
1000
0000
,
0000
0000
0000
0000
,
0100
0000
1000
0000
,
0000
0000
0000
0000
,
0001
0000
0010
0000
,
0100
0000
0000
0000
,
1000
0000
0000
0000
;
