#TITLE:Yellow;
#SUBTITLE:;
#ARTIST:livetune feat. 初音ミク;
#TITLETRANSLIT:;
#SUBTITLETRANSLIT:;
#ARTISTTRANSLIT:livetune feat. Miku Hatsune;
#CREDIT:Xythar (BG illustration by redjuice, video by Lat);
#BANNER:Yellow.png;
#BACKGROUND:Yellow-bg.png;
#LYRICSPATH:;
#CDTITLE:cdtitle.png;
#MUSIC:Yellow.ogg;
#OFFSET:-0.247;
#SAMPLESTART:60.014;
#SAMPLELENGTH:15.100;
#SELECTABLE:YES;
#BPMS:0.000=127.000;
#STOPS:;
#BGCHANGES:0.000=Yellow.avi=1.000=1=1=0,
240.000=Yellow-bg.png=1.000=0=0=1,
99999=-nosongbg-=1.000=0=0=0 // don't automatically add -songbackground-
;

//---------------dance-single - ----------------
#NOTES:
     dance-single:
     :
     Hard:
     7:
     0.397,0.393,0.122,0.149,0.000:
0000
0000
0000
0000
,
0000
0000
0000
0000
,
0000
0000
0000
0000
,
0000
0000
0000
0000
,
0000
0000
0000
0000
,
0000
0000
0000
0000
,
0000
0000
0000
0000
,
0000
0000
0000
0000
,
1001
0000
0001
0100
0000
0010
1000
0001
,
1000
0100
1000
0010
0000
0100
0001
0000
,
1100
0000
0001
0010
0000
1000
0010
0001
,
0100
0010
0100
0001
0000
1000
0100
0000
,
0011
0000
0001
0100
0000
1000
0100
0010
,
0100
0001
1000
0001
0000
0010
0100
0000
,
1001
0000
0100
0010
0000
0001
0100
1000
,
0100
0001
0010
0100
0000
1000
0001
0000
,
0110
0002
0203
0320
,
1030
0100
1000
0010
0000
0100
0010
0000
,
0000
1000
0100
0010
0000
1000
0010
0100
,
0000
1000
0100
0001
0000
0100
1000
0000
,
0101
0020
2030
3200
,
0310
0001
1000
0001
0000
0001
0100
0010
,
0000
0001
0010
0100
0000
0001
0100
0000
,
1000
0100
0001
1000
0000
0001
1000
0000
,
0110
0002
2003
3020
,
0130
0001
1000
0001
0000
1000
0010
0000
,
0000
0100
0001
1000
0000
0100
0001
0010
,
0000
0100
0010
1000
0000
0100
0010
0000
,
1001
0200
2300
3020
,
0130
0001
0010
0001
0000
0010
0100
1000
,
0000
0010
0001
0100
0000
0010
0001
1000
,
0100
0001
0100
1000
0000
0001
0100
1000
,
0200
0000
0010
0000
0301
0000
0010
0100
,
0010
0100
1000
0010
0100
0000
1000
0100
,
0001
0100
1000
0000
0100
0001
0010
0000
,
1000
0010
0001
0010
1000
0000
0010
0001
,
0200
0000
1000
0000
0010
0000
0301
1000
,
0100
1000
0010
0001
0010
0000
1000
0100
,
0001
0100
1000
0000
0001
0100
1000
0100
,
0001
0000
1000
0000
0001
1000
0001
0000
,
0012
0000
0100
0000
1003
0000
0001
0010
,
0100
0010
0001
1000
0010
0000
0100
0001
,
1000
0001
0010
0000
1000
0010
0001
0000
,
0100
0010
0100
0010
1000
0000
0001
0000
,
2100
0000
0001
0000
3010
0000
0100
0001
,
0010
0001
0100
0001
1000
0000
0001
0010
,
1000
0010
0001
0000
1000
0010
0001
0010
,
1000
0000
0000
0000
,
0101
0000
0010
1000
0000
0001
0010
0100
,
1000
0010
0100
0001
0000
1000
0100
0000
,
0011
0000
0100
1000
0000
0001
0100
1000
,
0100
0001
0010
0100
0000
1000
0010
0000
,
0101
0000
0010
1000
0000
0001
1000
0100
,
1000
0010
1000
0001
0000
0100
0010
0000
,
1001
0000
0010
0100
0000
1000
0010
0100
,
0001
0010
0100
1000
0000
0001
0100
0000
,
0001
0000
0000
0100
0000
0010
0000
0000
,
1000
0000
0000
0100
0000
0000
0000
0000
,
1000
0000
0000
0010
0000
0100
0000
0000
,
0001
0000
0000
2000
0000
0000
0000
0000
,
3000
0000
0000
0000
;

//---------------dance-single - ----------------
#NOTES:
     dance-single:
     :
     Medium:
     6:
     0.357,0.367,0.184,0.087,0.000:
0000
0000
0000
0000
,
0000
0000
0000
0000
,
0000
0000
0000
0000
,
0000
0000
0000
0000
,
0000
0000
0000
0000
,
0000
0000
0000
0000
,
0000
0000
0000
0000
,
0000
0000
0000
0000
,
0101
0000
0100
0010
0000
0010
0000
1000
,
0100
0000
1000
0001
0000
1000
0010
0000
,
1010
0000
0001
0010
0000
0001
1000
0000
,
0001
0010
0100
1000
0000
0010
0100
0000
,
1001
0000
0100
0010
0000
0001
0100
0000
,
0001
0000
1000
0100
0000
0010
0001
0000
,
1100
0000
0001
0100
0000
0001
1000
0000
,
0001
0010
0100
1000
0000
0001
1000
0000
,
1002
0100
1000
0013
,
0100
0000
1000
0010
0000
1000
0001
0000
,
1100
0000
0001
0100
0000
0010
1000
0010
,
0000
0100
0001
0100
0000
0001
1000
0000
,
0210
0001
0010
1300
,
0001
0000
1000
0010
0000
0001
0010
1000
,
0000
0001
0100
1000
0000
0100
0001
0000
,
0100
0000
0001
1000
0000
0001
0010
0000
,
2001
0100
0010
3001
,
0100
0000
0010
1000
0000
0001
1000
0000
,
1001
0000
0100
0010
0000
0001
0100
0001
,
0000
1000
0100
1000
0000
0001
0100
0000
,
1020
0001
0100
1030
,
0001
0000
1000
0010
0000
0100
0001
1000
,
0000
0001
1000
0100
0000
0001
0100
1000
,
0010
0000
0100
0000
1001
0000
0001
0100
,
0002
0100
1000
0103
,
0010
1000
0010
0000
1100
0000
0001
0100
,
1000
0000
0100
0000
0001
0010
1000
0000
,
0010
0001
1000
0000
0010
0000
0101
0000
,
2000
0100
0001
3010
,
0001
0010
1000
0000
0110
0000
0001
0100
,
0010
0000
1000
0000
0001
0010
0001
0000
,
1000
0100
0001
0000
0100
0000
1001
0000
,
0020
0001
0100
1030
,
0001
0010
0001
0000
1010
0000
0001
0100
,
0010
0000
1000
0000
0001
0010
1000
0000
,
0010
0001
0100
0000
0010
0000
1001
0000
,
0200
0001
0010
1300
,
0001
0100
0001
0000
1100
0000
0001
0100
,
1000
0100
0001
0000
1000
0100
0001
0000
,
0200
0001
0010
1300
,
0001
0000
0100
0010
0000
1000
0000
0001
,
0010
0000
0001
1000
0000
0010
0100
0000
,
1001
0000
0100
0010
0000
0100
1000
0000
,
0001
0100
0010
1000
0000
0001
0010
0000
,
1100
0000
0001
0100
0000
1000
0100
0000
,
0010
0000
1000
0100
0000
0010
0001
0000
,
1010
0000
0001
0010
0000
0100
1000
0000
,
0001
0100
0010
1000
0000
0001
1000
0000
,
0100
0000
0000
0010
0000
0001
0000
0000
,
1000
0000
0000
0010
0000
0000
0000
0000
,
1000
0000
0000
0001
0000
0010
0000
0000
,
0001
0000
0000
2000
0000
0000
0000
0000
,
3000
0000
0000
0000
;

//---------------dance-single - ----------------
#NOTES:
     dance-single:
     :
     Easy:
     3:
     0.221,0.304,0.166,0.035,0.000: // measure 1
0000
0000
0000
0000
,  // measure 2
0000
0000
0000
0000
,  // measure 3
0000
0000
0000
0000
,  // measure 4
0000
0000
0000
0000
,  // measure 5
0000
0000
0000
0000
,  // measure 6
0000
0000
0000
0000
,  // measure 7
0000
0000
0000
0000
,  // measure 8
0000
0000
0000
0000
,  // measure 9
1001
0000
0001
0000
,  // measure 10
0100
0100
0100
0000
,  // measure 11
1001
0000
0100
0000
,  // measure 12
1000
1000
0010
0000
,  // measure 13
0110
0000
0001
0000
,  // measure 14
1000
1000
1000
0000
,  // measure 15
0110
0000
0001
0000
,  // measure 16
1000
1000
0010
0000
,  // measure 17
0100
0001
0100
0001
,  // measure 18
0020
0000
0000
0000
,  // measure 19
1030
0010
1000
0100
,  // measure 20
1000
0001
1000
0001
,  // measure 21
0010
0100
1000
0100
,  // measure 22
2000
0000
0000
3001
,  // measure 23
0100
0010
0100
0001
,  // measure 24
0010
0100
1000
0010
,  // measure 25
0100
0001
0100
0001
,  // measure 26
0200
0000
0000
0000
,  // measure 27
0310
1000
0001
1000
,  // measure 28
0100
1000
0001
1000
,  // measure 29
0010
0000
0100
0001
,  // measure 30
2000
0000
3001
0100
,  // measure 31
0010
0100
0001
0010
,  // measure 32
0100
1000
0010
0000
,  // measure 33
1001
1001
1001
1000
,  // measure 34
1000
0001
0001
0000
,  // measure 35
1000
0010
1000
0100
,  // measure 36
1000
0010
0100
0000
,  // measure 37
0110
0110
0110
0100
,  // measure 38
0010
0100
0010
0000
,  // measure 39
1000
0001
1000
0100
,  // measure 40
1000
0010
1000
0000
,  // measure 41
1001
1001
1001
0001
,  // measure 42
0001
0010
0010
0001
,  // measure 43
0100
0010
0100
0010
,  // measure 44
1000
0100
1000
0000
,  // measure 45
0110
0110
0110
0001
,  // measure 46
1000
0010
0010
1000
,  // measure 47
0100
1000
0010
1000
,  // measure 48
0001
0000
0000
0000
,  // measure 49
0010
0000
0100
0000
,  // measure 50
1000
1000
0010
0000
,  // measure 51
1001
0000
0100
1000
,  // measure 52
0010
0100
0001
0000
,  // measure 53
1001
0000
0001
0100
,  // measure 54
0010
0010
0010
0000
,  // measure 55
0110
0000
1000
0100
,  // measure 56
0010
0010
0010
0000
,  // measure 57
0001
0000
0000
0000
,  // measure 58
0000
0000
0000
0000
,  // measure 59
1000
0000
0000
0000
;

//---------------dance-single - ----------------
#NOTES:
     dance-single:
     :
     Beginner:
     1:
     0.082,0.101,0.000,0.000,0.000: // measure 1
0000
0000
0000
0000
,  // measure 2
0000
0000
0000
0000
,  // measure 3
0000
0000
0000
0000
,  // measure 4
0000
0000
0000
0000
,  // measure 5
0000
0000
0000
0000
,  // measure 6
0000
0000
0000
0000
,  // measure 7
0000
0000
0000
0000
,  // measure 8
0000
0000
0000
0000
,  // measure 9
0001
0000
0000
0000
,  // measure 10
0000
0000
0000
0000
,  // measure 11
1000
0000
0000
0000
,  // measure 12
0000
0000
0000
0000
,  // measure 13
0010
0000
0000
0000
,  // measure 14
0000
0000
0000
0000
,  // measure 15
0100
0000
0000
0000
,  // measure 16
0000
0000
0000
0000
,  // measure 17
0001
0000
0001
0000
,  // measure 18
0001
0000
0000
0000
,  // measure 19
1000
0000
1000
0000
,  // measure 20
1000
0000
0000
0000
,  // measure 21
0001
0000
0001
0000
,  // measure 22
0001
0000
0000
0000
,  // measure 23
1000
0000
1000
0000
,  // measure 24
1000
0000
0000
0000
,  // measure 25
0010
0000
0010
0000
,  // measure 26
0010
0000
0000
0000
,  // measure 27
0100
0000
0100
0000
,  // measure 28
0100
0000
0000
0000
,  // measure 29
0010
0000
0010
0000
,  // measure 30
0010
0000
0000
0000
,  // measure 31
0100
0000
0100
0000
,  // measure 32
0100
0000
0000
0000
,  // measure 33
0001
0000
1000
0000
,  // measure 34
0001
0000
0000
0000
,  // measure 35
1000
0000
0001
0000
,  // measure 36
1000
0000
0000
0000
,  // measure 37
0010
0000
0100
0000
,  // measure 38
0010
0000
0000
0000
,  // measure 39
0100
0000
0010
0000
,  // measure 40
0100
0000
0000
0000
,  // measure 41
0001
0000
0001
0000
,  // measure 42
1000
0000
0000
0000
,  // measure 43
1000
0000
1000
0000
,  // measure 44
0001
0000
0000
0000
,  // measure 45
0100
0000
0100
0000
,  // measure 46
0010
0000
0000
0000
,  // measure 47
0010
0000
0010
0000
,  // measure 48
0100
0000
0000
0000
,  // measure 49
0001
0000
1000
0000
,  // measure 50
0001
0000
0000
0000
,  // measure 51
1000
0000
0001
0000
,  // measure 52
1000
0000
0000
0000
,  // measure 53
0010
0000
0100
0000
,  // measure 54
0010
0000
0000
0000
,  // measure 55
0100
0000
0010
0000
,  // measure 56
0100
0000
0000
0000
,  // measure 57
0001
0000
0000
0000
,  // measure 58
0000
0000
0000
0000
,  // measure 59
1000
0000
0000
0000
;
