#TITLE:YOUR SONG ~青春宣誓~;
#SUBTITLE:(Fine weather Mix);
#ARTIST:松浦亜弥;
#TITLETRANSLIT:YOUR SONG ~Seishun Sensei~;
#SUBTITLETRANSLIT:;
#ARTISTTRANSLIT:Aya Matsuura;
#CREDIT:Xythar;
#BANNER:YOUR SONG (Fine weather Mix) BN.avi;
#BACKGROUND:YOUR SONG (Fine weather Mix) BG.png;
#LYRICSPATH:YOUR SONG (Fine weather Mix).lrc;
#CDTITLE:CDTitle.png;
#MUSIC:YOUR SONG (Fine weather Mix).mp3;
#OFFSET:-0.424;
#SAMPLESTART:39.409;
#SAMPLELENGTH:11.363;
#SELECTABLE:YES;
#BPMS:0.000=160.000;
#LASTBEAT:268;
#STOPS:;
#BGCHANGES:0.000=YOUR SONG (Fine weather Mix).avi=1.000=1=0=1,
268.000=YOUR SONG (Fine weather Mix) BG.png=1.000=1=0=1,
99999=-nosongbg-=1.000=0=0=0 // don't automatically add -songbackground-
;

//---------------dance-single - ----------------
#NOTES:
     dance-single:
     :
     Hard:
     8:
     0.450,0.490,0.189,0.085,0.000: // measure 1
0000
0000
0000
0000
,  // measure 2
0000
0000
0000
0000
,  // measure 3
0000
0000
0000
0000
,  // measure 4
0000
0000
0000
0000
,  // measure 5
0000
0000
0000
0000
,  // measure 6
0000
0000
0000
0000
,  // measure 7
0000
0000
0000
0000
,  // measure 8
0000
0000
0000
0000
,  // measure 9
1000
0000
0000
0000
,  // measure 10
0000
0000
0000
0000
0000
0001
0000
0001
,  // measure 11
0000
0000
0000
0000
0000
0000
0000
0100
,  // measure 12
0000
0000
0000
0000
0000
0001
0000
0000
,  // measure 13
2000
0000
0000
0000
,  // measure 14
3200
0000
0000
0000
,  // measure 15
0310
0000
0001
0100
0001
0100
0001
0100
,  // measure 16
0010
1000
0100
1000
0000
1001
0000
0000
,  // measure 17
0100
1000
0010
0000
0100
0000
0001
1000
,  // measure 18
0100
0000
1000
0010
0000
1000
0100
1000
,  // measure 19
0010
0000
0100
0001
0000
1000
0100
1000
,  // measure 20
0000
0001
0100
0010
0000
1001
0000
0000
,  // measure 21
0100
1000
0100
1000
0010
0000
0100
0001
,  // measure 22
0010
0000
0100
1000
0000
0001
1000
0010
,  // measure 23
1000
0000
0001
0000
1000
0010
1000
0000
,  // measure 24
0001
0000
0010
0100
0000
0100
1000
0000
,  // measure 25
0001
0100
0000
1010
0000
0100
1000
0001
,  // measure 26
0000
0001
1000
0010
1000
0001
0000
0001
,  // measure 27
1000
0100
1000
0100
0010
0001
0010
0001
,  // measure 28
1000
0010
1000
0010
0100
0001
0100
0001
,  // measure 29
1000
0100
0010
0001
0100
0010
1000
0001
,  // measure 30
0010
0100
1000
0010
0100
0001
1000
0000
,  // measure 31
0001
0100
0001
0100
0010
1000
0010
1000
,  // measure 32
0001
0010
0001
0010
0100
1000
0100
1000
,  // measure 33
0001
0100
0010
1000
0100
0010
0001
1000
,  // measure 34
0010
0100
0001
0010
0100
1000
0001
0000
,  // measure 35
2100
0000
0001
0000
3001
0100
0010
0000
,  // measure 36
1002
0000
0100
0000
0103
0010
1000
0000
,  // measure 37
0011
0100
1001
0010
,  // measure 38
1100
0000
0001
0000
0100
0010
1000
0000
,  // measure 39
0001
1000
0001
1000
0010
0000
0100
0001
,  // measure 40
1000
0000
0100
1000
0000
0010
0100
0000
,  // measure 41
1001
0100
1000
0000
0010
0100
0001
0000
,  // measure 42
1000
0100
1000
0001
0100
0010
1000
0000
,  // measure 43
0001
0100
0010
1000
0001
0010
0100
1000
,  // measure 44
0001
0100
0010
1000
0001
0010
0100
1000
,  // measure 45
0010
0001
0010
1000
0100
0001
0100
1000
,  // measure 46
0010
0100
0001
0010
0100
1000
0001
0000
,  // measure 47
1000
0010
0100
0001
1000
0100
0010
0001
,  // measure 48
1000
0010
0100
0001
1000
0100
0010
0001
,  // measure 49
1000
0010
0001
0010
1000
0100
0001
0100
,  // measure 50
1000
0001
0100
0010
1000
0100
0010
0001
,  // measure 51
1000
0000
0101
0000
0010
1000
0001
0000
,  // measure 52
2100
0000
3001
0000
0100
0010
1000
0000
,  // measure 53
0021
0130
1020
0130
,  // measure 54
1001
0000
0100
1000
0010
0100
0001
1000
,  // measure 55
0100
0000
1000
0010
1000
0010
0100
0000
,  // measure 56
0001
0010
0100
0000
1001
0000
1010
0000
,  // measure 57
0200
1000
0010
1300
,  // measure 58
0001
0100
0010
0100
0001
0010
0100
1000
,  // measure 59
0010
0000
1100
0000
0001
0100
0010
1000
,  // measure 60
0100
0011
1100
0010
,  // measure 61
2001
0100
0001
3010
,  // measure 62
0100
0000
0000
0000
;

//---------------dance-single - ----------------
#NOTES:
     dance-single:
     :
     Medium:
     6:
     0.348,0.404,0.265,0.066,0.000:
0000
0000
0000
0000
,
0000
0000
0000
0000
,
0000
0000
0000
0000
,
0000
0000
0000
0000
,
0000
0000
0000
0000
,
0000
0000
0000
0000
,
0000
0000
0000
0000
,
0000
0000
0000
0000
,
0001
0000
0000
0000
,
0000
0000
0000
0000
0000
1000
0000
0100
,
0000
0000
0000
0000
0000
0000
0000
1000
,
0000
0000
0000
0000
0000
0010
0000
0000
,
0200
0000
0000
0000
,
0302
0000
0000
0000
,
1003
1000
1000
1000
,
0010
0100
0000
0010
0000
1000
0001
0000
,
1000
0001
0100
0010
,
1000
0000
0001
1000
0000
0000
0100
0000
,
0010
0000
0001
1000
0000
1000
0001
1000
,
0000
0100
0000
0000
0000
0010
0000
0000
,
1001
0100
0100
1000
,
0010
0000
0100
0001
0000
0001
0100
0000
,
0002
1000
1000
0013
,
0100
1000
0100
0000
0000
0001
0000
0001
,
1000
0000
1000
0010
0000
0100
0001
1000
,
0000
1000
0001
0000
0110
0000
0001
0000
,
1100
0010
0001
0100
,
0010
0000
1000
0001
0000
0001
1000
0000
,
0110
0000
0001
0100
0001
0000
1000
0100
,
1000
0000
0001
0010
0000
0100
1000
0000
,
0101
0010
1000
0100
,
0010
0000
0001
0100
0000
0010
1000
0000
,
0011
0000
1000
0010
1000
0000
0001
0010
,
0001
0000
1000
0010
0000
0100
0001
0000
,
2100
0001
3001
0100
,
1020
0100
0130
0001
,
1100
0010
0100
0001
,
1010
0001
1100
0001
,
1010
0000
0100
0000
0100
0000
0001
1000
,
0010
0000
1000
0001
0000
0001
1000
0000
,
0011
0000
0100
0000
1000
0100
1000
0000
,
0001
0100
0001
0100
0000
1010
0000
0000
,
0100
1000
0010
0100
,
0001
0000
0010
0100
1000
0000
0010
0100
,
0001
1100
0001
0100
,
0010
0000
1000
0100
0010
0000
0001
0100
,
0010
1100
0010
0100
,
0001
0000
1000
0100
1000
0100
1000
0000
,
0101
0010
1000
0001
,
0110
1000
0110
0001
,
1020
0100
0130
0001
,
1200
0010
0310
0001
,
1000
0100
0010
0000
0001
0100
0010
0000
,
1001
0100
1001
0010
,
1001
0000
1000
0000
0010
0000
0100
0001
,
0100
0001
1000
0110
,
0000
0001
1000
0100
,
1000
0001
0000
1000
0001
0000
1000
0001
,
1000
0010
0100
0001
,
1100
0001
1010
0001
,
1100
0001
0100
0010
,
1000
0000
0000
0000
;

//---------------dance-single - ----------------
#NOTES:
     dance-single:
     :
     Easy:
     4:
     0.213,0.259,0.104,0.000,0.000:
0000
0000
0000
0000
,
0000
0000
0000
0000
,
0000
0000
0000
0000
,
0000
0000
0000
0000
,
0000
0000
0000
0000
,
0000
0000
0000
0000
,
0000
0000
0000
0000
,
0000
0000
0000
0000
,
0001
0000
0000
0000
,
0000
0000
0000
0000
0000
0001
0000
1000
,
0000
0000
0000
0000
0000
0000
0000
0001
,
0000
0000
0000
0000
,
1000
0000
0000
0000
,
0010
0000
0000
0000
,
0100
0000
0000
0000
,
0001
0000
0000
0000
,
1000
0100
1000
0000
,
0001
0100
0001
0000
,
1000
0000
0010
0000
,
0100
0001
1000
0000
,
1001
0000
0100
0000
,
1000
0000
0010
0000
,
0100
0001
0100
0001
,
1000
0100
1000
0010
,
0100
0001
0010
0100
,
1000
0000
0001
0000
,
1000
0010
1000
0010
,
0100
0001
0100
0001
,
1000
0100
0010
0001
,
0100
0010
1000
0001
,
1000
0010
1000
0010
,
0100
0001
0100
0001
,
1000
0010
0100
0001
,
0010
0100
1000
0001
,
1000
0000
0000
0000
,
1001
0000
0000
0000
,
0110
0000
0001
0000
,
1010
0000
0100
0000
,
1001
0000
0100
1000
,
0010
0000
0100
0001
,
1000
0000
0001
0000
,
1100
0000
0000
0000
,
0001
0100
0001
0100
,
0010
1000
0010
1000
,
0001
0100
0010
1000
,
0100
0010
0001
0100
,
0010
1000
0010
1000
,
0001
1000
0100
1000
,
0010
0100
0001
0010
,
0100
1000
0010
0100
,
0001
0000
0000
1000
,
1001
0000
0000
0100
,
0110
0000
1001
0000
,
1001
0000
0010
0100
,
0001
0000
0010
0100
,
1000
0010
0100
0001
,
0000
1000
0001
1000
,
0010
0000
0100
0001
,
1000
0000
0001
0100
,
0010
1000
0100
0010
,
0001
0000
0000
0000
,
1001
0000
0000
0000
;
