#TITLE:White Eve;
#SUBTITLE:;
#ARTIST:Sana;
#TITLETRANSLIT:;
#SUBTITLETRANSLIT:;
#ARTISTTRANSLIT:;
#CREDIT:Xythar;
#BANNER:White Eve-bn.avi;
#BACKGROUND:White Eve-bg.png;
#LYRICSPATH:;
#CDTITLE:popnmusic.png;
#MUSIC:White Eve.mp3;
#OFFSET:0.934;
#SAMPLESTART:79.229;
#SAMPLELENGTH:15.340;
#SELECTABLE:YES;
#BPMS:0.000=125.000;
#STOPS:;
#BGCHANGES:231.500=White Eve-bg.png=1.000=0=0=1,
99999=-nosongbg-=1.000=0=0=0 // don't automatically add -songbackground-
;

//---------------dance-single - ----------------
#NOTES:
     dance-single:
     :
     Hard:
     7:
     0.423,0.410,0.184,0.033,0.013: // measure 1
0000
0000
0000
0000
,  // measure 2
1000
0000
0100
0000
0010
0000
0001
0100
,  // measure 3
0010
0000
1000
0000
0001
0000
0010
0100
,  // measure 4
1000
0000
0010
0000
0100
0000
0010
1000
,  // measure 5
0001
1000
0100
0000
0010
0000
0001
0100
,  // measure 6
0010
0000
1000
0000
0100
0000
0001
0100
,  // measure 7
1000
0000
0001
0000
0100
0000
0010
0100
,  // measure 8
0001
2100
0001
3100
,  // measure 9
0020
0000
0100
0000
0130
0000
1000
0100
,  // measure 10
0010
0000
0001
0100
0010
0000
0100
0001
,  // measure 11
1000
0000
0001
0010
0100
0000
0001
0100
,  // measure 12
0010
0000
0001
0100
0010
0000
0100
0001
,  // measure 13
1000
0100
1000
0001
0100
0000
0010
1000
,  // measure 14
0001
0000
1000
0010
0100
0000
0001
0010
,  // measure 15
0100
0000
1000
0010
0100
0000
0001
1000
,  // measure 16
0100
0010
1100
0001
,  // measure 17
0100
0100
0010
1000
0001
1000
0100
1000
,  // measure 18
1001
0000
0000
0000
,  // measure 19
0010
0100
1000
0010
0100
0010
0100
0001
,  // measure 20
1000
0000
0000
0000
0100
0010
0001
0100
,  // measure 21
0010
0000
0000
0000
0100
0000
0000
0000
0001
0000
0000
0000
1000
0000
0100
1000
,  // measure 22
0100
0000
0000
0000
0010
0000
0000
0000
0011
0000
0000
0000
0100
0000
0010
0100
,  // measure 23
0010
0000
0000
0000
0100
0000
0000
0000
1100
0000
0000
0000
1000
0000
0001
1000
,  // measure 24
0001
0000
0100
0000
1010
0000
0100
0001
,  // measure 25
1000
0000
0000
0000
,  // measure 26
1001
0000
0010
0100
1000
0000
0010
0000
,  // measure 27
0101
0000
0010
0000
1100
0000
0010
0001
,  // measure 28
1000
0000
0010
0100
0001
0000
1000
0000
,  // measure 29
0010
0100
0001
0100
0010
0100
0001
1000
,  // measure 30
0100
0000
0010
0001
0010
0000
0100
0000
,  // measure 31
1001
0010
1001
0100
,  // measure 32
0010
1000
0100
0000
0010
0001
1000
0000
,  // measure 33
0010
0100
1000
0100
0001
0010
1000
0010
,  // measure 34
0001
1000
1000
0010
0100
0010
0100
0000
,  // measure 35
0001
1000
1000
0100
0010
0001
0100
0000
,  // measure 36
0010
0100
0100
0001
1000
0100
0010
0000
,  // measure 37
0100
1000
1000
0010
0100
0010
1000
0000
,  // measure 38
0001
1000
1000
0100
0010
0100
1000
0000
,  // measure 39
0010
0100
0100
0001
1000
0100
0010
0000
,  // measure 40
0001
0010
0010
0100
0001
0100
1000
0000
,  // measure 41
0010
0000
0100
0001
1000
0000
0100
0000
,  // measure 42
0010
0010
0100
0100
1000
1000
0001
0000
,  // measure 43
0101
0000
0010
1000
0001
0000
0100
0000
,  // measure 44
0011
0000
0100
1000
0001
0000
0100
0000
,  // measure 45
1010
0000
0100
0001
1000
0000
0100
0010
,  // measure 46
0100
1000
0010
0100
0001
0000
1000
0010
,  // measure 47
0100
0000
0101
0000
1100
0000
0010
0001
,  // measure 48
1000
0000
1100
0000
0011
0000
0100
0010
,  // measure 49
1000
0201
0010
0301
,  // measure 50
2000
0000
0100
0000
3100
0000
1000
0010
,  // measure 51
0100
0001
0010
0100
1000
0000
0101
0000
,  // measure 52
0010
1000
0100
0010
0001
0000
1100
0000
,  // measure 53
0001
0100
0010
1000
0100
0000
0011
0000
,  // measure 54
0100
1000
0010
1000
0100
0000
0100
0001
,  // measure 55
1000
0100
0010
0100
1000
0010
0100
0010
,  // measure 56
0100
0001
0010
0100
1000
0010
0100
0001
,  // measure 57
1000
0010
0100
0001
,  // measure 58
1000
0010
0100
0010
1000
0100
0010
0001
;

//---------------dance-single - ----------------
#NOTES:
     dance-single:
     :
     Medium:
     6:
     0.324,0.314,0.017,0.017,0.000:
0000
0000
0000
0000
,
1000
0000
0000
0001
1000
0000
0000
0010
,
0100
0000
0000
0001
0010
0000
0000
0100
,
0010
0000
0000
0001
1000
0000
0000
0010
,
0100
0010
0100
0000
0001
0000
1000
0100
,
0010
0000
0000
0100
0010
0000
0000
0001
,
1000
0000
0000
0010
0100
0000
0001
1000
,
0001
2000
0010
3010
,
0100
0000
0001
0000
1000
0000
0100
0010
,
0100
0000
1000
0000
0010
0000
0100
0001
,
0100
0000
0010
0000
1000
0000
0100
0010
,
0100
0000
1000
0000
0001
0000
0000
1000
,
0100
0000
0010
0001
0100
0000
0010
0100
,
0010
0000
1000
0000
0001
0000
0010
0100
,
0010
0000
0001
0000
1000
0000
0000
0100
,
1000
0001
0100
0010
,
1000
0000
0100
0000
,
1000
0000
0000
0000
,
0010
0100
0001
0000
1000
0100
1000
0000
,
0001
0000
0000
0000
1000
0010
0100
0000
,
0001
0000
0000
0000
0000
0000
1000
0100
,
0010
0000
0001
0000
0100
0000
0010
1000
,
0001
0000
0010
0000
0100
0000
0000
1000
,
0001
0000
0000
0000
0000
0000
1000
0001
,
1000
0000
0000
0000
,
1001
0000
0010
0100
0001
0000
1000
0010
,
0000
0100
0000
0001
0000
1000
0000
0100
,
0010
0000
0001
1000
0000
0000
0001
1000
,
0100
0000
1000
0010
0100
0010
1000
0000
,
0001
0000
0010
0100
1000
0000
0010
0100
,
0000
0001
0000
1000
0000
0000
0100
0000
,
1000
0010
0100
0000
0001
1000
0100
0000
,
1000
0010
0100
0010
1000
0000
0001
0000
,
0010
0100
0100
0000
1000
0000
0010
0000
,
0100
0001
0001
0000
1000
0000
0100
0000
,
1000
0001
0001
0000
0100
0000
0010
0000
,
1000
0010
0010
0000
0100
0001
0001
0000
,
1001
0000
0000
0010
0100
1000
0010
0000
,
0100
0000
0000
0001
1000
0100
1000
0000
,
0001
0000
0000
0100
0010
0100
0001
0000
,
1000
0000
0100
0010
0001
0000
1000
0000
,
0001
0000
0000
0000
0000
0000
1000
0010
,
0100
0000
0010
0000
1000
0000
0001
0010
,
0100
0000
1000
0000
0001
0000
0100
0010
,
1000
0000
0001
0000
0010
0000
0100
1000
,
0001
0000
0100
0000
0010
0000
0100
0001
,
1000
0000
0100
0000
0010
0000
0001
0010
,
0100
0000
1000
0000
0010
0000
0100
0001
,
1000
0020
0100
0130
,
0010
0000
1000
0000
0001
0000
0010
0100
,
1000
0000
0010
0000
0100
0000
0001
0100
,
0001
0000
1000
0000
0100
0000
0010
0001
,
1000
0000
0010
0000
0100
0000
0001
0100
,
0010
0100
0001
0000
1000
0000
0100
0010
,
0001
0100
0010
0000
0100
0001
1000
0000
,
0001
0010
0100
0000
1000
0010
0100
0000
,
0001
1000
0100
0010
,
0001
0100
0001
0100
0010
1000
0100
0010
;

//---------------dance-single - ----------------
#NOTES:
     dance-single:
     :
     Easy:
     3:
     0.197,0.217,0.000,0.017,0.000:
0000
0000
0000
0000
,
0000
0001
0010
0100
,
0000
1000
0010
0100
,
0000
0001
1000
0100
,
0000
1000
0001
0100
,
0000
0010
1000
0001
,
0000
0010
0100
1000
,
0000
0020
0100
0000
,
1000
0030
0100
0010
,
0000
0001
0100
0010
,
0000
0100
0001
1000
,
0000
0100
1000
0010
,
0000
0100
0001
1000
,
0000
0100
0010
0100
,
0000
1000
0010
0100
,
0000
0001
1000
0001
,
0010
0000
0100
0000
,
1000
0000
0000
0000
,
0010
0100
0010
0100
,
0001
0000
1000
0100
,
1000
0000
0000
0010
,
0100
0000
0000
0001
,
1000
0000
0000
0000
,
0100
0000
0000
0010
,
0001
0000
0000
0000
,
1000
0000
0010
0000
,
0100
0000
0001
0000
,
1000
0100
0000
1000
,
0010
0100
0000
0000
,
0001
0000
0010
0000
,
0100
1000
0010
0000
,
0100
0001
0100
0001
,
1000
0100
0010
0001
,
0100
0000
0010
1000
,
0001
0000
0010
0100
,
0010
0000
0001
0100
,
0010
1000
0100
1000
,
0010
0000
0100
0001
,
1000
0000
0100
0010
,
0100
0000
0010
0001
,
1000
0000
0000
0000
,
0010
0000
0000
0100
,
0001
0000
1000
0000
,
0100
0000
1000
0000
,
0010
0000
0100
0000
,
0001
0010
0100
1000
,
0010
0000
0100
0000
,
0001
0000
1000
0100
,
1000
0020
0100
0130
,
0001
0000
1000
0000
,
0100
0010
0001
0100
,
0010
1000
0100
1000
,
0010
0100
0010
1000
,
0100
0010
0001
0100
,
0010
0100
0001
0010
,
0100
1000
0010
0100
,
0001
1000
0001
1000
,
0100
0000
0010
0000
0001
0000
1000
0001
;

//---------------dance-single - ----------------
#NOTES:
     dance-single:
     :
     Beginner:
     1:
     0.125,0.145,0.008,0.000,0.000:
0000
0000
0000
0000
,
1000
0000
0001
0000
,
1000
0000
0001
0000
,
1000
0000
0010
0000
,
0100
0000
0010
0000
,
0100
0000
0001
0000
,
1000
0000
0001
0000
,
0010
0000
0000
0000
,
0100
0000
0000
0000
,
1000
0000
0010
0000
,
1000
0000
0010
0000
,
0100
0000
0001
0000
,
0100
0000
0001
0000
,
1000
0000
0001
0000
,
0010
0000
0100
0000
,
0010
0000
0000
0000
,
0001
0000
1000
0000
,
0001
0000
0000
0000
,
1000
1000
0000
0010
,
0010
0000
0100
0000
,
0010
0000
0000
0100
,
0100
0000
0000
0001
,
0001
0000
0000
0000
,
1000
0000
0000
0100
,
0100
0000
0000
0000
,
0010
0000
0001
0000
,
1000
0000
0000
0000
,
0001
0000
0100
0000
,
0010
0000
0000
0000
,
1000
0000
0001
0000
,
1000
0000
0000
0000
,
0100
0000
1000
0000
,
0010
0000
0100
0000
,
0001
0001
0000
0000
,
1000
1000
0000
0000
,
0100
0000
0010
0000
,
0001
0000
1000
0000
,
0001
0001
0000
0000
,
1000
1000
0000
0000
,
0100
0000
0010
0000
,
0001
0000
0000
0000
,
1001
0000
0000
0000
,
0001
0000
0010
0000
,
0100
0000
1000
0000
,
0010
0000
0100
0000
,
0001
0000
1000
0000
,
0001
0000
0100
0000
,
0010
0000
1000
0000
,
0100
0000
0000
0000
,
0010
0000
0001
0000
,
1000
0000
0001
0000
,
0100
0000
0001
0000
,
1000
0000
0100
0000
,
1000
0000
0010
0000
,
0100
0000
0001
0000
,
1000
0000
0001
0000
,
1000
0000
0001
0000
,
1000
0000
0001
0001
;
