#TITLE:Welcome!;
#SUBTITLE:;
#ARTIST:Do As Infinity;
#TITLETRANSLIT:;
#SUBTITLETRANSLIT:;
#ARTISTTRANSLIT:;
#CREDIT:Xythar (BG image from www.sxc.hu/photo/658003);
#BANNER:Welcome!.png;
#BACKGROUND:Welcome!-bg.png;
#LYRICSPATH:Welcome!.lrc;
#CDTITLE:daiseries!.png;
#MUSIC:Welcome!.mp3;
#OFFSET:-2.652;
#SAMPLESTART:43.650;
#SAMPLELENGTH:15.600;
#SELECTABLE:YES;
#BPMS:0.000=123.020;
#STOPS:;
#BGCHANGES:-5.000=Welcome!.avi=1.000=1=1=0,
99999=-nosongbg-=1.000=0=0=0 // don't automatically add -songbackground-
;

//---------------dance-single - ----------------
#NOTES:
     dance-single:
     :
     Hard:
     7:
     0.367,0.359,0.132,0.022,0.055:
0000
0000
0000
0000
,
0000
0000
0000
0000
,
0000
0000
0000
0000
,
0000
0000
0000
0000
,
0000
0000
0000
0000
,
1000
0100
0010
0001
0000
0100
0010
1000
,
0000
0001
0010
0100
0000
1000
0010
0100
,
0000
0000
0100
0000
0001
0000
0100
0000
0001
0000
0000
0001
0000
0000
1001
0000
,
0000
0100
1000
1001
0000
0100
0001
0000
,
1000
0100
1000
0100
1000
0100
1000
0100
,
1000
0010
1000
0010
1000
0010
1000
0010
,
0100
0001
0100
0001
0100
0001
0100
1001
,
0000
0100
0010
1001
0000
0010
0100
0001
,
0010
0100
0010
0100
0010
0100
0010
0100
,
1000
0001
1000
0001
1000
0001
1000
0001
,
0100
0010
0100
0010
0100
0010
0100
1001
,
0000
0100
0010
1001
0000
0001
0010
0100
,
1000
0000
0000
0000
0001
0000
1000
0000
0000
0000
0010
0000
0100
0001
0000
0000
,
1000
0000
0000
0000
0100
0000
1000
0000
0000
0000
0001
0000
0100
0010
0000
0000
,
0100
0000
0000
0000
0001
0000
1000
0000
0000
0000
0010
0000
0100
0001
0000
0000
,
0000
0000
0010
0000
0100
1000
0000
0000
0010
0000
0100
0001
0000
0001
0000
0000
,
1000
0100
0010
0001
0100
0010
1000
0001
,
0000
0001
0010
0100
1000
1000
0001
1001
,
0000
0000
0010
0000
0100
0000
0001
0000
1000
0000
0000
1000
0000
0000
1001
0000
,
0000
0010
0100
0001
0100
0010
0100
0001
,
1000
0010
0100
0001
0010
0100
1000
0001
,
0000
0001
1000
0100
1000
0001
0100
0010
,
0000
0000
0010
0000
0100
0000
0001
0000
0001
0000
0000
0001
0000
0000
1100
0000
,
0000
1000
0010
0100
0010
0000
0010
1000
,
0001
0010
0100
1000
0000
0010
0100
0001
,
0000
1000
0100
0010
0000
0001
0100
0010
,
0000
0000
0010
0000
0100
0000
0001
0000
0010
0000
0000
0010
0000
0000
0110
0000
,
0000
1000
0010
0101
0000
0010
1000
0001
,
1000
0100
0010
0001
0000
0100
0010
1000
,
0000
0001
0010
0100
0000
1000
0010
0100
,
0000
0100
0001
1000
0001
0000
1000
0010
,
0100
0010
1000
0010
0100
0010
1000
0001
,
0010
0010
0000
2002
0000
0000
0000
0000
,
0000
0000
0000
3003
0000
0000
0000
0000
;

//---------------dance-single - ----------------
#NOTES:
     dance-single:
     :
     Medium:
     5:
     0.293,0.275,0.121,0.099,0.000:
0000
0000
0000
0000
,
0000
0000
0000
0000
,
0000
0000
0000
0000
,
0000
0000
0000
0000
,
0000
0000
0000
0000
,
1000
0000
0001
0100
0000
0010
1000
0010
,
0000
0100
0001
0100
0000
0001
0000
0010
,
0000
0100
0100
0000
1000
0000
0000
1001
,
0000
0010
0000
1001
0000
0100
1000
0000
,
0001
0001
0100
0001
0000
1000
0000
0100
,
0100
0010
0000
0002
0000
1000
0000
1003
,
0010
0010
0100
0001
0000
1000
0000
0110
,
0000
0001
0000
0110
0000
1000
0000
0001
,
1000
1000
0010
0100
0000
0001
0000
1000
,
0100
0100
0000
0020
0000
0001
0000
0130
,
1000
1000
0000
0001
0000
0100
0000
1010
,
0000
0100
0000
0011
0000
0100
0100
1000
,
0001
0000
0000
0010
0000
0100
1000
0000
,
0001
0000
0000
0100
0000
0010
1000
0000
,
0001
0000
0000
1000
0000
0010
0100
0000
,
0000
0001
1000
0000
1000
0001
1000
0000
,
0200
0000
0010
0310
0000
0001
1000
0001
,
0000
0100
0000
0100
0000
0010
1000
0010
,
0000
1000
0001
1000
0001
0000
0000
1001
,
0000
0100
0000
1000
0000
0001
1000
0000
,
0020
0000
0100
0130
0000
0001
1000
0001
,
0000
1000
0100
1000
0000
0010
0000
0010
,
0000
0100
0001
0100
0001
0000
0000
1100
,
0000
0001
0010
0001
0010
0000
0100
1000
,
0001
0000
0100
0010
0000
0100
0001
0100
,
0000
0001
1000
0001
0000
1000
0100
2000
,
0000
0001
0000
3001
0000
0010
0000
1100
,
0000
0010
0000
0101
0000
0010
1000
0010
,
1000
0000
0001
1000
0000
0200
0000
0010
,
0000
2300
0000
0010
0000
3001
0100
0001
,
0000
1000
0001
0000
1000
0000
0001
1000
,
0001
1000
0001
1000
0001
1000
0001
0000
,
0100
0100
0000
2002
0000
0000
0000
0000
,
0000
0000
0000
3003
0000
0000
0000
0000
;

//---------------dance-single - ----------------
#NOTES:
     dance-single:
     :
     Easy:
     3:
     0.179,0.190,0.110,0.055,0.000:
0000
0000
0000
0000
,
0000
0000
0000
0000
,
0000
0000
0000
0000
,
0000
0000
0000
0000
,
0000
0000
0000
0000
,
1000
0000
0000
0001
0000
0000
0000
1000
,
0000
0000
0000
0100
0000
0000
0000
1000
,
0000
0000
0000
0000
0010
0000
0000
1001
,
0000
0000
0000
0110
0000
0000
0001
0000
,
1000
1000
0100
0010
,
0001
0001
0100
0010
,
1000
0000
1000
0000
0001
0000
0000
0110
,
0000
0000
0000
1001
0000
0000
0000
0000
,
0100
0100
0010
0001
,
0100
0100
0010
1000
,
0001
0000
0001
0000
0010
0000
0000
0110
,
0000
0000
0000
1001
0000
0000
0000
0000
,
1000
0001
1000
0001
,
0100
0010
0100
0010
,
0100
0001
1000
0100
,
1000
0000
0001
0000
,
2000
0000
3010
0100
,
0001
0000
0000
0000
0020
0000
0000
0130
,
0000
0000
1000
0000
0001
0000
0000
1000
,
0000
0001
0010
0100
,
2000
0000
0000
0000
3001
0000
0000
0100
,
0000
0000
0010
0000
1000
0000
0000
0001
,
0000
0000
1000
0000
0100
0000
0000
1001
,
0000
0010
0100
0001
,
1000
0000
0000
0100
0000
0000
0000
0010
,
0000
0000
0000
0001
0000
0000
0000
0100
,
0000
0000
0010
0000
1000
0000
0000
1001
,
0000
0000
0000
0110
0000
0000
0001
0000
,
1000
0000
0000
0100
0000
0000
0000
0010
,
0000
0001
0000
1000
0000
0001
0000
1000
,
0000
0100
0100
1000
,
1000
1000
0001
0001
,
0010
0000
0000
2002
0000
0000
0000
0000
,
0000
0000
0000
3003
0000
0000
0000
0000
;
