#TITLE:Unforgettable;
#SUBTITLE:;
#ARTIST:メロン記念日;
#TITLETRANSLIT:;
#SUBTITLETRANSLIT:;
#ARTISTTRANSLIT:Melon Kinenbi;
#CREDIT:Xythar;
#BANNER:Unforgettable-bn.png;
#BACKGROUND:Unforgettable-bg.png;
#LYRICSPATH:Unforgettable.lrc;
#CDTITLE:Hello! Project.png;
#MUSIC:Unforgettable.mp3;
#OFFSET:-3.194;
#SAMPLESTART:56.239;
#SAMPLELENGTH:14.733;
#SELECTABLE:YES;
#BPMS:0.000=130.000;
#STOPS:;
#BGCHANGES:-5.350=Unforgettable.avi=1.000=1=1=0,
215.000=Unforgettable-bg.png=1.000=1=0=1,
99999=-nosongbg-=1.000=0=0=0 // don't automatically add -songbackground-
;

//---------------dance-single - ----------------
#NOTES:
     dance-single:
     :
     Hard:
     7:
     0.442,0.432,0.189,0.170,0.033: // measure 1
0000
0000
0000
0000
,  // measure 2
0000
0000
0000
0000
0000
0000
0001
0010
,  // measure 3
0200
0000
0010
0310
0000
0100
1000
0010
,  // measure 4
0200
0000
0001
0301
0000
0010
0100
1000
,  // measure 5
0010
0000
0000
0000
0010
0000
0000
0100
0001
0000
1000
0000
0100
0000
1000
0000
,  // measure 6
0010
0100
0001
0100
0010
0000
1000
0001
,  // measure 7
0020
0000
1000
1030
0000
0010
0001
0100
,  // measure 8
0020
0000
0001
0031
0000
0010
1000
0001
,  // measure 9
1000
0000
0000
0000
1000
0000
0000
0001
1000
0000
0010
0000
0100
0000
0010
0000
,  // measure 10
0100
0001
1000
0001
0010
0000
1000
0010
,  // measure 11
0002
0100
1000
0013
,  // measure 12
1100
0000
0000
1001
0000
0000
1010
0000
,  // measure 13
0100
0000
0001
0010
0100
0000
1000
0010
,  // measure 14
0100
0010
1000
0100
0010
0000
0100
0000
,  // measure 15
1000
0010
0100
0000
1000
0100
0001
0000
,  // measure 16
0010
0100
0100
0000
0001
0100
1000
0000
,  // measure 17
0010
0000
0100
0001
1000
0000
0001
0010
,  // measure 18
0100
1000
0010
0100
0001
0000
1000
0000
,  // measure 19
0001
0100
0010
0000
0001
0010
1000
0000
,  // measure 20
0100
0010
0010
0000
0100
0000
1001
0000
,  // measure 21
0010
0100
0001
0100
0010
0000
1000
0100
,  // measure 22
0010
0100
1000
0010
0000
0100
0001
1000
,  // measure 23
0000
0001
0010
0100
1000
0010
0100
0001
,  // measure 24
1000
0000
0011
0000
0100
1000
0010
0000
,  // measure 25
0100
0001
1000
0100
1000
0001
0100
0000
,  // measure 26
1000
0000
0100
0000
0001
0000
1000
0000
0001
1000
0001
0000
1000
0000
0000
0000
,  // measure 27
0100
0010
0100
0010
0001
0100
0010
0200
,  // measure 28
0000
0001
0000
0310
0000
1000
0001
1001
,  // measure 29
0000
0001
0010
0100
1000
0000
0010
0100
,  // measure 30
2001
0000
0100
3100
0000
0010
0001
0010
,  // measure 31
2001
0000
0010
3010
0000
0100
0001
1000
,  // measure 32
0001
0000
0000
0000
0001
0000
0000
0100
0010
0000
1000
0000
0100
0000
0010
0000
,  // measure 33
0001
0100
1000
0100
0001
0000
0010
0100
,  // measure 34
1002
0000
0100
0103
0000
0010
1000
0010
,  // measure 35
1002
0000
0010
0013
0000
0100
1000
0010
,  // measure 36
0100
0000
0000
0000
0100
0000
0000
1000
0100
0000
0001
0000
1000
0000
0100
0000
,  // measure 37
1000
0010
0001
0010
1000
0000
0100
0010
,  // measure 38
2001
0100
0010
3001
,  // measure 39
0101
0000
0000
1001
0000
0000
0011
0100
,  // measure 40
2000
0000
0010
3010
0000
0100
0001
0100
,  // measure 41
0002
0000
1000
1003
0000
0001
0010
0100
,  // measure 42
1000
0000
0000
0000
1000
0000
0000
0001
1000
0000
0010
0000
0100
0000
0001
0000
,  // measure 43
0010
1000
0010
0001
0100
0000
0010
1000
,  // measure 44
0200
0000
0010
0310
0000
1000
0010
0001
,  // measure 45
0200
0000
0010
0310
0000
0001
0010
1000
,  // measure 46
0100
0000
0000
0000
0100
0000
0000
0010
0100
0000
1000
0000
0010
0000
0100
0000
,  // measure 47
1000
0100
0001
0100
1000
0000
0100
0001
,  // measure 48
0020
1000
0100
0031
,  // measure 49
1100
0000
0000
1001
0000
0000
0101
0000
,  // measure 50
0000
1010
0000
0000
0011
0000
0000
2002
,  // measure 51
0000
0000
0000
0000
,  // measure 52
0000
0000
0000
0000
,  // measure 53
0000
0000
0000
0000
,  // measure 54
0000
0000
0000
0000
0000
0000
0000
3003
;

//---------------dance-single - ----------------
#NOTES:
     dance-single:
     :
     Medium:
     5:
     0.342,0.356,0.123,0.160,0.000:
0000
0000
0000
0000
,
0000
0000
0000
1000
,
0002
0000
0000
0013
0000
0100
0100
0000
,
2000
0000
0000
3010
0000
0100
0100
0000
,
0001
0001
1000
1000
,
1000
0010
0100
0010
1000
0000
0001
0000
,
0200
0000
0000
0310
0000
1000
1000
0000
,
0200
0000
0000
0310
0000
0001
0001
0000
,
1000
0001
1000
0001
,
1000
0100
0010
0100
1000
0000
0010
0000
,
0200
0001
0010
0301
,
1000
0000
0000
0001
0000
0000
1000
0000
,
0010
0100
0001
0010
,
0100
0000
1000
0001
1000
0000
0010
0000
,
0100
0001
1000
0000
0100
1000
0001
0000
,
0001
0100
1000
0000
0001
0010
1000
0000
,
0010
0001
0001
1000
,
0010
0000
0100
0001
0100
0000
0010
0000
,
1000
0100
0010
0000
0100
0010
0001
0000
,
0100
0010
1000
0000
0001
1000
0001
1000
,
0000
0100
0010
0000
0010
0000
0001
0000
,
0100
0010
0100
0010
0000
1000
0001
1000
,
0000
0001
1000
0001
0000
1000
0001
1000
,
0001
0010
0100
1000
,
0010
0010
0100
1001
,
0100
0000
0100
0000
1000
0001
0000
1000
,
0000
0010
0010
0000
0100
0100
0000
0002
,
0000
1000
0000
0103
0000
1000
0001
1000
,
0000
0001
1000
0001
1001
0000
0100
0000
,
2010
0000
0000
3100
0000
0010
0010
0000
,
0201
0000
0000
0310
0000
1000
1000
0000
,
0001
0000
1000
0000
0001
0100
0010
0100
,
0001
0000
1000
0100
1000
0000
0010
0000
,
2001
0000
0000
3100
0000
0010
0010
0000
,
1002
0000
0000
0103
0000
0010
0010
0000
,
1000
0000
0001
0000
1000
0100
0001
0100
,
1000
0010
1001
0100
,
0021
0100
0001
0130
,
1000
0000
0000
0001
0000
1000
0001
1000
,
0020
0000
0000
0130
0000
0001
0001
0000
,
2000
0000
0000
3100
0000
0010
0010
0000
,
0001
0000
1001
0000
0010
0100
0001
0100
,
0010
1000
0110
0001
,
0200
0000
0000
0310
0000
1000
1000
0000
,
0200
0000
0000
0310
0000
0001
0001
0000
,
0100
0000
1001
0000
0100
0010
0001
0010
,
0100
1000
0101
0010
,
2100
0001
0100
3001
,
1000
0000
0000
0001
0000
0000
0100
0000
,
0000
0010
0000
0000
1000
0000
0000
0002
,
0000
0000
0000
0000
,
0000
0000
0000
0000
,
0000
0000
0000
0000
,
0000
0000
0000
0000
0000
0000
0000
0003
;

//---------------dance-single - ----------------
#NOTES:
     dance-single:
     :
     Easy:
     3:
     0.240,0.303,0.085,0.207,0.000:
0000
0000
0000
0000
,
0000
0000
0000
1000
,
0002
0000
0003
0100
,
0020
0000
0030
1000
,
0200
0010
0010
0310
,
0001
1000
0001
0100
,
0020
0000
0030
1000
,
0200
0000
0300
2000
,
0001
0001
3001
0100
,
0010
0100
0001
1000
,
0200
0000
0000
0300
,
0010
0000
0000
0001
,
1001
0010
0100
0001
,
1000
0100
1000
0000
,
0010
0010
0100
0100
,
0001
0001
1000
1000
,
0001
0010
0100
1000
,
0010
0100
0001
1000
,
0100
0100
0010
0010
,
0001
0001
0000
1000
,
0001
0100
0010
0100
,
0001
0010
0100
1000
,
0010
0100
0001
1000
,
0002
0000
1003
0000
,
0100
0100
0010
0010
,
0001
1000
1001
0000
,
0010
0100
0001
1000
,
0001
0000
0000
1001
,
1001
0100
1001
0010
,
0220
0000
0330
1000
,
0220
0000
0330
0001
,
1000
1000
0001
0001
,
0100
0010
1000
0100
,
2002
0000
3003
0010
,
2002
0000
3003
0100
,
0010
0010
0001
0001
,
0100
0010
1000
0001
,
0020
0000
0000
0030
,
0100
0000
0000
1000
,
0002
0000
0003
0100
,
0020
0000
0030
1000
,
0100
0100
0010
0010
,
0001
0100
0010
1000
,
0200
0000
0300
1000
,
0020
0000
0030
0100
,
0001
0001
0010
0010
,
0100
1000
0001
0100
,
0020
1000
1000
1030
,
0001
0000
0000
1000
,
0000
0000
0001
0000
;
