#TITLE:Under the Sky;
#SUBTITLE:Ryu☆ Remix;
#ARTIST:南さやか(BeForU) with platoniX;
#TITLETRANSLIT:;
#SUBTITLETRANSLIT:Ryu* Remix;
#ARTISTTRANSLIT:Sayaka Minami (BeForU) with platoniX;
#CREDIT:Xythar (BG photo by sjtoh on sxc.hu);
#BANNER:Under The Sky (Ryu Remix).png;
#BACKGROUND:Under The Sky (Ryu Remix)-bg.png;
#LYRICSPATH:;
#CDTITLE:xythar.png;
#MUSIC:Under The Sky (Ryu Remix).mp3;
#OFFSET:-1.219;
#SAMPLESTART:28.458;
#SAMPLELENGTH:20.760;
#SELECTABLE:YES;
#BPMS:0.000=185.000;
#STOPS:;
#BGCHANGES:;

//---------------dance-single - ----------------
#NOTES:
     dance-single:
     :
     Easy:
     5:
     0.363,0.366,0.236,0.094,0.000: // measure 1
0000
0000
0000
0000
,  // measure 2
0000
0000
0000
0000
,  // measure 3
0000
0000
0000
0000
,  // measure 4
0000
0000
0000
0000
,  // measure 5
0001
0000
1000
0000
,  // measure 6
0001
0100
0010
1000
,  // measure 7
0100
1000
0010
0100
,  // measure 8
0001
0010
0100
1000
,  // measure 9
0010
0100
0010
1000
,  // measure 10
0100
1000
0001
0010
,  // measure 11
0100
1000
0010
0100
,  // measure 12
0010
1000
0001
1000
,  // measure 13
1001
0000
0110
0000
,  // measure 14
0100
1000
0010
0100
,  // measure 15
0010
0100
0001
0010
,  // measure 16
0100
1000
0010
1000
,  // measure 17
0001
0010
0100
0010
,  // measure 18
0001
0100
0010
0100
,  // measure 19
0001
1000
0100
0010
,  // measure 20
0001
0100
0010
1000
,  // measure 21
1001
0000
0110
0000
,  // measure 22
0001
0000
0100
0010
,  // measure 23
1000
0000
0100
0000
,  // measure 24
1000
0010
0100
0000
,  // measure 25
0001
0010
0100
1000
,  // measure 26
0001
0000
0100
0010
,  // measure 27
0100
0000
0001
1000
,  // measure 28
0100
0000
1000
0000
,  // measure 29
1001
0000
0110
0000
,  // measure 30
0001
0010
0100
0000
,  // measure 31
1000
0010
0100
0000
,  // measure 32
0001
1000
0100
0000
,  // measure 33
1000
0001
0100
0000
,  // measure 34
0010
1000
0010
0100
,  // measure 35
0001
0010
0100
1000
,  // measure 36
0010
0000
0101
0000
,  // measure 37
1100
0000
1001
0000
,  // measure 38
0001
0100
0010
0100
,  // measure 39
0001
0010
0100
1000
,  // measure 40
0010
0100
0001
0100
,  // measure 41
0010
1000
0100
0010
,  // measure 42
0001
0000
1000
0001
,  // measure 43
1000
0000
0001
0000
,  // measure 44
0100
0000
0010
1000
,  // measure 45
0100
0000
0010
0000
,  // measure 46
0001
0100
0010
1000
,  // measure 47
0100
1000
0010
0100
,  // measure 48
0101
0000
1100
0000
,  // measure 49
0011
0000
1010
0000
,  // measure 50
0001
0100
0010
1000
,  // measure 51
0100
1000
0001
0010
,  // measure 52
1100
0000
0101
0000
,  // measure 53
0110
0000
1001
0000
,  // measure 54
0001
0100
0010
2000
,  // measure 55
0000
3100
0000
0010
,  // measure 56
0001
0100
0010
1000
,  // measure 57
0002
0000
0000
0000
,  // measure 58
0013
0000
0100
1000
,  // measure 59
0001
0100
0010
1000
,  // measure 60
0002
0000
2003
0000
,  // measure 61
3020
0000
0230
0000
,  // measure 62
0301
0010
0100
1000
,  // measure 63
0010
0100
0010
1000
,  // measure 64
0100
1000
0001
0000
,  // measure 65
1000
0000
0010
0000
,  // measure 66
0100
0001
0010
0100
,  // measure 67
1000
0010
0100
0001
,  // measure 68
1000
0000
0100
0000
,  // measure 69
1000
0010
0100
0000
,  // measure 70
0002
0000
0000
0000
,  // measure 71
0023
0000
0000
0000
,  // measure 72
0230
0000
0000
0000
,  // measure 73
2300
0000
0000
0000
,  // measure 74
3002
0000
0000
0000
,  // measure 75
2003
0000
0000
0000
,  // measure 76
3001
1001
1001
1001
,  // measure 77
0001
0010
0110
0100
,  // measure 78
1000
0001
0100
0010
,  // measure 79
0100
0001
0010
0100
,  // measure 80
1000
0010
0100
0010
,  // measure 81
1000
0001
0010
0100
,  // measure 82
1000
0001
0100
0001
,  // measure 83
1000
0100
0010
0001
,  // measure 84
0100
0010
0100
0001
,  // measure 85
0011
0000
1100
0000
,  // measure 86
1000
0010
0100
0001
,  // measure 87
0100
0010
1000
0100
,  // measure 88
1000
0001
0010
0100
,  // measure 89
1000
0010
0100
0001
,  // measure 90
1000
0100
1000
0100
,  // measure 91
0010
0001
0010
0001
,  // measure 92
0101
0000
1010
0000
,  // measure 93
1001
1001
1100
0110
,  // measure 94
0011
0000
0000
0000
;

//---------------dance-single - ----------------
#NOTES:
     dance-single:
     :
     Hard:
     9:
     0.644,0.622,0.323,0.102,0.169:
0000
0000
0000
0000
,
0000
0000
0000
0000
,
0000
0000
0000
0000
,
0000
0000
0000
0000
,
0001
0000
0000
1000
0000
0000
0001
0000
0000
0000
0000
0000
0000
0000
0000
0000
,
1000
0000
0000
0010
0000
0000
0100
0000
0001
0000
0000
0100
0000
0000
1000
0000
,
0100
0000
0000
0001
0000
0000
1000
0000
0100
0000
0000
0010
0000
0000
0001
0000
,
0100
0000
0000
0010
0000
0000
0100
0000
0001
0000
0000
1000
0000
0000
0100
0000
,
1000
0000
0000
0010
0000
0000
0001
0000
0010
0000
0000
1000
0000
0000
0001
0000
,
0100
0000
0000
0010
0000
0000
0100
0000
0001
0000
0000
0010
0000
0000
0100
0000
,
0001
0000
0000
0100
0000
0000
1000
0000
0010
0000
0000
0100
0000
0000
0001
0000
,
1000
0000
0000
0010
0000
0000
0100
0000
0001
0000
0000
1000
0000
0000
0100
0000
,
1000
0000
0000
1000
0000
0000
1000
0000
0001
0000
0000
0001
0000
0000
0001
0000
,
0100
0010
0100
0010
0001
0000
0100
0010
,
1000
0000
0100
0010
0001
0000
1100
0000
,
0001
0100
0010
0100
0001
0000
0010
0100
,
1000
0000
0010
0100
0001
0000
1010
0000
,
0001
0100
0010
1000
0100
0010
0100
1000
,
0010
0100
0001
1000
0100
0001
0100
1000
,
0010
0001
0010
1000
0001
0010
0100
1000
,
0001
0000
0000
0001
0000
0000
0100
0000
0010
0000
0000
0010
0000
0000
1000
0000
,
0001
0100
0010
0100
0001
0000
1100
0000
,
0010
0001
1000
0000
0010
0100
0001
0000
,
1100
0000
0101
0000
1100
0000
0010
0100
,
0001
0000
1010
0000
0011
0000
0010
0100
,
0001
0010
1000
0010
0001
0000
0100
1000
,
0002
0000
0100
0000
0103
0000
0010
1000
,
0001
0000
0100
0001
1000
0000
1000
0000
,
0010
0000
0100
0000
0101
0000
0000
0000
1000
0000
0000
1000
0000
0000
0100
0000
,
0000
0010
0001
0010
0100
0010
0000
0001
,
0100
0010
0000
1000
0001
1000
0100
1000
,
0001
0000
0100
0010
0000
0010
0100
0001
,
1000
0000
0100
0010
0000
1000
0010
0001
,
1000
0000
0001
0100
0000
1010
0000
0100
,
0001
1000
0100
1000
0000
0001
0010
1000
,
1100
0000
1000
0010
0011
0000
0001
0100
,
0010
0100
0001
0100
0010
0100
0001
1000
,
1100
0000
0011
0000
0100
1000
0001
0000
,
0100
0010
0100
0001
0010
0100
1000
0010
,
0110
0000
1001
0000
0010
0100
1000
0000
,
1000
0100
0001
0100
1000
0100
0001
1000
,
1100
0000
1010
0000
0100
0001
1000
0000
,
0001
0010
0100
1000
0000
0101
0000
0010
,
1000
0000
0100
0000
0010
0001
0010
0000
,
0100
1000
0001
0100
0010
0100
0001
1000
,
0100
0001
0100
0001
0100
1000
0100
1000
,
0010
0001
0010
0001
0010
1000
0010
1000
,
0100
1001
0010
1001
,
0100
0011
1000
0101
,
0010
1000
0000
0001
0100
0010
0000
1000
,
0100
0010
0000
0001
0100
0010
0100
0001
,
1000
0100
1000
0100
0001
0100
1000
0010
,
0100
0000
0000
0100
0000
0000
0001
0000
1001
0000
0000
0010
0000
0000
0101
0000
,
0001
0000
1000
0000
0100
0000
1000
0001
,
0100
0000
0010
0000
1000
0000
0100
0010
,
0001
0000
0100
0010
1000
0000
0001
0010
,
0100
1000
0010
0100
0001
0000
1000
0000
,
0100
0010
0102
0010
,
0023
1000
2030
0100
,
3100
0010
0001
0100
0010
1000
0001
0000
,
0001
0100
0010
1000
0100
0010
0001
0000
,
1100
0000
0010
0000
0101
0000
0010
1000
,
0001
0000
0011
0000
1100
0000
0001
0100
,
0010
0100
0001
0000
1100
0000
0001
0100
,
1000
0100
0001
0010
0100
0000
1001
0000
,
1000
0110
0001
0110
,
1000
0010
0100
0000
0001
0010
0100
0000
,
0001
0100
1000
0010
0001
0000
1010
0000
,
1100
0000
0101
0000
0100
0010
0100
0010
,
0002
0000
0000
1003
,
0020
0000
0000
0130
,
0002
0000
0000
2003
0000
0000
3010
0000
,
0202
0000
0000
0303
,
0020
0000
0000
1030
,
0200
0000
0310
0001
,
2000
0100
0010
3100
,
1000
0000
0000
0010
0000
0000
0100
0000
0001
0000
1000
0000
0001
0000
0000
0000
,
1000
0000
0000
0010
0000
0000
0100
0000
0001
0000
0000
1000
0000
0000
0100
0000
,
0010
0000
0000
0001
0000
0000
0100
0000
0010
0000
0000
1000
0000
0000
0001
0000
,
0010
0000
0000
0100
0000
0000
0010
0000
0001
0000
0000
0100
0000
0000
0010
0000
,
1000
0000
0000
0001
0000
0000
1000
0000
0100
0000
0000
1000
0000
0000
0001
0000
,
0100
0000
0000
1000
0000
0000
0100
0000
0001
0000
0000
0010
0000
0000
1000
0000
,
0010
0000
0000
0001
0000
0000
1000
0000
0100
0000
0000
0010
0000
0000
0001
0000
,
0100
0000
0000
0010
0000
0000
1000
0000
0001
0000
0000
1000
0000
0000
0100
0000
,
1000
0000
0000
0001
0000
0000
0100
0000
0010
0000
0000
0100
0000
0000
0001
0000
,
0100
0010
0001
0010
1000
0100
0010
0000
,
0100
1000
0001
0100
1000
0100
0001
0000
,
0010
0100
0001
0100
1000
0010
0100
0000
,
0001
0000
0000
0001
0000
0000
1000
0000
0100
0000
0000
0010
0000
0000
0001
0000
,
1000
0010
0100
0010
1000
0001
0010
0100
,
1000
0001
0100
0010
1000
0100
0001
0100
,
1000
0010
0001
0010
1000
0001
0010
0100
,
1000
0000
0000
1100
0000
0000
0001
0000
0101
0000
0000
0010
0000
0000
1000
0000
,
1100
0000
0000
0000
;

//---------------dance-single - ----------------
#NOTES:
     dance-single:
     :
     Medium:
     7:
     0.486,0.549,0.165,0.000,0.043:
0000
0000
0000
0000
,
0000
0000
0000
0000
,
0000
0000
0000
0000
,
0000
0000
0000
0000
,
1000
0000
0000
0001
0000
0000
1000
0000
0000
0000
0000
0000
0000
0000
0000
0000
,
0001
0000
0100
0000
0010
0000
1000
0100
,
1000
0000
0001
0000
0010
0000
0100
1000
,
0001
0000
0100
0000
0010
0000
1000
0010
,
1000
0000
0001
0100
0001
0000
1001
0000
,
1000
0000
0100
0000
0010
0000
0100
1000
,
0001
0000
0100
0000
0010
0000
1000
0001
,
0010
0000
0100
0000
1000
0000
0001
1000
,
0001
0000
0000
1000
0000
0000
0001
0000
1000
0000
0000
0001
0000
0000
1000
0000
,
0010
0000
0100
0000
0001
0000
0100
0010
,
0100
0010
1000
0001
,
0010
0100
1000
0000
0010
0100
0001
0000
,
1000
0000
0100
0000
0010
0001
1000
0000
,
0010
0100
0001
0000
0010
0100
1000
0000
,
0010
1000
0001
0000
0010
0001
1000
0000
,
0010
0100
0001
0100
0010
0000
1000
0000
,
1001
0000
0000
0001
0000
0000
1000
0000
0001
0000
0000
1000
0000
0000
0001
0000
,
1000
0000
0000
0000
0010
0000
0100
0001
,
1000
0000
0000
0000
0100
0000
0010
0001
,
1000
0000
0010
0100
0000
0100
0001
0000
,
1000
0000
0100
0010
0000
0010
0001
1000
,
0001
0000
0100
0010
,
1000
0000
0100
0000
1000
0000
0001
0100
,
0010
0000
0100
0001
1000
0000
0100
0010
,
0100
0000
0010
0000
0001
0000
0000
0000
1000
0000
0000
0001
0000
0000
1000
0000
,
0001
0000
0100
0010
0000
0100
0001
1000
,
0100
0000
1000
0001
0000
0001
1000
0001
,
1000
0000
0010
0100
0000
0100
0010
0000
,
1000
0000
0100
0010
0000
0010
0100
0010
,
0100
0000
0010
0001
0000
0001
1000
0001
,
1000
0000
0100
1000
0000
0010
0100
0001
,
1000
0101
0010
1100
,
0010
0001
1000
0001
1000
0001
1000
0000
,
0010
0100
0001
1000
,
0100
0010
0100
0000
1000
0001
1000
0000
,
0010
0100
0001
1000
,
0001
0100
0010
0000
0010
0100
0001
0000
,
1001
0000
0001
0010
,
0100
1000
0001
0000
,
0100
0000
0010
1000
,
0100
0010
0001
0000
,
1000
0100
1000
0000
0001
0100
0001
0000
,
1000
0010
1000
0000
0001
0010
0001
0000
,
1100
0000
0011
0000
,
0101
0000
1010
0000
,
0001
0100
0000
0010
1000
0001
0000
0010
,
0100
1000
0000
0010
0100
0001
0000
1000
,
0100
1000
0001
1000
0001
1000
0001
1000
,
0010
0000
0000
0100
0000
0000
0010
0000
0100
0000
0000
0010
0000
0000
0100
0000
,
0001
0100
0010
1000
,
0000
0100
0000
0010
,
0001
0000
1000
0000
0001
0000
1000
0010
,
0000
0000
0100
0001
,
1000
0000
0001
0010
,
0100
1000
0010
0100
,
0001
0000
1000
0000
,
0100
0000
0010
0000
,
0001
0100
0010
0100
,
0001
0000
1000
0000
0100
0000
0010
0001
,
0010
0100
1000
0010
,
1000
0001
1000
0100
,
1000
0001
0100
0010
,
1000
0000
0100
0000
0010
0000
0001
1000
,
0001
0100
0010
1000
,
0001
0000
0010
0000
0100
1000
0100
1000
,
0100
0000
0000
1000
,
0001
0000
0000
0100
,
0010
0000
0000
0100
0000
0000
0001
0000
,
1000
0000
0000
0000
,
0010
0000
0000
1000
,
0001
0000
0010
0100
,
1000
1000
1000
1000
,
0001
0000
0000
1000
0000
0000
0001
0000
1000
0000
0000
0000
0010
0000
0000
0000
,
0100
0000
0001
0000
1000
0001
0100
0000
,
0010
0000
1000
0000
0100
0010
0001
0000
,
0100
0000
0010
0000
0100
0001
1000
0000
,
0001
0100
0010
0100
0001
0000
1100
0000
,
0101
0000
0010
0000
1000
0100
0010
0000
,
0001
0000
1100
0000
0010
0100
0001
0000
,
0010
0000
1100
0000
0001
0100
0010
0000
,
0101
1010
1100
0011
,
1001
0100
1001
0010
,
0100
0000
0001
0000
1000
0100
0010
0000
,
0100
1000
0001
0110
,
1000
0110
0001
1000
,
0100
0010
0100
0000
1000
0001
0100
0000
,
0010
1000
0001
0000
0010
0100
1000
0000
,
0010
0100
0001
0000
1000
0100
0010
0000
,
0001
0000
0000
1000
0000
0000
0001
0000
0100
0000
0000
0010
0000
0000
1000
0000
,
0001
0000
0000
0000
;

//---------------dance-single - ----------------
#NOTES:
     dance-single:
     :
     Beginner:
     3:
     0.199,0.293,0.118,0.000,0.000: // measure 1
0000
0000
0000
0000
,  // measure 2
0000
0000
0000
0000
,  // measure 3
0000
0000
0000
0000
,  // measure 4
0000
0000
0000
0000
,  // measure 5
1000
1000
1000
0000
,  // measure 6
0001
0000
0100
0000
,  // measure 7
0010
0000
0100
0000
,  // measure 8
0001
0000
0010
0000
,  // measure 9
0100
0000
1000
0000
,  // measure 10
0010
0000
0100
0000
,  // measure 11
0010
0000
1000
0000
,  // measure 12
0100
0000
0010
0000
,  // measure 13
0001
0001
0001
0000
,  // measure 14
0100
0000
0010
0000
,  // measure 15
0100
0000
0001
0000
,  // measure 16
0010
0000
0100
0000
,  // measure 17
1000
0000
0001
0000
,  // measure 18
0100
0000
0010
0000
,  // measure 19
0100
0000
0001
0000
,  // measure 20
0010
0000
0100
0000
,  // measure 21
1000
1000
1000
0000
,  // measure 22
0001
0000
0000
0000
,  // measure 23
1000
0000
0000
0000
,  // measure 24
0010
0000
0100
0000
,  // measure 25
0001
0000
0010
0000
,  // measure 26
0100
0000
0000
0000
,  // measure 27
1000
0000
0001
0000
,  // measure 28
1000
0000
0000
0000
,  // measure 29
1001
0000
1001
0000
,  // measure 30
0001
0000
0100
0000
,  // measure 31
0010
0000
0000
0000
,  // measure 32
0100
0000
0001
0000
,  // measure 33
1000
0000
0000
0000
,  // measure 34
0100
0000
0010
0000
,  // measure 35
0001
0000
1000
0000
,  // measure 36
1001
0000
0110
0000
,  // measure 37
1001
0000
0000
0000
,  // measure 38
0001
0000
0100
0000
,  // measure 39
0010
0000
0100
0000
,  // measure 40
0001
0000
1000
0000
,  // measure 41
0100
0000
0000
0000
,  // measure 42
0010
0000
0001
0000
,  // measure 43
0100
0000
0010
0000
,  // measure 44
1000
0000
0100
0000
,  // measure 45
0010
0000
0001
0000
,  // measure 46
1000
0000
0000
0000
,  // measure 47
0001
0000
0000
0000
,  // measure 48
1001
0000
0110
0000
,  // measure 49
1001
0000
0110
0000
,  // measure 50
1001
0000
0000
0000
,  // measure 51
1001
0000
0000
0000
,  // measure 52
0001
0000
0100
0000
,  // measure 53
0010
0010
0010
0010
,  // measure 54
0010
0000
0000
0000
,  // measure 55
0100
0000
0000
0000
,  // measure 56
0001
0000
1000
0000
,  // measure 57
0001
0000
0000
0000
,  // measure 58
1000
0000
0000
0000
,  // measure 59
0010
0000
0100
0000
,  // measure 60
0001
0000
0000
0000
,  // measure 61
1000
0000
0000
0000
,  // measure 62
0100
0000
0010
0000
,  // measure 63
0001
0000
1000
0000
,  // measure 64
0010
0000
0100
0000
,  // measure 65
0001
0000
0000
0000
,  // measure 66
0010
0000
0100
0000
,  // measure 67
1000
0000
0010
0000
,  // measure 68
0100
0000
0000
0000
,  // measure 69
0001
0000
0000
0000
,  // measure 70
1000
0000
0000
0000
,  // measure 71
0001
0000
0000
0000
,  // measure 72
1000
0000
0000
0000
,  // measure 73
0001
0000
0000
0000
,  // measure 74
0100
0000
0000
0000
,  // measure 75
0010
0000
0000
0000
,  // measure 76
1000
1000
1000
0000
,  // measure 77
0001
0001
0001
0000
,  // measure 78
1000
0000
0100
0000
,  // measure 79
0010
0000
0100
0000
,  // measure 80
1000
0000
0010
0000
,  // measure 81
0100
0000
0001
0000
,  // measure 82
1000
0000
0001
0000
,  // measure 83
0010
0000
0100
0000
,  // measure 84
1000
0000
0010
0000
,  // measure 85
0100
0100
0100
0000
,  // measure 86
0001
0000
0010
0000
,  // measure 87
0001
0000
0100
0000
,  // measure 88
0010
0000
1000
0000
,  // measure 89
0100
0000
1000
0000
,  // measure 90
1001
0000
0010
0000
,  // measure 91
1001
0000
0100
0000
,  // measure 92
1001
0000
0110
0000
,  // measure 93
0001
0001
0001
0001
,  // measure 94
0001
0000
0000
0000
;
