#TITLE:宇宙でLa Ta Ta;
#SUBTITLE:;
#ARTIST:松浦亜弥 with 稲葉貴子;
#TITLETRANSLIT:Uchuu de La Ta Ta;
#SUBTITLETRANSLIT:;
#ARTISTTRANSLIT:Aya Matsuura with Atsuko Inaba;
#CREDIT:Xythar;
#BANNER:Uchuu de La Ta Ta.png;
#BACKGROUND:Uchuu de La Ta Ta-bg.png;
#LYRICSPATH:Uchuu de La Ta Ta.lrc;
#CDTITLE:CDTitle.png;
#MUSIC:Uchuu de La Ta Ta.ogg;
#OFFSET:-1.071;
#SAMPLESTART:88.140;
#SAMPLELENGTH:15.715;
#SELECTABLE:YES;
#BPMS:0.000=121.964;
#STOPS:;
#BGCHANGES:30.938=Uchuu de La Ta Ta.avi=1.000=1=0=0,
251.333=Uchuu de La Ta Ta-bg.png=1.000=0=0=1,
99999=-nosongbg-=1.000=0=0=0 // don't automatically add -songbackground-
;

//---------------dance-single - ----------------
#NOTES:
     dance-single:
     MANIAC:
     Hard:
     7:
     0.417,0.467,0.094,0.204,0.290: // measure 1
0000
0000
0000
0000
,  // measure 2
0000
0000
0000
0000
,  // measure 3
0000
0000
0000
0000
,  // measure 4
0000
0000
0000
0000
,  // measure 5
0000
0000
0000
0000
,  // measure 6
0000
0000
0000
0000
,  // measure 7
0000
0000
0000
0000
,  // measure 8
0000
1000
0001
1000
0001
1000
0001
1000
,  // measure 9
0020
0000
0000
0000
0100
0000
0000
0130
0000
0000
0001
0000
0010
0000
0100
0000
,  // measure 10
0000
0000
0001
0000
0100
0000
0000
1000
0000
0000
0001
0000
0100
0000
0000
1000
,  // measure 11
0000
0000
0100
0000
0010
0000
0000
1000
0000
0000
0001
0000
0010
0000
0001
0000
,  // measure 12
0000
0100
0010
0100
0010
0100
0010
0100
,  // measure 13
0002
0000
0000
0000
1000
0000
0000
1003
0000
0000
0010
0000
1000
0000
0100
0000
,  // measure 14
0000
0000
0010
0000
0001
0000
0000
0100
0000
0000
1000
0000
0100
0000
0000
0010
,  // measure 15
0000
0000
1000
0000
0001
0000
0000
0010
0000
0000
0001
0000
1000
0000
0010
0000
,  // measure 16
0000
0000
0100
0000
1000
0000
0100
0000
0010
0000
0100
0000
0001
1000
0000
0000
,  // measure 17
0001
0000
0000
0000
0100
0000
0000
0010
0000
1000
0000
0001
0000
0000
0000
0000
,  // measure 18
1000
0000
0000
0000
0100
0000
0000
0010
0000
0001
0000
1000
0000
0000
0000
0000
,  // measure 19
0010
0000
0100
0000
0010
0000
0000
2000
0000
0000
0001
0000
3001
0000
0000
0000
,  // measure 20
0100
0000
0010
0000
0100
0000
0000
0002
0000
0000
1000
0000
1003
0000
0000
0000
,  // measure 21
0001
0000
0000
0000
0200
0000
0000
0010
0000
0010
0000
0310
0000
0000
0000
0000
,  // measure 22
1000
0000
0000
0000
0200
0000
0000
0010
0000
0010
0000
0310
0000
0000
0000
0000
,  // measure 23
0001
0000
1000
0000
0100
0000
0000
0001
0000
0000
0100
0000
1000
0000
0000
0000
,  // measure 24
0001
0000
1000
0000
0010
0000
0000
0001
0000
0000
0010
0000
1000
0000
0001
0000
,  // measure 25
0020
0000
0000
0000
0100
0000
0000
0031
0000
0000
1000
0000
0001
0000
0100
0000
,  // measure 26
0000
0000
1000
0000
0100
0000
0000
0001
0000
0000
1000
0000
0100
0000
0000
1000
,  // measure 27
0000
0000
0010
0000
0100
0000
0000
0010
0000
0000
0100
0000
0001
0000
1000
0000
,  // measure 28
0000
0000
0100
0000
0001
0000
0100
0000
0010
0000
0100
0000
1000
0001
0000
0000
,  // measure 29
0100
0000
0010
0000
0100
0000
0000
0001
0000
0010
0000
0100
0000
0000
0000
0000
,  // measure 30
1000
0000
0001
0000
1000
0000
0000
0010
0000
0100
0000
0001
0000
0000
0000
0000
,  // measure 31
1000
0000
0100
0000
2000
0000
0000
0100
0000
0000
0001
0000
3001
0000
0000
0000
,  // measure 32
0001
0000
0100
0000
0020
0000
0000
0100
0000
0000
1000
0000
1030
0000
0000
0000
,  // measure 33
0001
0000
0010
0000
0002
0000
0000
1000
0000
1000
0000
1003
0000
0000
0000
0000
,  // measure 34
0010
0000
1000
0000
0020
0000
0000
0100
0000
0100
0000
0130
0000
0000
0000
0000
,  // measure 35
0001
0000
0100
0000
0010
0000
0000
2000
0000
0000
0100
0000
3100
0000
0000
0000
,  // measure 36
1000
0000
0010
0000
0100
0000
0000
0002
0000
0000
0010
0000
0013
0000
0000
0000
,  // measure 37
0002
0000
0000
0000
0100
0000
0000
0013
0000
0000
0100
0000
1000
0000
0010
0000
,  // measure 38
0000
0000
0100
0000
1000
0000
0000
0100
0000
0000
0001
0000
0010
0000
0000
0000
,  // measure 39
0200
0000
0000
0000
0001
0000
0000
1300
0000
0000
0001
0000
0100
0000
0010
0000
,  // measure 40
0000
0000
0001
0000
0010
0000
0000
1000
0000
0000
0001
0000
0010
0000
0001
0000
,  // measure 41
2000
0000
0010
0000
3010
0100
0001
0020
,  // measure 42
0000
0100
0000
0130
0000
0001
0100
0000
,  // measure 43
1000
0000
0001
0100
0000
0010
1000
0002
,  // measure 44
0000
0100
0000
1000
0000
0013
0000
0100
,  // measure 45
1000
0001
1000
0010
1000
0001
0010
0000
,  // measure 46
1100
0000
0000
0001
0100
0000
0000
0000
1010
0000
0000
0001
0010
0000
0000
0000
,  // measure 47
0110
0000
0000
1000
0001
0000
1000
0000
0020
0000
0100
0000
0130
0000
0000
0000
,  // measure 48
0011
0000
0000
0100
1000
0000
0000
0000
0101
0000
0000
0010
1000
0000
0000
0001
,  // measure 49
1000
0100
0001
0100
2000
0000
3010
0000
,  // measure 50
0110
0000
0000
0001
1000
0000
0000
0000
0110
0000
0000
1000
0001
0000
0000
0000
,  // measure 51
0100
1000
0100
0010
0200
0001
0301
0000
,  // measure 52
1001
0000
0000
0100
0010
0000
0000
0000
1001
0000
0000
0010
0100
0000
0000
0000
,  // measure 53
0001
0010
1000
0010
0002
0000
0103
0000
,  // measure 54
0020
0001
0100
1030
,  // measure 55
0001
1000
0000
0100
0000
0010
0000
0001
0000
0000
0000
0000
1000
0000
0000
0000
,  // measure 56
0020
0000
0000
0000
0100
0000
0000
0130
0000
0000
1000
0000
0100
0000
0001
0000
,  // measure 57
0000
0000
1000
0000
0100
0000
0000
0011
0000
0000
0100
0000
1000
0000
0000
0010
,  // measure 58
0000
0000
0100
0000
0010
0000
0000
1000
0000
0000
0001
0000
0010
0000
0002
0000
,  // measure 59
0000
0000
1000
0000
1000
0000
1000
0000
1003
0000
0010
0000
0000
0100
0000
0000
,  // measure 60
2001
0000
0000
0000
0010
0000
0000
3100
0000
0000
0001
0000
0100
0000
1000
0000
,  // measure 61
0000
0000
0001
0000
0100
0000
0000
1000
0000
0000
0100
0000
0010
0000
0000
1001
,  // measure 62
0000
0000
0010
0000
0100
0000
0000
1000
0000
0000
0010
0000
1000
0000
0001
0000
,  // measure 63
0000
0000
0100
0000
1000
0000
0100
0000
0010
0000
0100
0000
0001
1000
0000
0000
;

//---------------dance-single - ----------------
#NOTES:
     dance-single:
     TRICK:
     Medium:
     5:
     0.349,0.393,0.149,0.149,0.000:
0000
0000
0000
0000
,
0000
0000
0000
0000
,
0000
0000
0000
0000
,
0000
0000
0000
0000
,
0000
0000
0000
0000
,
0000
0000
0000
0000
,
0000
0000
0000
0000
,
0000
0000
0000
0000
,
0002
0000
0103
0000
0010
1000
0001
1000
,
0000
0100
1000
0000
0001
0100
0010
0000
,
1000
0001
0010
0000
0100
0000
1000
0001
,
0000
1000
0010
0000
0000
0000
0200
0000
,
0301
0000
0010
0000
0100
1000
0001
1000
,
0000
0001
0100
0000
0010
1000
0001
0000
,
0010
0100
0010
0000
0001
0000
0100
0010
,
0000
1000
0100
1000
0001
0000
1001
0000
,
0001
0000
0100
0000
0010
1000
0001
0000
,
0010
0000
0100
0000
1000
0001
0100
0000
,
1000
0100
0001
0000
0010
0000
0100
0000
,
0001
0100
1000
0000
0010
0000
0100
0000
,
0001
1000
0100
0000
0010
0000
0001
0000
,
1000
0010
0100
0000
0001
0000
1000
0000
,
0100
0010
0100
0000
1000
0000
0001
0000
,
0100
0010
0100
0000
0001
0000
1000
0000
,
0002
0000
0100
0000
0103
0000
0010
1000
,
0000
0001
0010
0000
0100
1000
0001
0000
,
1000
0100
1000
0000
0001
0000
0100
0010
,
0000
1000
0100
1000
0001
0000
1001
0000
,
1000
0000
0010
0000
0100
0001
1000
0000
,
0001
0000
0010
0000
0100
1000
0001
0000
,
0100
0010
1000
0000
0001
0000
1000
0000
,
0100
0010
0001
0000
0100
0000
0010
0000
,
1000
0001
0010
0000
0100
0000
1000
0000
,
0001
1000
0010
0000
0100
0000
0001
0000
,
1000
0100
1000
0000
0010
0000
0100
0000
,
1000
0100
0001
0000
0010
0000
0100
0000
,
2000
0000
0010
0000
3100
0000
1000
0001
,
0000
0100
0010
0000
1000
0000
0001
0000
,
0020
0000
0100
0000
0031
0000
0100
0010
,
0000
1000
0100
0000
1000
0000
0001
0100
,
0020
0000
0100
0000
1030
0000
0001
1000
,
0200
0000
0010
0000
1300
0000
0001
0100
,
0010
0000
1000
0100
0000
1000
0001
1000
,
0020
0100
1000
0130
,
0001
1000
0100
0000
0011
0000
1100
0000
,
0101
0010
1100
0010
,
2001
0000
0100
0000
3020
0100
0130
0000
,
0011
0100
1010
0100
,
1002
0000
0010
0000
0203
0010
0310
0000
,
1100
0001
1010
0001
,
0120
0000
1000
0000
0230
0001
0301
0000
,
0011
1000
0101
1000
,
0210
0000
0001
0001
0301
0000
1000
0000
,
0002
0010
1000
0103
,
0010
1000
0001
1000
0100
0000
0010
0000
,
2001
0000
3010
0000
0100
0001
1000
0001
,
0000
1000
0010
0000
0100
0001
0010
0000
,
0100
0000
1001
0000
0100
0010
0100
0001
,
0000
0010
0100
0010
0001
0000
1000
0000
,
0020
0000
0100
0000
1000
0000
0130
0001
,
0010
0000
1000
0010
0001
0000
0100
0000
,
1010
0000
0001
1000
0100
0000
0010
0000
,
0002
0100
1000
0013
;

//---------------dance-single - ----------------
#NOTES:
     dance-single:
     BASIC:
     Easy:
     3:
     0.200,0.246,0.071,0.047,0.000:
0000
0000
0000
0000
,
0000
0000
0000
0000
,
0000
0000
0000
0000
,
0000
0000
0000
0000
,
0000
0000
0000
0000
,
0000
0000
0000
0000
,
0000
0000
0000
0000
,
0000
0000
0000
0000
,
2000
0001
3001
0000
,
0100
0000
0010
0000
,
0100
0001
0001
0000
,
1000
0000
0000
0000
,
0002
1000
1003
0000
,
0010
0000
0100
0000
,
0001
0001
0010
0000
,
0001
1000
0001
0000
,
1000
0010
1000
0000
,
0001
0010
0001
0000
,
1000
0100
1000
0000
,
0001
0100
0001
0000
,
1000
0001
1000
1000
,
0001
1000
0001
0001
,
1000
0000
0010
0000
,
0100
0000
0010
0000
,
2000
0001
3001
0000
,
1000
0000
0010
0000
,
0100
0001
0001
0000
,
0010
0000
0001
0000
,
0100
0010
0100
0000
,
0001
1000
0001
0000
,
1000
0000
0100
0000
,
0010
0000
0001
0000
,
1000
0010
1000
1000
,
0001
0010
0001
0001
,
1000
0000
0010
0000
,
1000
0001
1000
0000
,
0100
0000
0010
0000
,
0001
0000
0100
0000
,
0010
1000
0001
1000
,
0100
0000
1000
0000
,
0010
0100
0100
0000
,
0001
0010
0010
0000
,
0100
1000
0001
1000
,
0001
0000
1000
0000
,
0010
0010
0010
0000
,
1001
0100
1001
0100
,
0001
0001
0001
0000
,
1001
0010
1001
0010
,
1000
1000
1000
0000
,
0110
0001
0110
0001
,
0100
0100
0100
0000
,
0110
1000
0110
1000
,
0001
0001
0001
0000
,
2000
0100
0001
3001
,
0100
0010
0100
0001
,
2000
0001
3001
0100
,
0010
1000
1000
0001
,
0010
0001
1000
1000
,
1000
0000
0010
0000
,
0200
0001
0301
0000
,
1000
0100
1000
0000
,
0001
0100
0001
1000
,
0001
0000
0000
1001
;

//---------------dance-single - ----------------
#NOTES:
     dance-single:
     BEGINNER:
     Beginner:
     1:
     0.072,0.123,0.047,0.071,0.000:
0000
0000
0000
0000
,
0000
0000
0000
0000
,
0000
0000
0000
0000
,
0000
0000
0000
0000
,
0000
0000
0000
0000
,
0000
0000
0000
0000
,
0000
0000
0000
0000
,
0000
0000
0000
0000
,
2000
0000
0000
0000
,
3000
0000
0001
0000
,
0001
0000
0000
0000
,
0000
0000
0000
0000
,
0002
0000
0000
0000
,
0003
0000
0000
0000
,
1000
0000
1000
0000
,
0000
0000
0000
0000
,
0001
0000
0000
0000
,
1000
0000
0000
0000
,
0001
0000
0000
0000
,
1000
0000
0000
0000
,
0010
0000
0000
0000
,
0100
0000
0000
0000
,
0010
0000
0000
0000
,
0100
0000
0000
0000
,
0002
0000
0000
0000
,
0003
0000
1000
0000
,
1000
0000
0000
0000
,
0000
0000
0000
0000
,
1000
0000
0000
0000
,
0001
0000
0000
0000
,
1000
0000
0000
0000
,
0001
0000
0000
0000
,
1000
0000
1000
0000
,
0001
0000
0001
0000
,
1000
0000
0000
0000
,
0010
0000
0000
0000
,
0200
0000
0000
0000
,
0300
0000
0000
0000
,
0020
0000
0000
0000
,
0030
0000
0000
0000
,
0200
0000
0000
0000
,
0300
0000
0000
0000
,
0020
0000
0000
0000
,
0030
0000
0000
0000
,
1000
0000
0000
0000
,
1001
0000
0000
0000
,
0010
0000
0000
0000
,
0110
0000
0000
0000
,
1000
0000
0000
0000
,
1001
0000
0000
0000
,
0100
0000
0000
0000
,
0110
0000
0000
0000
,
0001
0000
0000
0000
,
1001
0000
0000
0000
,
1000
0000
0000
0000
,
0002
0000
0000
0000
,
0003
0000
0000
0000
,
1000
0000
1000
0000
,
0000
0000
0000
0000
,
0020
0000
0000
0000
,
0030
0000
0000
0000
,
0100
0000
0100
0000
,
0000
0000
0000
1001
;
