#TITLE:宇宙で恋は☆るるんルーン;
#SUBTITLE:;
#ARTIST:ルーンエンジェル隊;
#TITLETRANSLIT:Uchuu de Koi wa Rurun Ruun;
#SUBTITLETRANSLIT:;
#ARTISTTRANSLIT:Rune Angel-tai;
#CREDIT:Xythar;
#BANNER:Uchuu de Koi wa Rurun Ruun-bn.avi;
#BACKGROUND:Uchuu de Koi wa Rurun Ruun-bg.png;
#LYRICSPATH:;
#CDTITLE:xythar.png;
#MUSIC:Uchuu de Koi wa Rurun Ruun.mp3;
#OFFSET:-5.952;
#SAMPLESTART:63.298;
#SAMPLELENGTH:10.520;
#SELECTABLE:YES;
#BPMS:0.000=182.000;
#STOPS:;
#BGCHANGES:-1.000=Uchuu de Koi wa Rurun Ruun.avi=1.000=1=0=1,
272.500=Uchuu de Koi wa Rurun Ruun-eg.jpg=1.000=0=0=1,
99999=-nosongbg-=1.000=0=0=0 // don't automatically add -songbackground-
;

//---------------dance-single - ----------------
#NOTES:
     dance-single:
     :
     Easy:
     4:
     0.296,0.316,0.062,0.175,0.000:
0000
0000
0000
0000
,
1000
0000
0001
0000
0100
0000
0000
0010
,
0000
0000
0000
0000
,
1000
0000
0100
0000
0010
0000
0000
0001
,
0000
0000
0000
0000
,
1000
0000
0000
0001
0000
0000
1000
0000
,
0010
0000
0000
0100
0000
0000
0001
0000
,
0010
0000
0000
0100
0000
0000
1001
0000
,
0000
0000
0000
0000
,
1000
0100
1000
0001
,
0100
0000
0000
0010
0000
0000
1000
0000
,
0100
0000
0000
1000
0000
0000
0000
0000
,
0001
0000
0000
0100
0000
0000
0001
0000
,
1000
0100
1000
0001
,
0010
0000
0000
0100
0000
0000
1000
0000
,
0010
0000
0000
0100
0000
0000
0000
0000
,
0001
0000
0000
1000
0000
0000
0100
0000
,
0020
0000
0031
1000
,
0010
0000
0000
0100
,
0001
1000
0100
1000
,
0001
0010
0100
0000
,
2000
0000
3010
0100
,
0001
1000
0100
1000
,
0002
0000
0000
0000
0100
0000
0000
0103
,
0000
0000
0000
0010
0000
0010
0000
0000
,
1000
0100
0010
0001
,
1000
0000
0000
0010
0000
0000
0100
0000
,
0001
0000
0000
1000
0000
0000
0000
0000
,
1000
0000
0000
0001
0000
0000
0000
0000
,
1000
0100
0010
0001
,
0100
0000
0000
0010
0000
0000
1000
0000
,
0001
0000
0000
0010
0000
0000
0000
0000
,
0100
0000
0000
1000
0000
0000
0000
0000
,
2002
3003
0100
0010
,
1000
0000
0000
0001
,
0100
1000
0100
0001
,
1000
0000
0000
0100
0000
0000
0000
0000
,
1000
0000
0000
0010
0000
0000
0100
0000
,
0001
0000
0000
1000
0000
0000
0100
0000
,
0010
0001
0100
0010
,
2000
0000
0000
0000
,
3002
0000
0000
0000
,
0013
0100
1000
0010
,
0110
0000
0000
0000
0001
0000
0000
1000
,
0000
0000
0100
1000
,
0010
0100
0001
0000
,
1000
0010
0100
0010
,
1000
0000
0001
0010
,
0100
0000
1000
0010
,
0100
0001
1000
0000
,
0100
1000
0010
0100
,
0001
0000
0000
0000
1000
0000
0000
0100
,
0000
0000
1000
0010
,
0100
0010
1000
0000
,
0001
1000
0010
1000
,
0100
0000
0010
0001
,
2000
0000
3000
0010
,
0200
0000
0302
0000
,
2003
0000
0000
0000
3001
0000
0000
1001
,
0000
0000
0010
0100
,
2000
0000
3000
0010
,
0200
0000
0302
0000
,
2003
0000
0000
0000
3000
0000
0000
0100
,
0000
0000
0000
0000
,
0010
0000
0001
0000
0100
0000
0000
0010
,
0000
0000
0000
0000
,
1000
0000
0000
0001
0000
0000
1000
0000
,
0000
1001
0000
2002
0000
0000
0000
0000
,
3003
0000
0000
0000
;

//---------------dance-single - ----------------
#NOTES:
     dance-single:
     :
     Hard:
     8:
     0.567,0.521,0.320,0.134,0.000:
0000
0000
0000
0000
,
1000
0100
0010
0100
0010
0001
0100
0010
,
0000
0100
0001
0100
0001
0010
0100
0000
,
1000
0010
0100
0010
0100
0001
0010
0100
,
0000
1000
0010
1000
0010
0100
0001
0000
,
0010
0100
0000
1000
0001
0000
0100
0010
,
0100
0001
0000
1000
0010
0000
0100
0001
,
1000
0100
0000
0100
0010
0000
0010
0002
,
0000
1000
0100
1003
,
0010
0000
0100
0000
0001
0000
1000
0001
,
1000
0000
0001
0010
0000
0010
0100
0000
,
1000
0100
0000
1100
0000
0000
1000
0000
,
0001
0100
0000
0101
0000
0000
0010
0000
,
1000
0000
0100
0000
0010
0000
0001
1000
,
0001
0000
0010
0100
0000
0100
1000
0000
,
0010
1000
0000
1010
0000
0000
0100
0000
,
0001
0010
0000
0011
0000
0000
0100
0000
,
2000
0000
0001
0000
3001
0000
0100
0010
,
0100
0001
0010
0100
,
1100
1000
1001
0001
,
0101
0000
0010
1000
0000
0000
0100
0000
,
0110
0000
0001
0000
0100
0010
0100
0001
,
0000
1000
0001
0000
0100
0000
0010
0000
,
2010
0001
0100
3001
,
0010
0100
1000
0100
0000
0011
0000
0000
,
0100
0000
1000
0100
1000
0000
0001
0100
,
0010
0000
0010
1000
0000
1000
0100
0000
,
1000
0001
0000
1001
0000
0000
1000
0000
,
0010
0100
0000
0110
0000
0000
0100
0000
,
0001
0000
0010
0100
1000
0000
0001
0100
,
0010
0000
0010
1000
0000
1000
0001
0000
,
0100
0001
0000
0101
0000
0000
0010
0000
,
0100
1000
0000
1100
0000
1000
0100
0010
,
0002
0000
1000
0000
0013
0000
0100
1000
,
0001
0000
0101
0000
1010
0000
1000
0100
,
0010
0000
0001
0100
0010
0000
1000
0010
,
0100
0001
0010
0100
0000
1000
0001
0000
,
1001
0000
0001
0100
0000
0000
0110
0000
,
0010
0000
1000
0100
0000
0000
0010
0001
,
0010
0000
0100
0000
1000
0001
0100
0010
,
1000
0000
0100
0000
0110
0000
0001
0100
,
0000
0010
1000
0000
1001
0000
0001
0000
,
0101
0000
0110
0000
1010
0000
0100
0010
,
0000
0001
0100
0000
0010
1000
0000
1010
,
0000
1000
0100
0010
0002
0000
0100
0000
,
0103
0000
0010
1000
0000
0000
0011
0000
,
0110
0000
1100
0000
0001
0100
0010
1000
,
0000
0100
0010
0000
0001
0010
0100
0010
,
0001
0000
0100
0010
0000
1000
0100
1000
,
0001
0000
0010
0100
0000
1000
0010
0100
,
0001
0000
1000
0000
0100
1000
0001
1000
,
0000
0001
0100
0000
0001
1000
0000
1001
,
0000
1100
0010
0001
,
0100
0000
0010
1000
0000
0100
1000
0001
,
0100
0000
0010
0000
1000
0100
0010
0002
,
0000
0000
0103
0010
1000
0100
0010
0100
,
2000
0001
0100
3001
,
0200
0001
0010
0301
,
2000
0000
0010
0000
0100
3100
0000
1100
,
0000
0000
0001
0100
0010
1000
0100
0010
,
0002
1000
0100
1003
,
0200
0010
1000
0310
,
0001
0100
0010
0100
0001
1000
0100
0020
,
0000
0001
0000
0100
0000
0001
0030
0000
,
0100
0010
0100
0001
1000
0100
0010
0200
,
0000
0000
0000
1000
0000
1300
0000
0000
,
0010
0100
0001
0100
0010
1000
0100
0010
,
0000
0001
1000
1001
0000
0000
0000
0000
;

//---------------dance-single - ----------------
#NOTES:
     dance-single:
     :
     Medium:
     6:
     0.427,0.417,0.062,0.124,0.000:
0000
0000
0000
0000
,
1000
0000
0100
0010
0100
0000
0010
0001
,
0000
0100
0010
1000
,
0001
0000
0100
0010
0100
0000
0010
1000
,
0000
0100
0010
0001
,
1000
0000
0001
0100
0000
0000
0010
0000
,
1000
0000
0100
0010
0000
0000
0001
0000
,
1000
0100
0000
0100
1000
0000
1000
0001
,
0000
0100
0010
1000
,
0001
0100
1000
0100
,
0001
0000
0000
1000
0000
0000
0100
0000
,
0010
0001
0000
1000
0000
0000
0010
0000
,
0100
0001
0000
1000
0000
0000
0001
0000
,
1001
1000
0010
0100
,
0001
0000
0000
1000
0000
0000
0100
0000
,
0010
0001
0000
1000
0000
0000
0100
0000
,
0010
0001
0000
1000
0000
0000
0010
0000
,
0201
0000
0310
1000
,
0100
0000
0000
0000
1000
0000
0010
1000
,
0010
0100
0001
0010
,
0100
0000
1000
0001
0000
0000
0001
0000
,
0200
0000
0000
0000
0310
0000
1000
0100
,
0000
1000
0010
0100
,
0002
0000
0000
0000
1000
0000
0000
0013
,
0000
0000
0100
1000
0000
1000
0000
0000
,
0001
0000
0100
0000
0010
0000
1000
0010
,
1000
0000
0001
0010
0000
0000
0100
0000
,
1000
0100
0000
0010
0000
0000
0001
0000
,
1000
0010
0000
0100
0000
0000
0001
0000
,
1000
0000
0100
0000
1000
0000
0001
0100
,
0001
0000
1000
0010
0000
0000
0100
0000
,
0001
0100
0000
1000
0000
0000
0100
0000
,
0001
0010
0000
1000
0000
0000
0010
0000
,
0022
0000
0000
0033
0100
0000
1000
0001
,
0000
0100
0010
1000
,
0100
0010
0001
1000
,
0010
0000
0100
0001
0000
0000
1000
0000
,
0001
0000
0100
0001
0000
0000
0100
0000
,
0010
0000
1000
0010
0000
0000
0100
0001
,
0100
0000
0001
0000
0010
0000
0100
1000
,
0100
0010
0001
0000
,
0100
0010
1000
0000
,
0001
0000
1000
0000
1001
0000
0010
0100
,
0000
0000
0000
0000
1000
0100
0000
0010
,
0000
0001
0100
0010
,
1000
0000
0100
1000
0000
0000
0001
0100
,
0001
0000
1000
0000
0100
0000
0010
0001
,
0000
1000
0010
0100
,
0001
1000
0100
1000
,
0001
0000
0010
0100
0000
0000
1000
0100
,
1000
0000
0001
0000
0100
0000
0010
2000
,
0000
0000
3001
0000
1000
0010
0000
0100
,
0000
0101
0001
0010
,
0100
0000
1000
0001
0000
0000
1000
0010
,
1000
0000
0001
0000
0010
0000
0100
1000
,
0000
0001
0010
0100
,
0020
0001
0031
0100
,
0020
1000
1030
0100
,
0020
0000
0031
0000
1000
0001
0000
1001
,
0000
0000
0000
1000
0001
1000
0001
0000
,
0200
0010
0310
1000
,
0200
0010
0320
0031
,
1000
0001
1000
0000
0010
0000
0100
0001
,
0000
0010
0000
0100
0000
1000
0000
0001
,
0100
0000
0010
0000
1000
0010
1000
0001
,
0000
0000
0000
1000
0000
1000
0000
0000
,
0100
0010
0000
0001
1000
0000
0010
0100
,
0000
0001
0100
0001
0000
0000
0000
0000
;

//---------------dance-single - ----------------
#NOTES:
     dance-single:
     :
     Beginner:
     2:
     0.174,0.209,0.082,0.000,0.000:
0000
0000
0000
0000
,
1000
0000
0000
0000
,
0000
0000
0000
0000
,
0001
0000
0000
0000
,
0000
0000
0000
0000
,
0001
0000
0100
0000
,
0010
0000
1000
0000
,
0100
0000
0100
0000
,
0100
0000
0010
0000
,
0001
0000
1000
0000
,
0010
0000
0100
0000
,
0110
0000
0000
0000
,
1001
0000
0000
0000
,
0001
0000
0010
0000
,
0100
0000
1000
0000
,
1001
0000
0000
0000
,
0110
0000
0000
0000
,
0001
0000
0010
0000
,
0100
0000
0000
0000
,
1000
0000
0010
0000
,
0100
0000
0001
0000
,
1000
0000
0100
0000
,
0010
0000
0001
0000
,
1000
0000
0000
0000
,
0010
0000
0100
0000
,
0001
0000
0010
0000
,
0001
0000
1000
0000
,
1001
0000
0000
0000
,
0110
0000
0000
0000
,
0100
0000
0001
0000
,
0010
0000
0100
0000
,
0110
0000
0000
0000
,
1001
0000
0000
0000
,
0010
0000
0100
0000
,
0001
0000
0000
0000
,
1000
0000
0100
0000
,
0010
0000
0001
0000
,
1000
0000
0010
0000
,
0100
0000
0001
0000
,
1000
0000
0100
0000
,
0010
0000
0000
0000
,
1000
0000
0000
0000
,
0001
0000
0100
0000
,
0010
0000
0000
0000
,
1000
0000
0100
0000
,
0010
0000
0001
0000
,
1000
0000
0010
0000
,
0100
0000
0000
0000
,
0001
0000
1000
0000
,
0100
0000
1000
0000
,
0010
0000
0100
0000
,
0001
0000
0000
0000
,
1000
0000
0100
0000
,
1000
0000
0010
0000
,
0100
0000
0001
0000
,
1000
0000
0100
0000
,
1000
0000
0000
0000
,
0010
0000
0100
0000
,
0001
0000
1000
1000
,
1000
0000
0001
0000
,
0010
0000
0000
0000
,
0100
0000
1000
0000
,
0010
0000
0100
0000
,
0001
0000
0000
0000
,
1000
0000
0100
0000
,
0010
0000
0000
0000
,
0001
0000
1000
0000
,
0001
0001
0001
0000
;

//---------------dance-single - ----------------
#NOTES:
     dance-single:
     :
     Challenge:
     10:
     0.933,0.938,0.598,0.000,0.438: // measure 1
0000
0000
0000
0000
,  // measure 2
1000
0100
0010
0001
0100
0010
1000
1001
,  // measure 3
0000
0010
0100
0010
0001
0100
0010
1000
,  // measure 4
0100
1000
0001
0010
0100
1000
0010
0110
,  // measure 5
0000
0001
0100
0010
1000
0100
0010
0001
,  // measure 6
1000
0100
1000
0010
0100
0001
1000
0100
,  // measure 7
0010
0001
0100
1000
0100
0001
0010
0100
,  // measure 8
1100
1100
0000
0110
0110
0000
0011
0011
,  // measure 9
0000
0001
0100
0010
1000
0100
0010
0001
,  // measure 10
1000
0010
0100
1000
0100
0001
1000
0001
,  // measure 11
0010
1000
0010
0001
0100
0010
1000
0100
,  // measure 12
0010
0000
0011
0000
0000
0000
1000
0001
1000
0000
0001
0000
0100
0000
0010
0000
,  // measure 13
1000
0000
1100
0000
0000
0000
0010
0001
0010
0000
0100
0000
1000
0000
0001
0000
,  // measure 14
0100
0010
0100
0001
0010
0100
0010
0001
,  // measure 15
1000
0010
0100
0001
1000
0100
1000
0001
,  // measure 16
1000
0000
1001
0000
0000
0000
0100
0010
0100
0000
0001
0000
0010
0000
0100
0000
,  // measure 17
1000
0000
0010
0000
0000
0000
0100
0001
0100
0000
0101
0000
0110
0000
1010
0000
,  // measure 18
1000
0010
1000
0010
1000
0000
0001
0000
0100
0001
0100
0001
0100
0000
0001
0000
,  // measure 19
1000
0100
0010
0100
1000
0000
0010
0000
0100
0001
0010
0100
0010
0000
0001
0000
,  // measure 20
1000
0001
0100
0001
1000
0000
0100
0000
0010
0001
1000
0001
0010
0000
0100
0000
,  // measure 21
1000
0010
0100
0010
1000
0000
0100
0000
0010
0001
1000
0010
0100
0000
0001
0000
,  // measure 22
1000
0100
0010
0001
1000
0000
0010
0000
0100
0001
1000
0100
0010
0000
0001
0000
,  // measure 23
1000
0010
0100
0001
1000
0000
0001
0000
0010
0100
1000
0001
0100
0000
0001
0000
,  // measure 24
1000
0010
0100
0001
1000
0100
0010
1001
,  // measure 25
0000
0100
0010
1010
0000
1010
0000
0000
,  // measure 26
0001
0100
0010
1000
0100
0001
0100
1000
,  // measure 27
0010
0100
0001
1000
0100
0010
0001
0100
,  // measure 28
0010
0000
0101
0000
0000
0000
0001
0010
0100
0000
1000
0000
0010
0000
0100
0000
,  // measure 29
0001
0000
1001
0000
0000
0000
1000
0100
0010
0000
1000
0000
0010
0000
0001
0000
,  // measure 30
0100
0010
1000
0010
0100
1000
0100
0001
,  // measure 31
1000
0001
0010
0100
1000
0010
0100
0001
,  // measure 32
0100
0000
0110
0000
0000
0000
0100
0001
1000
0000
0001
0000
0010
0000
0100
0000
,  // measure 33
1000
0000
1010
0000
0000
0000
0100
0001
1000
0000
0100
0000
0010
0000
0001
0000
,  // measure 34
1000
0100
1000
0001
1000
0000
0010
0000
0100
1000
0100
0010
0100
0000
0001
0000
,  // measure 35
0010
0100
0010
0001
1000
0000
0010
0000
0100
1000
0100
0010
1000
0000
0001
0000
,  // measure 36
0010
0100
1000
0010
0100
0000
0001
0000
0100
0010
1000
0100
0010
0000
0001
0000
,  // measure 37
0100
0010
0100
1000
0100
0000
0010
0000
0001
0010
0100
0010
1000
0000
0001
0000
,  // measure 38
1001
0000
1000
0010
0100
0010
1000
0001
0010
0000
0100
0000
1000
0000
0010
0000
,  // measure 39
0101
0000
1000
0010
0100
0001
0010
0100
1000
0000
0001
0000
1000
0000
0100
0000
,  // measure 40
0011
0010
0110
0100
1100
1000
1010
0110
,  // measure 41
0101
1000
0110
0011
0001
1000
0100
1000
,  // measure 42
1100
0110
0011
1001
1000
0010
0100
0001
,  // measure 43
0101
0100
0110
0010
1010
1000
1100
0011
,  // measure 44
0001
0000
0000
0000
1000
0000
0000
1001
,  // measure 45
0001
0010
0100
1000
0010
0100
0001
1000
,  // measure 46
0010
0000
0101
0000
0101
0110
0000
1010
,  // measure 47
0000
0100
1000
0001
0100
0010
0100
0001
,  // measure 48
0010
0000
0100
0000
1000
0100
1000
0000
0001
0100
0010
0100
0001
1000
0100
0000
,  // measure 49
0010
0000
0001
0000
1000
0100
0010
0001
1000
0000
0010
0000
0100
0000
0001
0000
,  // measure 50
0010
0000
0100
0000
1000
0010
0100
0001
0100
0000
0010
0000
1000
0000
0100
0000
,  // measure 51
0010
0000
0001
0000
0100
0010
1000
0100
0010
0000
0001
0000
1000
0000
0010
0000
,  // measure 52
0101
0010
1000
0100
0011
0100
1000
0001
,  // measure 53
0000
0000
1001
0001
0010
0100
1000
0010
,  // measure 54
0100
0000
0010
0000
0100
0001
0100
0000
0001
1000
0001
0000
1000
0000
0011
0000
,  // measure 55
0100
1000
0001
0100
1000
0100
0001
1000
,  // measure 56
0001
0010
0100
0000
1000
0010
0100
0000
0001
0100
0010
0100
0001
1000
0100
0000
,  // measure 57
0010
0000
0001
0000
1001
0000
1000
0000
0100
1000
0100
0000
1000
0000
0010
0000
,  // measure 58
0100
0000
0001
0000
0101
0000
0100
0000
0010
1000
0010
0000
1000
0000
0100
0000
,  // measure 59
0010
0000
0001
0000
1001
0000
1000
0000
0010
0100
0001
0100
0001
0000
0101
0000
,  // measure 60
0000
0000
0000
0001
0010
0100
1000
0010
,  // measure 61
0100
0001
1000
0100
,  // measure 62
0010
0001
1000
0010
,  // measure 63
0100
0001
1000
0100
0010
0001
0100
0110
,  // measure 64
0000
0000
1000
0010
1000
0000
0001
0000
0100
0001
0100
0010
0100
0001
0010
0100
,  // measure 65
0010
0001
1000
0100
0010
0100
1000
1001
,  // measure 66
0000
0000
0010
1000
0010
0000
0100
0000
0001
1000
0100
1000
0001
0010
0100
1000
,  // measure 67
0010
0100
0001
1000
0100
0010
0001
0010
,  // measure 68
0000
0011
0110
1100
0000
0000
0000
0000
;
