#TITLE:USED TO ROCK'N'ROLL;
#SUBTITLE:;
#ARTIST:Brad Holmes;
#TITLETRANSLIT:;
#SUBTITLETRANSLIT:;
#ARTISTTRANSLIT:;
#CREDIT:Xythar;
#BANNER:USED TO ROCK'N'ROLL.png;
#BACKGROUND:USED TO ROCK'N'ROLL-bg.png;
#LYRICSPATH:;
#CDTITLE:gfdm.png;
#MUSIC:USED TO ROCK'N'ROLL.mp3;
#OFFSET:-0.492;
#SAMPLESTART:31.801;
#SAMPLELENGTH:14.002;
#SELECTABLE:YES;
#BPMS:0.000=205.000,383.000=86.690,431.000=205.000,655.000=169.000,656.000=145.000,659.000=131.500,661.000=129.800,672.000=97.060,674.000=201.601;
#STOPS:52.000=1.463
,55.000=1.463
,58.000=1.463
,85.000=1.463
,236.000=1.463
,443.000=1.463
,446.000=0.585
,484.000=1.463
,525.000=1.171
,569.000=1.171
;
#BGCHANGES:;

//---------------dance-single - ----------------
#NOTES:
     dance-single:
     :
     Hard:
     9:
     0.533,0.706,0.381,0.033,0.106: // measure 1
0000
0000
0000
0000
,  // measure 2
0000
0000
0000
0000
,  // measure 3
0000
0000
0000
0000
,  // measure 4
0000
0000
0000
0000
,  // measure 5
0000
0000
0000
0000
,  // measure 6
0000
0000
0000
0000
,  // measure 7
0000
0000
0000
0000
,  // measure 8
0000
0000
0000
0000
,  // measure 9
2000
0010
0010
3010
,  // measure 10
0200
0001
0001
0301
,  // measure 11
2000
0100
0100
3100
,  // measure 12
0010
0001
0000
0100
0000
0010
0000
0100
,  // measure 13
0001
0100
0000
0001
0000
1000
0100
1000
,  // measure 14
0001
0000
0000
0100
1000
0100
1000
0000
,  // measure 15
0000
0010
0001
0010
0001
0000
0000
0010
,  // measure 16
1000
0010
1000
0000
0001
0000
1000
0100
,  // measure 17
0010
0001
1000
0000
0110
0000
0001
0100
,  // measure 18
0010
1000
0001
0000
1000
0000
1000
0000
,  // measure 19
0100
0011
0100
0100
,  // measure 20
1000
0101
0010
1100
,  // measure 21
0010
0000
1001
0000
0100
0010
0000
0010
,  // measure 22
0100
0000
1001
0000
0000
0100
0010
0100
,  // measure 23
0010
0000
1000
0000
0100
0000
0010
0001
,  // measure 24
0000
1100
0000
0011
0000
0100
1000
0001
,  // measure 25
1000
0000
0010
0000
0100
0000
0001
1000
,  // measure 26
0000
0011
0000
1100
0000
0010
0100
0001
,  // measure 27
0100
0000
0010
0000
1000
0000
0100
0010
,  // measure 28
0000
0101
0000
1010
0000
0100
1000
0100
,  // measure 29
1000
0000
0010
0000
0100
0000
0010
1000
,  // measure 30
0000
0101
0000
1010
0000
0100
0010
0100
,  // measure 31
0010
0001
0100
0010
,  // measure 32
1100
0010
0101
0000
,  // measure 33
0000
0000
0000
0000
0000
0000
0000
0001
,  // measure 34
0000
1000
0000
0001
1000
0000
0000
0001
,  // measure 35
0000
0010
0100
0000
0100
0010
0000
0001
,  // measure 36
0000
0100
0010
0000
0010
0100
0000
0010
,  // measure 37
0000
1000
0001
0000
0001
1000
0000
0001
,  // measure 38
0000
1000
0001
0000
0001
1000
0000
0110
,  // measure 39
0000
0001
0010
0000
0100
1000
0000
0110
,  // measure 40
0000
1000
0010
0000
0100
0001
0000
1100
,  // measure 41
0000
0010
0001
0000
1000
0001
0000
0101
,  // measure 42
0000
0010
1000
0000
0001
1000
0000
0000
,  // measure 43
0100
0000
0010
0000
0001
0010
0001
0000
,  // measure 44
1000
0000
0010
0000
0100
0001
0100
0000
,  // measure 45
0010
0000
1000
0000
0001
1000
0001
0000
,  // measure 46
0010
0100
0000
1000
0000
0010
0000
0100
,  // measure 47
0001
0100
0000
0010
0000
1000
0001
1000
,  // measure 48
0001
1000
0100
0010
,  // measure 49
0001
0000
0100
0010
0000
0100
0001
0100
,  // measure 50
0001
1000
0100
0010
,  // measure 51
0001
0000
0100
0000
0000
0010
1000
0010
,  // measure 52
1000
0001
0100
0010
,  // measure 53
1000
0000
0100
0010
0000
0100
1000
0100
,  // measure 54
1000
0010
0100
0001
,  // measure 55
1100
0000
1001
0000
1000
0010
0100
0001
,  // measure 56
2000
0001
0001
3001
,  // measure 57
0120
1000
1000
1030
,  // measure 58
0110
0001
0110
1000
,  // measure 59
0101
0000
0010
1000
0000
1000
0001
0000
,  // measure 60
1100
0000
0000
0100
0001
0100
0001
0000
,  // measure 61
1000
0000
0100
0000
1000
0001
0000
0110
,  // measure 62
0000
0110
0000
1000
0010
1000
0010
0000
,  // measure 63
1000
0000
0100
0000
0010
0100
0000
1001
,  // measure 64
0000
1001
0000
0010
0100
0010
0100
0000
,  // measure 65
0001
0000
1000
0000
0100
1000
0000
0110
,  // measure 66
0000
0110
0000
0100
0001
0100
0001
0000
,  // measure 67
0010
0000
0100
0000
1000
0100
0000
1001
,  // measure 68
0000
1001
0000
0100
0001
0100
0001
0000
,  // measure 69
1000
0100
0010
0101
,  // measure 70
0010
1100
0000
0000
,  // measure 71
0000
0000
0000
0000
0000
0010
0000
0001
,  // measure 72
0000
1000
0001
0000
0000
1000
0000
0100
,  // measure 73
1000
0000
0001
0100
0000
0010
0000
1000
,  // measure 74
0100
0000
1000
0010
0000
0100
0000
1000
,  // measure 75
0100
0000
0010
1000
0000
0100
0000
0001
,  // measure 76
0100
0000
1000
0010
0000
0101
0000
0010
,  // measure 77
1000
0000
1000
0001
0000
1000
0000
0100
,  // measure 78
0010
0000
0010
0001
0000
0101
0000
0010
,  // measure 79
1000
0000
0001
1000
0000
0100
0000
1000
,  // measure 80
0010
0000
0100
0010
0000
0000
1000
0100
,  // measure 81
0010
0000
0001
0100
0010
0000
1000
0001
,  // measure 82
0010
0000
0100
1000
0001
0000
0110
0000
,  // measure 83
0000
0000
0000
0000
,  // measure 84
0000
0000
0000
0001
1000
0001
1000
0000
,  // measure 85
0100
0000
0010
0000
0001
0100
0000
1010
,  // measure 86
0000
1010
0000
0100
1000
0100
1000
0000
,  // measure 87
0001
0000
0010
0000
0100
1000
0000
0101
,  // measure 88
0000
0101
0000
0010
1000
0010
1000
0000
,  // measure 89
0100
0000
0010
0000
0001
0100
0000
0110
,  // measure 90
0000
0110
0000
0100
0001
0100
0001
0000
,  // measure 91
1000
0000
0100
0000
0010
0001
0000
1001
,  // measure 92
0000
1001
0000
0010
0100
0001
0100
0000
,  // measure 93
0010
0000
1000
0100
0010
0000
0101
0000
,  // measure 94
0010
1100
0000
0000
,  // measure 95
0000
0000
0000
0000
0000
0001
0000
0001
,  // measure 96
0000
0001
1000
0000
0000
0000
0000
0000
,  // measure 97
0000
0000
0000
1000
0000
1000
0100
0000
0100
0010
0000
0010
,  // measure 98
0001
0000
0001
0100
0000
0100
0010
0000
0010
1000
0000
1000
,  // measure 99
0001
0000
0001
0100
0000
0100
1000
0000
1000
0100
0000
0100
,  // measure 100
0010
0000
0010
1000
0000
1000
0100
0000
0100
1000
0001
1000
,  // measure 101
0100
0010
0001
1000
0000
1000
0010
0000
0010
0100
0000
0100
,  // measure 102
0010
0000
0010
1000
0000
1000
0100
0000
0100
0010
0000
0010
,  // measure 103
0001
0100
0010
1000
0000
1000
0100
0000
0100
0010
0000
0010
,  // measure 104
1000
0000
1000
0010
0000
0010
0001
0000
0001
0100
0010
1000
,  // measure 105
0100
1000
0001
0100
0000
0100
0010
0000
0010
1000
0000
1000
,  // measure 106
0100
0010
0001
1000
0000
1000
0010
0000
0010
0100
1000
0100
,  // measure 107
0010
0100
0001
1000
0000
1000
0100
0000
0100
0010
0000
0010
,  // measure 108
0001
0000
0001
2000
0000
0000
0000
0000
0000
0000
0000
0000
,  // measure 109
0000
0000
0000
0000
,  // measure 110
0000
3000
0000
0000
,  // measure 111
0000
0000
0001
0010
0100
0000
1100
0000
,  // measure 112
0000
0001
0100
0001
0100
0000
0000
0000
,  // measure 113
1100
0000
0011
0000
0000
0100
1000
0100
,  // measure 114
1000
0000
0010
0000
0100
0001
0100
0000
,  // measure 115
0010
1000
0000
0001
0000
1000
0100
1000
,  // measure 116
0001
0000
0100
0000
0010
1000
0001
0000
,  // measure 117
1100
0000
0011
0000
0100
1000
0001
1000
,  // measure 118
0001
0101
1010
0101
,  // measure 119
0010
1100
0011
1100
,  // measure 120
0010
1001
0100
1001
,  // measure 121
1100
0000
0010
0001
0000
0001
1000
0000
,  // measure 122
0101
0000
0000
1000
0001
1000
0001
0000
,  // measure 123
0100
0000
1010
0000
0100
0010
0000
0011
,  // measure 124
0000
1100
0000
0010
0100
0001
0100
0000
,  // measure 125
0010
0000
1100
0000
0010
0001
0000
0101
,  // measure 126
0000
1010
0000
1000
0100
1000
0100
0000
,  // measure 127
1000
0000
0101
0000
0010
1000
0000
1100
,  // measure 128
0000
0011
0000
0100
1000
0100
1000
0000
,  // measure 129
0001
0000
0100
0000
0001
1000
0000
1010
,  // measure 130
0000
0101
0000
1000
0100
0010
0001
0000
,  // measure 131
1000
0010
0100
0000
0001
0000
1010
0000
,  // measure 132
0100
0000
0011
0000
0000
0100
0000
1000
,  // measure 133
0000
0001
1000
0000
0100
0000
0010
0001
,  // measure 134
0010
0001
0100
0010
0100
0001
0000
1100
,  // measure 135
0000
1010
0000
0100
0001
0100
0010
1000
,  // measure 136
0100
1000
0001
0010
0100
1000
0000
0110
,  // measure 137
0000
0101
0000
0010
1000
0001
1000
0100
,  // measure 138
1000
0010
0100
0010
1000
0100
0000
0011
,  // measure 139
0000
0101
0000
0010
1000
0001
1000
0100
,  // measure 140
0010
0001
0100
0010
1000
0001
0000
0110
,  // measure 141
0000
1001
0000
0001
0010
0100
1000
0001
,  // measure 142
0100
0000
0010
1000
0001
0000
1100
0000
,  // measure 143
0010
0000
0101
0000
0000
1000
0000
0010
,  // measure 144
0000
0001
1000
0010
0100
0010
0000
0010
,  // measure 145
1000
0000
0100
0010
0000
0001
0000
0001
,  // measure 146
0100
0000
0010
1000
0001
1000
0000
0100
,  // measure 147
0000
1000
0010
0100
0001
1000
0000
0100
,  // measure 148
1000
0000
0001
0100
0010
1000
0000
0100
,  // measure 149
0010
0000
0001
0100
0010
1000
0000
0100
,  // measure 150
0010
0000
0001
0100
0010
1000
0000
0001
,  // measure 151
0010
0100
1000
0100
0010
0001
0000
1000
,  // measure 152
0010
0100
0001
1000
0100
0010
0001
0000
,  // measure 153
1000
0010
0100
0010
1000
0100
0010
0000
,  // measure 154
0001
0100
0010
0100
0001
0010
0100
0000
,  // measure 155
0100
0000
1000
0001
1000
0001
0000
1000
,  // measure 156
0100
1000
0010
0100
0010
1000
0000
0000
,  // measure 157
1100
0000
0011
0000
0100
1000
0000
1000
,  // measure 158
0000
0001
0100
0001
0000
1010
0000
0101
,  // measure 159
0000
0010
1000
0000
0100
0010
0000
0110
,  // measure 160
0000
0100
1000
0001
0100
0001
0000
0000
,  // measure 161
0001
0010
0100
1000
0001
0100
0010
1000
,  // measure 162
0001
0010
0100
1000
0010
0100
0001
0100
,  // measure 163
0010
0100
0001
0010
0100
1000
0010
0100
,  // measure 164
0001
1000
0100
1000
0001
0000
1000
0000
,  // measure 165
0010
0000
0000
1000
,  // measure 166
0100
0200
0000
0000
,  // measure 167
0000
0000
0000
0000
,  // measure 168
0000
0000
0000
0000
,  // measure 169
0310
0000
0002
0000
,  // measure 170
0000
0000
0000
0000
,  // measure 171
0000
0000
0000
0000
,  // measure 172
0000
0000
0000
0000
,  // measure 173
0000
0000
1003
0000
;

//---------------dance-single - ----------------
#NOTES:
     dance-single:
     :
     Medium:
     7:
     0.399,0.636,0.270,0.090,0.098: // measure 1
0000
0000
0000
0000
,  // measure 2
0000
0000
0000
0000
,  // measure 3
0000
0000
0000
0000
,  // measure 4
0000
0000
0000
0000
,  // measure 5
0000
0000
0000
0000
,  // measure 6
0000
0000
0000
0000
,  // measure 7
0000
0000
0000
0000
,  // measure 8
0000
0000
0000
0000
,  // measure 9
1000
0001
1000
0001
,  // measure 10
1000
0010
1000
0010
,  // measure 11
0100
0010
0100
0010
,  // measure 12
0100
0000
0000
0101
0000
0000
0000
1000
,  // measure 13
0001
0000
0000
1100
0000
0000
0001
0000
,  // measure 14
1100
0000
0000
0001
0100
0000
0101
0000
,  // measure 15
0000
1000
0100
0000
1100
0000
0000
1000
,  // measure 16
0001
1000
0010
0100
,  // measure 17
0001
1000
0100
1001
,  // measure 18
1001
0010
0100
0100
,  // measure 19
0001
1000
0100
0100
,  // measure 20
1000
0010
0100
0001
,  // measure 21
1000
0000
1100
0000
0000
0101
0000
0000
,  // measure 22
1000
1001
0000
0100
,  // measure 23
0110
0000
0001
0000
0100
0000
0000
0020
,  // measure 24
0000
1000
0000
1030
0000
0000
0001
0000
,  // measure 25
0101
0000
0010
0000
1000
0000
0000
0200
,  // measure 26
0000
0010
0000
0310
0000
0000
0100
0000
,  // measure 27
1000
0000
0001
0000
1000
0000
0000
0020
,  // measure 28
0000
0100
0000
0130
0000
0000
0001
0000
,  // measure 29
0010
0000
0100
0000
1000
0000
0000
0002
,  // measure 30
0000
0100
0000
0103
0000
0000
0010
0000
,  // measure 31
1000
0100
0010
0001
,  // measure 32
1100
0000
0101
0000
,  // measure 33
0000
0000
0000
0000
0000
0000
0000
0010
,  // measure 34
0000
1000
0000
0001
1000
0000
0000
0100
,  // measure 35
0000
0000
1000
0000
0010
0000
0000
0100
,  // measure 36
0000
0000
0001
0000
1000
0000
0000
0100
,  // measure 37
0000
0000
0010
0000
0001
0000
0000
0100
,  // measure 38
0000
0000
0010
0000
1000
0000
0000
0011
,  // measure 39
0000
0000
0100
0000
1000
0000
0000
0101
,  // measure 40
0000
0000
0010
0000
1000
0000
0000
0110
,  // measure 41
0000
0000
0001
0000
0100
0000
0000
1100
,  // measure 42
0000
0010
0100
1000
,  // measure 43
0101
0010
1000
0010
,  // measure 44
1100
0010
0001
0010
,  // measure 45
1001
0010
0100
0010
,  // measure 46
1000
0000
0000
0001
0000
1000
0000
0010
,  // measure 47
0100
0000
0000
0001
0000
0000
0010
0000
,  // measure 48
0100
0100
0100
1000
,  // measure 49
1000
0000
0001
0000
0001
0000
1000
0001
,  // measure 50
1000
0010
0010
0100
,  // measure 51
0001
0000
1000
0000
0000
0000
0100
1000
,  // measure 52
0100
1000
1000
0010
,  // measure 53
0010
0000
0100
0000
0100
0000
0001
0100
,  // measure 54
0001
0010
0010
0100
,  // measure 55
0100
1001
0010
0010
,  // measure 56
1001
0010
0100
0010
,  // measure 57
1100
0010
0001
0100
,  // measure 58
1010
0100
0001
1000
,  // measure 59
0110
0000
0000
1001
0000
0000
0100
0000
,  // measure 60
1100
0000
0001
0101
,  // measure 61
0010
0000
1000
0000
0000
0200
0000
0010
,  // measure 62
0000
0310
0000
0000
0100
0000
1000
0000
,  // measure 63
0001
0000
0100
0000
0000
0020
0000
1000
,  // measure 64
0000
1030
0000
0000
0001
0000
0010
0000
,  // measure 65
0100
0000
1000
0000
0000
0020
0000
0100
,  // measure 66
0000
0130
0000
0000
0001
0000
1000
0000
,  // measure 67
0100
0000
1000
0000
0000
0002
0000
0100
,  // measure 68
0000
0103
0000
0000
0010
0000
1000
0000
,  // measure 69
0001
0100
0010
1100
,  // measure 70
0000
0011
0000
0000
,  // measure 71
0000
0000
0000
0000
0000
1000
0000
1000
,  // measure 72
0000
0001
1000
0000
0000
0010
0000
0000
,  // measure 73
0100
0000
0001
0000
0000
1000
0000
0000
,  // measure 74
0100
0000
1000
0000
0000
0010
0000
0000
,  // measure 75
0100
0000
0001
0000
0000
1000
0000
0000
,  // measure 76
0100
0000
0010
0000
0000
1001
0000
0000
,  // measure 77
0100
0000
0010
0000
0000
0100
0000
0000
,  // measure 78
0001
0000
1000
0000
0000
0110
0000
0000
,  // measure 79
1000
0000
0010
0000
0000
1000
0000
0000
,  // measure 80
0100
0010
0000
0101
,  // measure 81
0010
1000
0010
0101
,  // measure 82
1000
0100
1000
0011
,  // measure 83
0000
0000
0000
0000
,  // measure 84
0000
0000
0100
1100
,  // measure 85
1000
0000
2000
0000
0000
0010
0000
0010
,  // measure 86
0000
3010
0000
0000
0100
0000
0002
0000
,  // measure 87
1000
0000
2003
0000
0000
0100
0000
0100
,  // measure 88
0000
3100
0000
0000
0010
0000
0002
0000
,  // measure 89
0100
0000
2003
0000
0000
0100
0000
0100
,  // measure 90
0000
3100
0000
0000
1000
0000
0001
0000
,  // measure 91
1000
0000
0020
0000
0000
0100
0000
0100
,  // measure 92
0000
0130
0000
0000
0001
0000
0010
0000
,  // measure 93
0100
1000
0001
1100
,  // measure 94
0000
0101
0000
0000
,  // measure 95
0000
0000
0000
0000
0000
1000
0000
0001
,  // measure 96
0000
1000
0001
0000
0000
0000
0000
0000
,  // measure 97
0000
0000
0000
1000
0000
0010
0100
0000
0001
0010
0000
0100
,  // measure 98
1000
0000
0010
0100
0000
0001
1000
0000
0100
1000
0000
0010
,  // measure 99
0100
0000
0001
0010
0000
0100
1000
0000
0010
0100
0000
0001
,  // measure 100
1000
0000
0100
0010
0000
0001
0100
0000
0010
1000
0000
0001
,  // measure 101
1000
0001
0001
1000
0000
1000
0100
0000
0100
0010
0000
0010
,  // measure 102
0001
0000
0001
1000
0000
1000
0010
0000
0010
0100
0000
0100
,  // measure 103
0001
0000
0001
1000
0000
0001
0100
0000
0001
0010
0000
0100
,  // measure 104
0010
0000
0001
0100
0000
0010
1000
0000
0100
0010
0100
0100
,  // measure 105
1000
0100
0100
1000
0000
0001
1000
0000
0010
1000
0000
0100
,  // measure 106
1000
0000
0001
0100
0000
0100
0010
0000
0010
1000
0000
1000
,  // measure 107
0100
1000
0100
1000
0000
1000
0010
0000
0010
0100
0000
0100
,  // measure 108
0001
0000
0001
2000
0000
0000
0000
0000
0000
0000
0000
0000
,  // measure 109
0000
0000
0000
0000
,  // measure 110
0000
3000
0000
0000
,  // measure 111
0000
0000
0001
1001
,  // measure 112
0000
1000
1100
0000
,  // measure 113
1010
0000
1010
0000
0000
0000
0100
0001
,  // measure 114
0100
0010
1000
0100
,  // measure 115
0010
0000
0001
0000
1000
0000
0001
1000
,  // measure 116
0001
1000
0010
0100
,  // measure 117
0001
0002
1000
1000
,  // measure 118
1003
0100
0011
0100
,  // measure 119
1000
0010
0101
0010
,  // measure 120
1000
0100
0011
0100
,  // measure 121
1001
0000
0000
0101
0000
0000
1000
0000
,  // measure 122
1100
0000
1000
1000
,  // measure 123
0010
0000
2000
0000
0000
0001
0000
0100
,  // measure 124
0000
3001
0000
0000
0010
0000
0010
0000
,  // measure 125
0100
0000
2000
0000
0000
0010
0000
0001
,  // measure 126
0000
3010
0000
0000
1000
0000
1000
0000
,  // measure 127
0100
0000
0020
0000
0000
0100
0000
0001
,  // measure 128
0000
0130
0000
0000
0001
0000
0001
0000
,  // measure 129
0100
0000
0020
0000
0000
1000
0000
0100
,  // measure 130
0000
1030
0000
0000
0001
0000
0010
0000
,  // measure 131
0100
1000
0010
0101
,  // measure 132
0000
0000
1100
0000
0000
0001
0000
0001
,  // measure 133
0000
0001
1000
0000
0000
0000
0100
0000
,  // measure 134
0010
0000
0100
0000
0000
1000
0000
0001
,  // measure 135
0000
1001
0000
0000
0010
0000
0100
0000
,  // measure 136
0001
0000
1000
0000
0000
0010
0000
0100
,  // measure 137
0000
0101
0000
0000
0010
0000
1000
0000
,  // measure 138
0001
0000
0010
0000
0000
0100
0000
1000
,  // measure 139
0000
1100
0000
0000
0001
0000
0100
0000
,  // measure 140
0010
0000
1000
0000
0000
0110
0000
0110
,  // measure 141
0000
0110
0000
0000
1000
0000
0010
0000
,  // measure 142
0100
0001
1000
0011
,  // measure 143
0000
0000
1010
0000
0000
0100
0000
0001
,  // measure 144
0000
1000
0001
0000
0000
0010
0000
0000
,  // measure 145
0010
0000
0100
0000
0000
1000
0000
0000
,  // measure 146
1000
0000
0010
0000
0000
0100
0000
0000
,  // measure 147
0100
0000
0001
0000
0000
1000
0000
0000
,  // measure 148
0100
0000
1000
0000
0000
0100
0000
1000
,  // measure 149
0010
0000
0100
0000
0000
0001
0000
0010
,  // measure 150
0100
1000
1001
1001
,  // measure 151
0001
0010
0100
1000
,  // measure 152
0001
0100
0010
1100
,  // measure 153
0010
0001
0010
1100
,  // measure 154
0010
0100
0010
0101
,  // measure 155
0000
0000
1100
0000
0000
0101
0000
1000
,  // measure 156
0100
1000
0100
1000
0100
1000
0000
0000
,  // measure 157
0010
0000
0010
0000
0100
0001
0000
0001
,  // measure 158
0000
1000
0100
0000
1000
0001
0000
0001
,  // measure 159
0000
0001
1000
0000
0010
0100
0000
0100
,  // measure 160
0000
0000
0001
0000
0001
1000
0000
0000
,  // measure 161
0100
0100
0010
0010
,  // measure 162
0001
0001
1000
0001
,  // measure 163
1000
0001
1000
0010
,  // measure 164
0100
0001
1000
0100
,  // measure 165
1000
0000
0000
0001
,  // measure 166
0100
0200
0000
0000
,  // measure 167
0000
0000
0000
0000
,  // measure 168
0000
0000
0000
0000
,  // measure 169
0310
0000
2000
0000
,  // measure 170
0000
0000
0000
0000
,  // measure 171
0000
0000
0000
0000
,  // measure 172
0000
0000
0000
0000
,  // measure 173
0000
0000
3001
0000
;

//---------------dance-single - ----------------
#NOTES:
     dance-single:
     :
     Easy:
     5:
     0.311,0.424,0.143,0.025,0.000: // measure 1
0000
0000
0000
0000
,  // measure 2
0000
0000
0000
0000
,  // measure 3
0000
0000
0000
0000
,  // measure 4
0000
0000
0000
0000
,  // measure 5
0000
0000
0000
0000
,  // measure 6
0000
0000
0000
0000
,  // measure 7
0000
0000
0000
0000
,  // measure 8
0000
0000
0000
0000
,  // measure 9
2000
0000
0000
0000
,  // measure 10
3200
0000
0000
0000
,  // measure 11
0320
0000
0000
0000
,  // measure 12
0031
0000
0001
0000
,  // measure 13
0001
0000
0001
0000
,  // measure 14
1000
0000
0100
0100
,  // measure 15
0000
0010
0010
0000
,  // measure 16
0001
0001
0100
0001
,  // measure 17
0100
0001
0001
0000
,  // measure 18
0000
1000
0100
0100
,  // measure 19
0100
1000
0010
0010
,  // measure 20
0010
1000
0001
0001
,  // measure 21
0001
0000
1000
0000
0000
0001
0000
0000
,  // measure 22
1000
0001
0000
0010
,  // measure 23
0010
0000
0100
0000
0100
0000
0000
1000
,  // measure 24
0000
1000
0000
1000
0000
0000
0001
0000
,  // measure 25
0001
0000
0100
0000
0100
0000
0000
0010
,  // measure 26
0000
0010
0000
0010
0000
0000
1000
0000
,  // measure 27
0100
0000
1000
0000
0100
0000
0000
1000
,  // measure 28
0000
0001
0000
1000
0000
0000
0010
0000
,  // measure 29
0010
0000
0100
0000
0100
0000
0000
0001
,  // measure 30
0000
1000
0000
0001
0000
0000
0000
0000
,  // measure 31
1000
0100
0010
0001
,  // measure 32
1000
0000
1001
0000
,  // measure 33
0000
0000
0000
0000
0000
0000
0000
0001
,  // measure 34
0000
0001
0000
0001
0000
0000
0000
0000
,  // measure 35
1000
0100
1000
0000
,  // measure 36
0001
0100
0001
0000
,  // measure 37
1000
0100
0010
0000
,  // measure 38
0001
0100
0010
0000
,  // measure 39
1000
0001
0010
0000
,  // measure 40
0100
1000
0001
0000
,  // measure 41
0100
0010
1000
0000
,  // measure 42
0001
0010
0100
0000
,  // measure 43
1000
0010
0010
0010
,  // measure 44
0100
0001
0001
0001
,  // measure 45
1000
0100
0100
0100
,  // measure 46
1000
0000
0000
1000
0000
0000
0000
0000
,  // measure 47
0001
0000
0000
0001
0000
0000
0000
0000
,  // measure 48
1001
0000
0001
0010
,  // measure 49
0100
0000
1000
0010
,  // measure 50
0100
0000
0001
1000
,  // measure 51
0100
1000
0000
0001
,  // measure 52
0001
1000
0100
0000
,  // measure 53
1000
0010
0100
0001
,  // measure 54
0001
1000
0100
0000
,  // measure 55
1000
0001
1001
1001
,  // measure 56
1000
0010
0010
0010
,  // measure 57
0100
0001
0001
0001
,  // measure 58
1000
0100
1000
0010
,  // measure 59
0100
0000
0000
0001
0000
0000
1000
0000
,  // measure 60
0001
0000
0000
1000
,  // measure 61
1000
0000
1000
0000
0000
0001
0000
0001
,  // measure 62
0000
0001
0000
0000
0100
0000
0010
0000
,  // measure 63
0100
0000
0001
0000
0000
1000
0000
1000
,  // measure 64
0000
1000
0000
0000
0100
0000
0010
0000
,  // measure 65
0001
0000
0100
0000
0000
0010
0000
0010
,  // measure 66
0000
0010
0000
0000
0100
0000
0001
0000
,  // measure 67
1000
0000
0001
0000
0000
0100
0000
0100
,  // measure 68
0000
0100
0000
0000
0010
0000
1000
0000
,  // measure 69
0001
1000
0100
0010
,  // measure 70
0000
1001
0000
0000
,  // measure 71
0000
0000
0000
0000
0000
0010
0000
0010
,  // measure 72
0000
0010
0000
0000
0000
0000
1000
0000
,  // measure 73
0100
1000
0000
0001
,  // measure 74
0100
0001
0000
1000
,  // measure 75
0001
0100
0000
0010
,  // measure 76
1000
0001
0000
0010
,  // measure 77
0100
1000
0000
0010
,  // measure 78
0100
0001
0000
1000
,  // measure 79
0001
0100
0000
0001
,  // measure 80
1000
0010
0000
1000
,  // measure 81
0100
0010
0001
0100
,  // measure 82
0000
0010
1000
0001
,  // measure 83
0000
0000
0000
0000
,  // measure 84
0000
0000
0000
1000
,  // measure 85
0001
0000
1000
0000
0000
0010
0000
0010
,  // measure 86
0000
0010
0000
0000
0100
0000
0001
0000
,  // measure 87
0100
0000
0001
0000
0000
1000
0000
1000
,  // measure 88
0000
1000
0000
0000
0001
0000
0010
0000
,  // measure 89
0100
0000
1000
0000
0000
0001
0000
0001
,  // measure 90
0000
0001
0000
0000
0100
0000
0010
0000
,  // measure 91
0100
0000
0010
0000
0000
1000
0000
1000
,  // measure 92
0000
1000
0000
0000
0100
0000
0010
0000
,  // measure 93
0001
0100
0010
0110
,  // measure 94
0000
1001
0000
0000
,  // measure 95
0000
0000
0000
0000
0000
1000
0000
1000
,  // measure 96
0000
1001
0000
0000
0000
0000
0000
0000
,  // measure 97
0000
1000
0100
0010
,  // measure 98
0001
1000
0010
0100
,  // measure 99
0001
1000
0001
0010
,  // measure 100
0100
1000
0010
0100
,  // measure 101
0001
1000
1000
0001
,  // measure 102
0001
0010
0010
0100
,  // measure 103
0100
1000
0010
0100
,  // measure 104
0010
1000
0100
0010
,  // measure 105
0001
1000
0000
0000
,  // measure 106
1000
0001
0000
1000
,  // measure 107
0010
0100
0001
1000
,  // measure 108
0100
2000
0000
0000
,  // measure 109
0000
0000
0000
0000
,  // measure 110
0000
3000
0000
0000
,  // measure 111
0000
0000
0001
0001
,  // measure 112
0000
1000
1000
0000
,  // measure 113
0001
1001
0000
0110
,  // measure 114
0110
0001
0010
0100
,  // measure 115
1000
0001
0100
0010
,  // measure 116
0010
1000
0100
0010
,  // measure 117
0001
1000
1001
1001
,  // measure 118
1001
0001
0100
0001
,  // measure 119
1000
1000
0100
1000
,  // measure 120
0010
0100
0001
0100
,  // measure 121
0010
0000
0000
1000
0000
0000
0001
0000
,  // measure 122
1001
0000
0010
0010
,  // measure 123
0100
0000
0001
0000
0000
1000
0000
1000
,  // measure 124
0000
1100
0000
0000
0001
0000
0001
0000
,  // measure 125
0010
0000
0100
0000
0000
1000
0000
1000
,  // measure 126
0000
1010
0000
0000
0100
0000
0100
0000
,  // measure 127
0001
0000
0100
0000
0000
0001
0000
0001
,  // measure 128
0000
1001
0000
0000
1000
0000
1000
0000
,  // measure 129
0100
0000
0010
0000
0000
0100
0000
0100
,  // measure 130
0000
0110
0000
0000
0001
0000
0100
0000
,  // measure 131
0010
1000
0001
1000
,  // measure 132
0000
0000
1001
0000
0000
0001
0000
0001
,  // measure 133
0000
1001
0000
0000
0000
0000
0001
0000
,  // measure 134
0010
0000
0100
0000
0000
0110
0000
0110
,  // measure 135
0000
0110
0000
0000
1000
0000
0001
0000
,  // measure 136
1000
0000
0001
0000
0000
1001
0000
1001
,  // measure 137
0000
1001
0000
0000
1000
0000
0010
0000
,  // measure 138
0100
0000
0001
0000
0000
0101
0000
0101
,  // measure 139
0000
0101
0000
0000
0001
0000
0010
0000
,  // measure 140
0100
0000
1000
0000
0000
1100
0000
1100
,  // measure 141
0000
1100
0000
0000
1000
0000
0001
0000
,  // measure 142
1000
0010
0100
0001
,  // measure 143
0000
0000
1001
0000
0000
0100
0000
0100
,  // measure 144
0000
0110
0000
0000
0000
0000
0100
0000
,  // measure 145
0001
1000
0000
0100
,  // measure 146
1000
0001
0000
0100
,  // measure 147
0010
0100
0000
0001
,  // measure 148
0010
0100
0000
1000
,  // measure 149
0010
0100
0000
0010
,  // measure 150
1000
0001
0000
0010
,  // measure 151
0100
0010
0000
0001
,  // measure 152
0100
0001
0000
1000
,  // measure 153
0010
0100
0010
1000
,  // measure 154
0000
0001
0010
0100
,  // measure 155
0000
1000
0001
1000
,  // measure 156
0001
1000
0001
1000
,  // measure 157
0000
0010
0010
0100
,  // measure 158
0001
1000
0000
0100
,  // measure 159
0100
0010
0001
0100
,  // measure 160
0000
0010
1000
0001
,  // measure 161
1000
0100
1000
0001
,  // measure 162
0100
0010
1000
0001
,  // measure 163
0010
0100
1000
0001
,  // measure 164
0100
0010
0100
0001
,  // measure 165
0001
0000
0000
1000
,  // measure 166
1000
2000
0000
0000
,  // measure 167
0000
0000
0000
0000
,  // measure 168
0000
0000
0000
0000
,  // measure 169
3001
0000
0200
0000
,  // measure 170
0000
0000
0000
0000
,  // measure 171
0000
0000
0000
0000
,  // measure 172
0000
0000
0000
0000
,  // measure 173
0000
0000
0310
0000
;
