#TITLE:Together Again;
#SUBTITLE:;
#ARTIST:Sash!;
#TITLETRANSLIT:;
#SUBTITLETRANSLIT:;
#ARTISTTRANSLIT:;
#CREDIT:Xythar;
#BANNER:Together Again.png;
#BACKGROUND:Together Again-bg.png;
#LYRICSPATH:;
#CDTITLE:cdtitle.png;
#MUSIC:Together Again.mp3;
#OFFSET:-0.393;
#SAMPLESTART:33.853;
#SAMPLELENGTH:14.000;
#SELECTABLE:YES;
#BPMS:0.000=138.000;
#STOPS:;
#BGCHANGES:;

//---------------dance-single - ----------------
#NOTES:
     dance-single:
     :
     Easy:
     3:
     0.231,0.306,0.087,0.026,0.000:
0000
0000
0000
0000
,
0000
0000
0000
0000
,
0000
0000
0000
0000
,
0000
0000
0000
0000
,
1000
0000
0000
0000
,
0001
0000
0010
0000
,
0100
0000
0000
0000
,
1000
0000
0010
0000
,
1000
0000
0000
0000
,
0001
0000
0000
0000
,
1000
0000
0001
0000
,
1000
0001
1000
0001
,
1000
0000
0001
0000
,
1000
0001
0010
0100
,
1000
0000
0010
0000
,
0100
0001
1000
0100
,
1000
0000
1001
0100
,
1001
0000
0010
0100
,
0002
1000
1003
0001
,
0100
0000
0010
1000
,
0100
0000
0010
0000
,
0001
0000
1000
0010
,
0100
0000
0001
0000
,
1000
0100
1000
0010
,
0100
0000
0110
0001
,
0110
0000
0001
0100
,
0010
0000
0100
0001
,
0010
0000
0100
0000
,
1000
0010
0100
0010
,
0100
0001
0010
0100
,
0010
0001
1000
0010
,
0100
0001
1001
1001
,
0001
0000
0100
0000
,
0010
1000
0100
0000
,
0010
0000
0001
0000
,
0100
0010
0100
0001
,
1000
0000
0100
0000
,
0010
0001
1000
0000
,
0001
0100
0010
0100
,
0001
0000
1000
0000
,
0100
0010
0001
0100
,
0010
0100
0001
0010
,
0100
1000
0010
0100
,
0010
1000
0100
0010
,
0001
0100
0010
0100
,
0001
0000
1000
0000
,
0001
0010
0100
1000
,
0010
0000
0100
0001
,
1000
0000
0100
0000
,
0010
0001
1000
0100
,
1000
0000
0010
0000
,
0100
0001
0010
0100
,
1000
0000
1001
0010
,
1001
0000
0100
0010
,
0200
0010
0310
0100
,
0001
1000
0100
0010
,
0001
0000
0000
0000
,
0000
0000
1000
0000
,
0010
0000
0000
0000
,
0000
0100
0001
1000
,
0100
0000
0110
1000
,
0110
0000
0001
0100
,
0020
0100
0130
0001
,
1000
0000
0000
0100
,
0010
0000
0000
0000
;

//---------------dance-single - ----------------
#NOTES:
     dance-single:
     :
     Hard:
     7:
     0.412,0.444,0.052,0.043,0.122: // measure 1
0000
0000
0000
0000
,  // measure 2
0000
0000
0000
0000
,  // measure 3
0000
0000
0000
0000
,  // measure 4
0000
0000
0000
0000
,  // measure 5
1000
0000
0010
0000
0000
0100
0000
0000
,  // measure 6
0001
0000
0000
0010
0000
0000
0000
0000
,  // measure 7
0000
0000
0100
0000
0000
1000
0000
0000
,  // measure 8
0010
0000
0000
1000
0000
0000
0001
0000
,  // measure 9
1000
0000
0100
0000
0010
0000
0000
0001
0000
0000
0010
0000
0100
0000
0000
1000
,  // measure 10
0000
0000
0010
0000
0100
0000
0000
0001
0000
0000
0100
0000
0010
0000
0000
1000
,  // measure 11
0000
0000
0100
0000
0010
0000
0000
1000
0000
0000
0100
0000
0010
0000
0000
1000
,  // measure 12
0000
0100
0010
0001
0100
0010
0100
0001
,  // measure 13
1000
0010
0100
0000
0100
0010
1000
0100
,  // measure 14
0010
0100
1000
0000
1000
0010
0100
0001
,  // measure 15
0010
0100
1000
0000
1000
0001
0100
0001
,  // measure 16
1000
0000
1000
0100
0001
0000
0001
0100
,  // measure 17
1000
0000
0001
0100
0010
0100
0001
0000
,  // measure 18
0101
0000
0001
0010
0100
0000
1000
0000
,  // measure 19
0020
0000
0100
0000
0130
0000
0010
0100
,  // measure 20
0001
0000
1000
0010
0100
0010
1000
0100
,  // measure 21
0010
0000
0001
0000
0000
0100
0000
0000
,  // measure 22
0010
0000
0100
0001
1000
0100
1000
0001
,  // measure 23
0010
0000
0100
0000
0000
1000
0000
0000
,  // measure 24
0010
0000
0100
0001
1000
0000
0100
0000
,  // measure 25
0011
0000
0100
1000
0001
0100
0001
0000
,  // measure 26
1010
0000
0001
0010
0100
1000
0010
0000
,  // measure 27
0200
0000
0010
0000
0310
0000
0100
0001
,  // measure 28
1000
0000
0000
0100
0000
0000
0010
0000
,  // measure 29
0100
0000
1000
0000
0001
0000
0000
0100
0000
0000
0010
0000
1000
0000
0000
0100
,  // measure 30
0010
0000
0001
0000
0100
0000
0000
0010
0000
0000
0100
0000
0001
0000
0000
0010
,  // measure 31
0100
0000
1000
0000
0010
0000
0000
0100
0000
0000
1000
0000
0100
0000
0000
0001
,  // measure 32
1000
0000
0001
0000
0010
0000
0100
0010
0100
0000
0000
0100
0000
0000
0100
0000
,  // measure 33
1000
0010
0100
0000
0100
0001
0010
0100
,  // measure 34
0000
0100
0010
0001
0000
0100
0010
0100
,  // measure 35
0001
0000
1000
0010
0100
0000
1000
0100
,  // measure 36
0001
0010
0100
1000
0000
1000
0001
0100
,  // measure 37
0010
0000
0010
0100
0001
0000
0010
0100
,  // measure 38
0000
0100
1000
0001
0000
0001
1000
0010
,  // measure 39
0100
1000
0100
0001
1000
0100
0010
0001
,  // measure 40
1000
0000
0000
0000
0100
0000
1000
0001
1000
0000
0000
0001
0000
0000
0001
0000
,  // measure 41
0100
0000
0000
0010
0000
0000
1000
0000
0100
0000
0000
0010
0000
0000
0001
0000
,  // measure 42
1000
0000
0000
0010
0000
0000
0100
0000
0010
0000
0000
1000
0000
0000
0100
0000
,  // measure 43
0010
0000
0000
0100
0000
0000
1000
0000
0001
0000
0000
0100
0000
0000
0010
0000
,  // measure 44
1000
0000
0000
0001
0000
0000
0010
0000
0100
0000
0000
1000
0000
0000
0010
0000
,  // measure 45
0001
0000
0000
0010
0000
0000
0100
0000
0001
0000
0000
1000
0000
0000
0100
0000
,  // measure 46
0010
0000
0000
0001
0000
0000
0100
0000
0010
0000
0000
0100
0000
0000
0001
0000
,  // measure 47
2000
0000
0100
0000
3001
0000
0100
0010
,  // measure 48
1000
0000
0000
0000
,  // measure 49
0001
0000
0010
0000
0000
0100
0000
0000
,  // measure 50
1000
0000
0000
0010
0100
0001
1000
0100
,  // measure 51
1000
0000
0001
0000
0000
0100
0000
0000
,  // measure 52
0010
0000
0100
0001
1000
0000
0100
1000
,  // measure 53
0001
0010
0101
1010
,  // measure 54
1001
0000
0010
0100
1000
0000
0010
0000
,  // measure 55
0200
0000
1000
0000
0301
0010
0100
0010
,  // measure 56
0001
0000
0100
0010
1000
0100
1000
0001
,  // measure 57
0100
0000
0010
0000
0000
1000
0000
0000
,  // measure 58
0100
0000
0000
0010
0001
0000
0100
0010
,  // measure 59
0100
0000
0001
0000
0000
1000
0000
0000
,  // measure 60
0100
0000
1000
0001
0100
0000
0010
1000
,  // measure 61
0001
0000
0010
0100
,  // measure 62
1000
0000
0000
0010
0100
0000
0001
0000
,  // measure 63
2000
0000
0100
0000
3001
0000
0010
0100
,  // measure 64
1000
0000
0000
0010
0000
0000
0100
0000
,  // measure 65
0001
0000
0000
0000
;

//---------------dance-single - ----------------
#NOTES:
     dance-single:
     :
     Medium:
     6:
     0.332,0.444,0.095,0.035,0.000:
0000
0000
0000
0000
,
0000
0000
0000
0000
,
0000
0000
0000
0000
,
0000
0000
0000
0000
,
0001
0000
0010
0000
0000
0100
0000
0000
,
1000
0000
0000
0001
0000
0000
0000
0000
,
0000
0000
0100
0000
0000
0010
0000
0000
,
0100
0000
0000
0001
0000
0000
1000
0000
,
0100
0000
0000
0000
,
0100
0000
0000
0000
,
0100
0000
0100
0000
,
0100
0000
0010
0000
0001
0000
0100
0010
,
1000
0000
0001
0000
0010
0000
0100
1000
,
0001
0000
0100
0000
0010
0000
0100
0001
,
1000
0000
0100
0000
0010
0000
0001
1000
,
0010
0000
0100
0000
0101
0000
0010
1000
,
0100
0000
0010
0000
0001
1000
0100
1000
,
0001
0100
0010
0200
,
0001
0000
0301
0000
1000
0100
1000
0000
,
0101
0000
0010
0000
1000
0000
0100
0010
,
0001
0000
1000
0000
0000
0010
0000
0000
,
0100
0000
0000
0001
0000
0000
1000
0000
,
0000
0000
0100
0000
0000
0010
0000
0000
,
0001
0000
0000
1000
0000
0000
0010
0100
,
0001
0000
1000
0000
1000
0000
0001
0100
,
0010
0000
0100
0000
0100
0000
0001
0010
,
0100
0000
0010
0000
0010
0001
1000
0001
,
0100
0000
0000
0010
0000
0000
1000
0000
,
0100
0010
0001
0000
0100
0000
0010
0000
,
0100
0001
1000
0000
0100
0000
0010
0000
,
0001
0100
0010
0000
0100
0000
0001
0000
,
1000
0100
1000
0000
0001
0100
0010
0100
,
0001
0000
1000
0000
0100
0000
0010
0001
,
0000
0100
0000
0010
0000
0100
0001
0000
,
1001
0000
0001
0010
0100
0000
1000
0010
,
0000
0100
0000
0010
0000
1000
0001
0000
,
1001
0000
1000
0100
0010
0000
0100
0010
,
0000
0001
0100
0010
0000
0100
0001
0000
,
1100
0000
0001
0100
0010
0000
0101
0000
,
1001
0000
0001
0010
0100
1000
0001
0000
,
1010
0000
0100
0001
1000
0000
0100
0000
,
0010
0000
0001
0100
0010
0000
1000
0000
,
0001
0000
0010
0100
1000
0000
0010
0000
,
1000
0000
0001
0010
0100
0000
1000
0000
,
0001
0000
0100
0010
1000
0000
0010
0100
,
0000
0001
1000
0100
0000
1000
0001
0000
,
2000
0000
0010
0000
3010
0000
0100
0001
,
1000
0000
0100
0000
0010
0001
1000
0001
,
0100
0000
0010
0000
0000
1000
0000
0000
,
0001
0000
0000
1000
0100
1000
0001
0000
,
0100
0000
0010
0000
0000
1000
0000
0000
,
0100
0000
1000
0010
0100
0000
0100
0010
,
1000
0001
0010
0100
,
1001
0000
0010
0100
0001
0000
2000
0000
,
0100
0000
3100
0000
1000
0001
0100
0001
,
1000
0000
0100
0010
0001
0000
0100
0000
,
0010
0000
0000
0000
,
0000
0000
0000
0000
1000
0000
0000
0001
,
0000
0000
0000
0000
,
0000
0010
0100
1000
,
1001
0000
0010
0100
,
0101
0000
0010
1000
,
0200
0000
0010
0000
0310
0000
0001
1000
,
0100
0000
0000
1000
0000
0000
0010
0000
,
0100
0000
0000
0000
;

//---------------dance-single - ----------------
#NOTES:
     dance-single:
     :
     Beginner:
     1:
     0.136,0.194,0.000,0.035,0.000:
0000
0000
0000
0000
,
0000
0000
0000
0000
,
0000
0000
0000
0000
,
0000
0000
0000
0000
,
1000
0000
0000
0000
,
0001
0000
0100
0000
,
0010
0000
0000
0000
,
0100
0000
0001
0000
,
1000
0000
0000
0000
,
1000
0000
0000
0000
,
0001
0000
0001
0000
,
0001
0001
0001
0001
,
0001
0000
1000
0000
,
0010
0000
0100
0000
,
0001
0000
0010
0000
,
0100
0000
1000
0000
,
0010
0000
0100
0100
,
0100
0000
0001
0000
,
2000
0000
0000
0000
,
3001
0000
1000
0000
,
0010
0000
0000
0000
,
0000
0000
0100
0000
,
0001
0000
0000
0000
,
0000
0000
0010
0000
,
0100
0000
1000
1000
,
1000
0000
0010
0000
,
0200
0000
0000
0000
,
0310
0000
0100
0000
,
0001
0000
0000
0000
,
1000
0000
0000
0000
,
0100
0000
0000
0000
,
0010
0000
0001
0000
,
1000
0000
0001
0000
,
0100
0000
0010
0000
,
0100
0000
0001
0000
,
0010
0000
0100
0000
,
1000
0000
0010
0000
,
0100
0000
0010
0000
,
1000
0000
0100
0000
,
0010
0000
0001
0001
,
0001
0000
0000
0000
,
1000
0000
0000
0000
,
0010
0000
0100
0000
,
0001
0000
0000
0000
,
1000
0000
0100
0000
,
0010
0000
0000
0000
,
0001
0000
1000
0000
,
0001
0000
0000
0000
,
1000
0000
0010
0000
,
0100
0000
0001
0000
,
0010
0000
0100
0000
,
1000
0000
0001
0001
,
0001
0000
1000
1000
,
1000
0000
0010
0000
,
0200
0000
0000
0000
,
0310
0000
0100
0000
,
0001
0000
0000
0000
,
0000
0000
1000
0000
,
0100
0000
0000
0000
,
0000
0000
0010
0010
,
0010
0000
0100
0100
,
0100
0000
1000
0000
,
0002
0000
0000
0000
,
1003
0000
0010
0000
,
0100
0000
0000
0000
;
