#TITLE:Thrill;
#SUBTITLE:;
#ARTIST:Tomoyasu Hotei;
#TITLETRANSLIT:;
#SUBTITLETRANSLIT:;
#ARTISTTRANSLIT:;
#CREDIT:Xythar;
#BANNER:ThrillBN.png;
#BACKGROUND:ThrillBG.png;
#LYRICSPATH:;
#CDTITLE:blank.png;
#MUSIC:Thrill.mp3;
#OFFSET:-0.280;
#SAMPLESTART:16.704;
#SAMPLELENGTH:12.000;
#SELECTABLE:YES;
#BPMS:0.000=174.900;
#STOPS:;
#BGCHANGES:;

//---------------dance-single - ----------------
#NOTES:
     dance-single:
     :
     Hard:
     8:
     0.583,0.567,0.349,0.326,0.000: // measure 1
0000
0000
0000
0000
,  // measure 2
0000
0000
0000
0000
,  // measure 3
0000
0000
0000
0000
,  // measure 4
0000
0000
0000
0000
,  // measure 5
1000
0010
0100
0000
0010
0100
0000
0001
,  // measure 6
0100
0001
1000
0001
0000
1000
1000
1000
,  // measure 7
0100
0010
0001
0000
0010
0100
0000
0010
,  // measure 8
0001
0100
0010
0100
0000
0001
0001
0001
,  // measure 9
0100
0010
1000
0000
0100
1000
0000
0010
,  // measure 10
0100
0001
1000
0100
0000
0010
0100
0010
,  // measure 11
0100
0000
0010
0001
1000
0000
0010
0000
,  // measure 12
0101
1010
1100
0011
,  // measure 13
1000
0100
1000
0001
0200
0000
0310
2000
,  // measure 14
0000
3001
0020
0000
0130
2000
0000
3010
,  // measure 15
0100
0000
1001
0000
0100
0000
0010
0001
,  // measure 16
1000
0000
0001
0100
0000
0010
1000
0010
,  // measure 17
0000
0100
0001
0000
1100
0000
0010
0001
,  // measure 18
1000
0000
0010
0100
0000
0001
0000
1100
,  // measure 19
0000
0010
0001
0000
0100
0000
0001
0000
,  // measure 20
1000
0010
0000
0101
0000
1100
0000
0000
,  // measure 21
0001
0010
0100
1000
0002
0000
0103
0020
,  // measure 22
0000
1030
0200
0000
0310
0002
0000
1003
,  // measure 23
0010
0000
0101
0000
1000
0000
0100
0010
,  // measure 24
0001
0000
1000
0010
0000
0100
0001
1000
,  // measure 25
0000
0100
1000
0000
0101
0000
0010
1000
,  // measure 26
0001
0000
0010
0100
0000
1000
0010
0100
,  // measure 27
0000
0001
0100
0000
0001
0000
1100
0000
,  // measure 28
0010
0001
0000
1100
0000
0110
0000
0000
,  // measure 29
0001
0000
0000
0202
0000
0000
0303
0000
,  // measure 30
1000
0010
0100
0001
0010
0100
1000
0001
,  // measure 31
1000
0000
0000
2200
0000
0300
3001
0000
,  // measure 32
0001
0100
0010
1000
0100
0010
0001
1000
,  // measure 33
0001
0000
0000
2002
0000
0000
3003
0000
,  // measure 34
0100
0010
0100
0001
0010
0100
1000
0010
,  // measure 35
0100
0000
0000
0220
0000
0030
1300
0000
,  // measure 36
0001
0001
0010
0010
0100
0100
1000
1000
,  // measure 37
0001
0000
0100
0010
0100
0000
0001
1000
,  // measure 38
0100
0000
0000
0011
0000
0000
0100
0000
,  // measure 39
1000
0000
0010
0100
0001
0000
0100
0010
,  // measure 40
1000
0000
0000
0011
0000
0000
0100
0000
,  // measure 41
1000
0000
0001
0010
0100
0000
0010
0010
,  // measure 42
0001
0000
0100
0010
0000
1000
0000
0001
,  // measure 43
2000
0010
3100
0011
,  // measure 44
0100
0000
1000
0010
0000
0100
0001
0000
,  // measure 45
1001
0000
0101
0000
1010
0000
0001
0100
,  // measure 46
0010
0000
1000
0001
0000
1000
0100
0000
,  // measure 47
0011
0000
0110
0000
1100
0000
1000
0001
,  // measure 48
1000
0000
0010
0010
0000
0100
0001
0000
,  // measure 49
0101
0000
1001
0000
1100
0000
0010
0001
,  // measure 50
1000
0000
0100
0010
0000
0100
1000
0001
,  // measure 51
1000
0010
0101
0010
,  // measure 52
1100
0000
0010
0001
0000
0001
1000
0001
,  // measure 53
0100
0010
1000
0100
,  // measure 54
0011
0000
0100
1000
0000
0001
1000
0001
,  // measure 55
1000
0100
0011
0100
,  // measure 56
1010
0000
0100
0001
0000
0001
1000
0000
,  // measure 57
0010
0000
0101
0000
1000
0100
0000
0011
,  // measure 58
0000
0100
1000
0000
0001
0000
0100
0000
,  // measure 59
0010
1000
0010
1000
0010
0000
0000
0000
,  // measure 60
0100
0001
0100
0001
0100
0000
0000
0000
,  // measure 61
1100
0010
0101
0010
,  // measure 62
1000
0001
1000
0002
0000
0100
0100
0103
,  // measure 63
0010
1000
0100
0010
0002
0000
1003
0020
,  // measure 64
0000
0130
0002
0000
0013
0200
0000
1300
,  // measure 65
0001
0000
1001
0000
1000
0000
0010
0100
,  // measure 66
0001
0000
1000
0100
0000
0010
0001
1000
,  // measure 67
0000
0001
1000
0000
0100
0000
0010
0001
,  // measure 68
1000
0000
0001
0100
0000
0001
0000
1100
,  // measure 69
0000
0010
0001
0000
1000
0010
0100
0000
,  // measure 70
0001
0100
0000
1010
0000
1100
0000
0000
,  // measure 71
0010
0001
1000
0100
0020
0000
0031
2000
,  // measure 72
0000
3100
0020
0000
0130
2000
0000
3001
,  // measure 73
0100
0000
1010
0000
0100
0001
1000
0000
,  // measure 74
0001
0010
0100
1000
0000
0010
0100
0000
,  // measure 75
0001
1000
0010
0000
0100
0001
1000
0000
,  // measure 76
0100
0010
0001
1000
0000
0010
0100
0000
,  // measure 77
1001
0000
0100
0000
0010
0010
0001
0000
,  // measure 78
1000
0100
0000
1000
0001
1000
0001
0001
,  // measure 79
0100
0010
1000
0010
0200
0000
0301
0020
,  // measure 80
0000
0130
2000
0000
3001
0200
0000
0310
,  // measure 81
1000
0010
1000
0010
0200
0000
0310
2000
,  // measure 82
0000
3100
0020
0000
0031
0200
0000
0310
,  // measure 83
1000
0001
1000
0001
2000
0000
3100
0020
,  // measure 84
0000
0031
0200
0000
0310
2000
0000
3010
,  // measure 85
0100
0001
0100
0001
2000
0000
3100
0020
,  // measure 86
0000
0130
2000
0000
3001
0200
0000
0310
,  // measure 87
1000
0000
0000
0000
;

//---------------dance-single - ----------------
#NOTES:
     dance-single:
     :
     Easy:
     4:
     0.245,0.333,0.085,0.000,0.000:
0000
0000
0000
0000
,
0000
0000
0000
0000
,
0000
0000
0000
0000
,
0000
0000
0000
0000
,
1000
0001
1000
0000
,
1000
0000
1000
0000
,
0010
0100
0010
0000
,
0010
0000
0010
0000
,
0100
0001
0100
0000
,
0100
0000
0100
0000
,
0001
1000
0001
0000
,
1000
1001
0001
1001
,
1000
0010
0100
0000
,
0001
0000
1000
0000
,
0100
0110
0000
0001
,
1000
0000
0010
0000
,
0100
0000
0001
1000
,
0001
0000
0010
0000
,
0100
0000
1000
0010
,
0100
0000
0001
0000
,
1000
0100
0010
0000
,
0001
0000
1000
0000
,
0010
0110
0000
0100
,
0001
0000
1000
0000
,
0100
0000
0000
1000
,
0010
0000
0100
0000
,
0001
0000
1000
0000
,
0001
0000
0001
0000
,
1000
0000
1000
0000
,
0010
0100
0001
0100
,
0010
0000
0010
0000
,
1000
0100
0010
0001
,
1000
0000
1000
0000
,
0010
0100
0001
0100
,
0010
0000
0010
0000
,
1000
0100
0010
0001
,
1000
0000
0010
0000
,
0100
0001
0100
0000
,
0010
0000
1000
0000
,
0100
0010
0100
0000
,
0010
0000
0001
0000
,
1000
0010
0100
0000
,
0001
0000
1000
0000
,
0001
1000
0001
0000
,
1000
0000
0100
0000
,
0100
0010
0100
0000
,
0010
0000
0010
0000
,
0001
0010
0001
0000
,
1000
0000
1000
0000
,
0010
0100
0010
0000
,
0100
0000
0001
0000
,
1000
0000
0001
1000
,
0001
0000
0010
0000
,
0100
0000
1000
0010
,
0100
0010
0100
0000
,
0001
0000
1000
0100
,
0010
0000
0001
0000
,
1000
0000
0001
1000
,
1001
0000
1001
0000
,
0110
0000
0110
0000
,
1000
0000
0001
0000
,
0100
0010
1000
0000
,
0001
0010
0100
0000
,
1000
0000
0010
0000
,
0100
0110
0000
0100
,
0001
0000
1000
0000
,
0100
0000
1000
0010
,
0100
0000
0001
0010
,
0100
0000
1000
0000
,
0010
0000
1001
0000
,
1000
0010
0100
0000
,
0001
0000
1000
0000
,
0001
1001
0000
0001
,
0010
0000
0100
0000
,
1000
0000
0010
0000
,
0100
0001
1000
0000
,
0100
1000
0001
0000
,
0010
0000
0100
0000
,
1000
0010
0100
0000
,
0001
0000
1000
0000
,
0001
0100
0010
0000
,
1000
0000
0100
0000
,
0010
0001
0010
0000
,
0010
0000
0100
0000
,
0100
1000
0100
0000
,
1000
0000
1000
0000
,
0001
0000
0000
0000
;

//---------------dance-single - ----------------
#NOTES:
     dance-single:
     :
     Medium:
     6:
     0.431,0.434,0.171,0.062,0.000:
0000
0000
0000
0000
,
0000
0000
0000
0000
,
0000
0000
0000
0000
,
0000
0000
0000
0000
,
1000
0000
0001
0000
1000
0001
1000
0000
,
0001
0000
0100
0001
0000
1000
0100
1000
,
0100
0000
0100
0000
0010
0100
0010
0000
,
0010
0000
0001
1000
0000
0010
0100
0010
,
0100
0000
0100
0000
0001
0100
0001
0000
,
1000
0000
1000
0001
0000
0001
1000
0000
,
0100
0000
0100
0000
0010
0001
0010
0000
,
0100
1100
1000
1001
,
1000
0000
0001
1000
0001
0000
0001
0100
,
0000
0100
0010
0000
0010
1000
0000
1000
,
0001
1001
1000
0100
,
0010
0000
0001
1000
0000
0010
0000
0100
,
0000
0001
0100
0000
0010
0000
1000
0000
,
0100
0000
0010
0001
0000
1000
0000
0010
,
0000
0100
0010
0000
1000
0000
0001
0000
,
1000
0001
0000
1001
0000
0000
0001
0000
,
0100
0000
0100
0010
0100
0000
0100
0001
,
0000
0001
1000
0000
1000
0100
0000
0100
,
0010
0000
1001
0000
0100
0000
0010
0100
,
0001
0000
0001
1000
0000
0100
0000
0010
,
0000
0001
1000
0000
0001
0000
0100
0010
,
0100
0000
0100
0001
0000
1000
0000
1001
,
0000
0001
0100
0000
0010
0000
0100
0000
,
0001
0100
0000
1010
0000
1010
0000
0000
,
0001
0000
0000
0001
0000
0000
0000
0000
,
1000
0100
0010
0001
,
0100
0000
0000
0010
0000
0000
0110
0000
,
0100
0001
1000
0100
,
0010
0000
0000
0010
0000
0000
0000
0000
,
0001
0100
0010
1000
,
0001
0000
0000
1000
0000
0000
1001
0000
,
0001
1000
0001
1000
0100
0010
0100
1000
,
0001
0000
0001
0000
0100
0000
0010
0100
,
0010
0000
0000
1010
0000
0000
0000
0000
,
0100
0000
0100
0000
0010
0000
0001
0010
,
0001
0000
0000
1100
0000
0000
0000
0000
,
0010
0000
0010
0000
0100
0000
0001
0100
,
0010
0000
0000
1000
0000
0100
0000
0010
,
0001
1000
0001
1000
,
0010
0000
0100
0001
0000
0001
1000
0000
,
0100
0000
0100
0000
0010
0000
0001
0010
,
0001
0000
0000
1001
0000
0000
0010
0000
,
0100
0000
0100
0000
0001
0000
1000
0001
,
1000
0000
0000
0110
0000
0000
1000
0000
,
0001
0000
0001
0000
0100
0000
0010
1000
,
0010
0000
0000
0100
0000
0001
0000
1000
,
0100
0010
0001
1000
,
0010
0100
0001
1000
,
0200
0000
1300
0010
,
0200
0000
0301
1000
,
0100
0010
0001
1000
,
1001
0000
0010
0100
,
0001
0000
1000
0000
0100
0010
0000
0002
,
0000
0000
0000
0003
1000
0000
0010
0000
,
0100
0001
0100
0001
0100
0000
0000
0000
,
0010
1000
0010
1000
0010
0000
0000
0000
,
1100
0000
0011
0000
,
0100
0000
1000
0002
0000
0000
0000
0003
,
1000
0000
1000
0000
0001
0000
0001
0100
,
0000
0100
0010
0000
0010
1000
0000
1000
,
0001
0000
2002
0000
3003
0000
1000
0100
,
1000
0000
0001
0100
0000
0010
0000
1000
,
0000
0000
0100
0000
0010
0000
0001
1000
,
0001
0000
1000
0100
0000
0010
0000
1001
,
0000
0010
0100
0001
,
1000
0010
0000
0101
0000
0000
1000
0000
,
1000
0000
0010
1000
0010
0000
0010
0100
,
0000
0100
0001
0000
0001
1000
0000
1000
,
0100
0000
0110
0000
0001
0000
1000
0001
,
1000
0000
0010
0100
0000
0001
0000
1000
,
0000
0100
1000
0000
0001
0000
0100
0010
,
0100
0000
0001
0010
0000
0100
0000
2002
,
0000
0000
0000
0000
0000
3003
0000
0000
,
0010
0000
0100
0000
0001
1000
0001
0000
,
1000
0000
0100
0000
0010
0000
0010
0001
,
0000
0001
1000
0000
1000
0010
0000
0010
,
0100
0000
0001
0000
1000
0000
1000
0100
,
0000
0100
0010
0000
0010
0001
0000
0001
,
1000
0000
0010
0000
0100
0000
0100
0010
,
0000
0010
1000
0000
1000
0001
0000
0001
,
0010
0000
0100
0000
1000
0000
1000
0001
,
0000
0001
1000
0000
1000
0001
0000
0001
,
1000
0000
0000
0000
;
