#TITLE:旅人リラン;
#SUBTITLE:;
#ARTIST:XOGO BRYKK;
#TITLETRANSLIT:The Flying Rerun;
#SUBTITLETRANSLIT:;
#ARTISTTRANSLIT:;
#CREDIT:Xythar;
#BANNER:The Flying Rerun.png;
#BACKGROUND:The Flying Rerun-bg.png;
#LYRICSPATH:;
#CDTITLE:iidx.png;
#MUSIC:The Flying Rerun.ogg;
#OFFSET:0.795;
#SAMPLESTART:25.518;
#SAMPLELENGTH:12.287;
#SELECTABLE:YES;
#BPMS:0.000=155.000;
#STOPS:;
#BGCHANGES:;

//---------------dance-single - X. Ythar----------------
#NOTES:
     dance-single:
     X. Ythar:
     Challenge:
     10:
     0.865,0.872,0.114,0.065,0.826:
0000
0000
0000
0000
0000
0000
0MM0
0MM0
,
20M0
0000
0000
0000
0000
0000
3001
0100
0020
0000
0000
0000
0000
0000
1030
0001
,
0020
0000
0000
0000
0000
0000
0130
1000
0002
0000
0000
0000
0000
0000
0003
0000
,
2000
0000
0000
0000
0000
0000
3010
0100
0002
0000
0000
0000
0000
0000
0013
0100
,
2000
0000
0000
0000
0000
0000
3001
0100
0020
0000
0000
0000
0000
0000
0030
0000
,
1001
0000
1000
0010
0000
00M1
0100
0000
,
1010
0000
1000
0100
0000
0M01
0100
0000
,
0101
0000
0001
0010
0000
10M0
0100
0000
,
0011
0000
0100
1000
0000
M010
0M01
00M0
,
1000
0000
0001
0010
0001
0000
1000
0010
1000
0000
0001
0100
0001
0000
1000
0100
,
1000
0000
0001
1000
0001
0000
0100
0010
0100
0000
0100
0000
M001
0000
1M00
0000
,
10M1
0000
0001
0010
0100
0000
0100
1000
0001
0000
0001
1000
0010
0000
0010
0100
,
M001
0000
0001
1000
0100
0000
0100
0010
0M01
1000
00M1
0000
1M00
0000
001M
0000
,
M10M
0000
0001
0100
0001
0000
1000
0010
1000
0000
0001
0010
0001
0000
1000
0100
,
1000
0000
0010
0100
0010
0000
1000
0001
1000
0000
1000
0000
0010
0000
0100
0000
,
0101
0000
0001
0010
0100
0000
0100
1000
0010
0000
0010
0100
0001
0000
0001
0010
,
M100
0000
010M
1000
00M1
1000
0010
1000
0001
0010
0100
0000
1000
0000
0010
0000
,
M10M
0000
0001
0100
0001
0000
1000
0000
0100
0000
0010
0001
0010
0000
0001
0000
,
1000
0000
0010
1000
0010
0000
0100
0000
0001
0000
1000
0000
0100
0000
1000
0000
,
0010
0000
0100
0001
0100
0000
0010
0000
1000
0000
0001
0010
0001
0000
1000
0000
,
0010
0000
0100
0001
0100
0000
0010
1000
0M10
0000
1M00
0000
0M01
0010
0100
0000
,
10MM
0000
0001
0100
0001
0000
1000
0000
0100
0000
0010
0001
0010
0000
0001
0000
,
1000
0000
0010
0100
0010
0000
0100
0000
0001
0000
0010
0000
0100
0000
1000
0000
,
0001
0000
1000
0010
1000
0000
0010
0000
0100
0000
0001
1000
0001
0000
1000
0000
,
0100
0000
1000
0010
0100
0000
0100
0001
1000
0000
0100
0000
1001
0000
0000
0000
,
1MM0
0000
0001
0010
0001
0000
1000
0010
1000
0000
0001
0100
0001
0000
1000
0100
,
1000
0000
0001
0010
0100
0000
1000
0010
0100
0000
0100
0000
0001
0000
1000
0000
,
0100
0000
0100
0010
0001
0000
0001
1000
0010
0000
0010
0100
0001
0000
0001
1000
,
0100
0000
0100
1000
0010
0000
0010
0100
0001
0000
0001
0000
100M
0000
01M0
0000
,
M01M
0000
0001
0010
0001
0000
1000
0100
1000
0000
0001
0100
0001
0000
1000
0010
,
1000
0000
0001
0100
0010
0000
1000
0001
0010
0000
0010
0000
0100
0000
1000
0000
,
0001
0000
0001
0100
0010
0000
0010
1000
0100
0000
0100
0010
0001
0000
0001
0100
,
0010
0000
0010
1000
0001
1000
0010
1000
0M01
0010
M100
0000
100M
0000
0010
0000
,
M10M
0000
0001
0010
0100
0010
0001
0000
1000
0000
0001
0100
0010
0100
0001
0000
,
1000
0000
0001
1000
0010
1000
0001
0000
0010
0000
0100
1000
0001
1000
0100
0000
,
1000
0000
0010
0100
0001
0100
0010
0000
1000
0000
0100
0010
0001
0010
0100
0000
,
1000
0000
0001
0100
0010
0000
1000
0001
0010
0000
0100
1000
0001
1000
0010
1000
,
0001
0000
1000
0100
0010
0100
1000
0000
0001
0000
1000
0010
0100
0010
1000
0000
,
0001
0000
0010
0100
1000
0100
0010
0000
0001
0000
0100
0010
1000
0010
0100
0000
,
0010
0000
1000
0001
0010
0001
1000
0000
0010
0000
0100
0001
1000
0001
0100
0000
,
0M1M
1000
0000
1000
0001
0000
1001
0000
1000
0100
0000
0100
0010
0000
0011
0000
,
1000
0010
0000
0010
0100
0000
0101
0000
0010
1000
0000
1000
0001
0000
1001
0000
,
1000
0100
0000
0M01
0100
0000
0101
0000
0010
1000
0000
M100
0001
0000
1001
0000
,
1000
0100
0000
0M01
0010
0000
0100
1000
0010
0000
0100
0000
1MM1
0000
0000
0000
,
0001
0010
0100
0000
1000
0000
0010
0100
0001
0000
1000
0000
0010
0000
1000
0000
,
0001
0000
0010
0100
1000
0000
0010
0000
1000
0000
0100
0000
0010
0000
010M
0000
,
100M
0000
0010
0000
0100
0000
0001
0010
0100
0000
1000
0000
0010
0000
1000
0000
,
0001
0000
0010
0100
1000
0000
0010
0000
100M
0100
001M
0000
M001
0000
1M00
0000
,
001M
1000
0100
1000
0010
0000
0100
0001
1000
0100
0010
0100
1000
0000
0001
0000
,
1000
0010
0100
0010
1000
0000
0001
0010
0100
1000
0001
0100
0001
1000
0100
0000
,
1000
0010
0100
0010
1000
0000
0100
0010
0001
1000
0010
1000
0001
0000
0100
0010
,
1000
0010
0100
0001
1000
0000
0100
0010
0001
0010
0100
1000
0010
1000
0001
0000
,
00M0
0M00
0000
0000
0000
0000
M00M
0000
,
1000
0100
0010
0000
0001
0000
1000
0010
0100
0000
M001
0000
M010
0000
0100
0000
,
1000
0000
0001
0100
0010
0000
1000
0000
0001
0010
0100
0010
0001
0000
1000
0000
,
0010
0100
0001
0000
0010
0000
0100
1000
0001
0000
010M
0010
100M
0000
0001
0000
,
1000
0000
0001
0100
0010
0000
1000
0000
0001
0010
0100
1000
0001
0000
1000
0000
,
0010
0100
0001
0000
1000
0000
0100
0010
0001
0000
010M
0010
100M
0000
0001
0000
,
0010
0000
0100
1000
0001
0000
1000
0000
0010
0100
0001
0100
0010
0000
1000
0000
,
0100
0010
0001
0000
1000
0000
0001
0100
0010
0000
1M00
0001
0M10
0000
0100
0000
,
1000
0010
0100
0000
0001
0000
1000
0100
0010
0001
0100
0000
0010
0000
1000
0000
,
0MM1
0000
1000
0010
1000
0000
0001
0010
0001
0000
1000
0100
1000
0000
0001
0100
,
0001
0000
0100
0010
0100
0000
0001
1000
0001
0000
0001
0000
1000
0000
0010
0000
,
M10M
0000
0100
0001
0010
0000
0010
0100
1000
0000
1000
0010
0100
0000
0100
0001
,
0010
0000
0010
0001
1000
0000
1000
0010
0100
0010
0100
0010
1000
0000
0001
0000
,
1MM0
0000
0100
0010
0001
0000
0100
0010
1000
0000
0001
0010
0100
0000
1000
0010
,
0100
0000
0001
0010
0100
1000
0100
1000
0001
0000
0001
0000
1000
0000
0010
0000
,
M10M
0000
0100
0001
1000
0000
1000
0001
0010
0000
0010
0100
1000
0000
1000
0010
,
0100
0010
1000
0010
0100
0010
1000
0001
1000
0100
0010
0001
0100
0010
1000
0001
,
1000
0100
0010
0000
0000
0000
0000
0000
,
0001
0100
0010
0000
0000
0000
0000
0000
,
1000
0001
0010
0000
0000
0000
0000
0000
,
0100
0000
1000
0000
,
0001
0100
0010
0000
0000
0000
0000
0000
,
0100
0001
1000
0000
0000
0000
0000
0000
,
0100
0010
0001
0000
0000
0000
0000
0000
,
1000
0000
0001
0000
;

//---------------dance-single - ----------------
#NOTES:
     dance-single:
     :
     Hard:
     8:
     0.530,0.529,0.122,0.081,0.305:
0000
0000
0000
0000
,
0000
0000
0000
0000
,
0000
0000
0000
0000
,
0000
0000
0000
0000
,
0000
0000
0000
0000
,
0001
0000
0100
0010
0000
1000
0100
0000
,
0010
0000
0001
1000
0000
1000
0010
0000
,
0100
0000
0001
0010
0000
0100
1000
0000
,
0001
0000
1000
0010
0000
0100
0001
0000
,
1000
0000
0000
1000
0100
0000
0000
0100
0010
0000
0000
0010
0001
0000
0000
0001
,
1000
0000
0000
1000
0010
0000
0000
0010
0100
0000
0000
0100
0001
0000
1000
0000
,
0001
0000
0000
0001
0100
0000
0000
0100
0010
0000
0000
0010
1000
0000
0000
1000
,
0100
0000
0000
0100
0010
0000
0000
0010
0001
0000
0001
0000
1000
0000
0010
0000
,
0100
0000
0000
0100
0001
0000
0000
0001
0010
0000
0000
0010
0100
0000
0000
0100
,
1000
0000
0000
1000
0010
0000
0000
0010
1000
0000
1000
0000
0100
0000
0010
0000
,
0001
0000
0000
0001
1000
0000
0000
1000
0010
0000
0000
0010
0100
0000
0000
0100
,
0001
0000
0000
0001
1000
0000
0000
1000
0100
0000
0100
0000
0010
0000
0001
0000
,
1000
0000
0010
0000
0100
0000
0001
1000
,
0100
0000
0001
0100
1000
0010
0100
0000
,
0001
0000
1000
0100
0010
0000
0001
0100
,
0010
0000
1000
0000
0001
0100
1000
0100
,
0001
0000
1000
0000
0010
0000
0100
0001
,
0010
0000
0100
0000
1000
0010
0100
0000
,
0001
0000
0010
0100
1000
0000
0001
0100
,
0010
0000
1000
0000
0001
1000
1001
0000
,
1000
0000
0000
1000
0100
0000
0000
0100
0010
0000
0000
0010
0001
0000
0000
0001
,
0100
0000
0000
0100
0010
0000
0000
0010
1000
0000
1000
0000
0001
0000
1000
0000
,
0001
0000
0000
0001
0100
0000
0000
0100
0010
0000
0000
0010
1000
0000
0000
1000
,
0100
0000
0000
0100
0010
0000
0000
0010
0001
0000
0001
0000
1000
0000
0010
0000
,
0100
0000
0000
0100
1000
0000
0000
1000
0100
0000
0000
0100
0010
0000
0000
0010
,
0100
0000
0000
0100
0001
0000
0000
0001
1000
0000
1000
0000
0001
0000
0010
0000
,
0001
0000
0000
0001
0100
0000
0000
0100
1000
0000
0000
1000
0100
0000
0000
0100
,
0001
0000
0000
0001
0010
0000
0100
0000
1000
0000
0010
0000
0100
0000
0001
0000
,
2000
0000
3010
0100
0002
0000
0013
0100
,
2000
0000
0100
0000
0001
0000
3010
0100
,
0002
0000
0013
0100
2000
0000
3010
0100
,
0001
0000
1100
0000
0101
0000
0010
1000
,
0200
0000
0310
0001
0200
0000
0310
1000
,
0001
0010
0100
1000
0020
0000
0130
0001
,
0020
0000
0130
1000
0001
0000
1001
0000
,
1000
0000
0000
0001
0100
0000
0010
0000
1000
0000
0000
0100
0010
0000
0001
0000
,
1000
0000
0000
0010
0100
0000
0010
0000
1000
0000
0000
0001
0010
0000
0001
0000
,
1000
0000
0000
0100
0010
0000
0001
0000
1000
0000
0000
0010
0100
0000
0001
0000
,
1000
0100
0010
0001
1000
0001
1001
0000
,
1000
0010
0100
0000
0001
0000
0010
0000
,
0100
0000
1000
0000
0010
0100
0001
0010
,
0100
1000
0001
0100
,
0001
0000
0010
0100
1000
0010
0100
0000
,
1100
0000
0101
0000
0010
1000
0001
0000
,
0110
0000
1001
0000
0010
0100
0001
0000
,
1100
0000
0011
0000
0100
1000
0010
0000
,
0101
0000
1010
0000
0001
0100
0010
1000
,
0000
0000
0000
0000
,
0100
0010
0001
0100
0010
0000
0001
0010
,
1000
0000
0001
0100
1000
0100
0001
0010
,
0200
0000
1000
0000
0310
0000
0100
1000
,
0001
0000
0100
0010
1000
0100
0010
0001
,
1000
0000
0001
0100
1000
0000
1000
0100
,
0001
0000
0001
0010
0100
1000
0010
0100
,
0001
0000
1100
0000
0011
0000
0100
1000
,
0010
0100
1000
0100
0010
0100
0001
0010
,
0100
0000
0000
0100
1000
0000
0000
1000
0010
0000
0000
0010
0100
0000
0000
0100
,
0001
0000
0000
0001
0010
0000
0000
0010
0100
0000
0100
0000
1000
0000
0010
0000
,
0100
0000
0000
0100
0010
0000
0000
0010
1000
0000
0000
1000
0100
0000
0000
0100
,
0010
0000
0000
0010
0001
0000
0000
0001
1000
0000
1000
0000
0010
0000
0100
0000
,
0001
0000
0000
0001
0010
0000
0000
0010
0100
0000
0000
0100
1000
0000
0000
1000
,
0010
0000
0000
0010
1000
0000
0100
0000
0010
0000
0001
0000
0100
0000
0010
0000
,
1000
0000
0000
1000
0100
0000
0000
0100
0010
0000
0000
0010
0001
0000
0000
0001
,
0100
1000
0100
0001
0010
0100
1000
0010
,
0100
0000
0000
0000
,
0001
0000
0000
0000
,
1000
0000
0000
0000
,
0010
0000
0100
0000
,
0001
0000
0000
0000
,
1000
0000
0000
0000
,
0001
0000
0000
0000
,
0100
0000
0010
0000
;

//---------------dance-single - ----------------
#NOTES:
     dance-single:
     :
     Medium:
     7:
     0.442,0.467,0.000,0.106,0.000:
0000
0000
0000
0000
,
0000
0000
0000
0000
,
0000
0000
0000
0000
,
0000
0000
0000
0000
,
0000
0000
0000
0000
,
2000
0000
0000
3010
0000
0000
0100
0000
,
0002
0000
0000
0013
0000
0000
0100
0000
,
2000
0000
0000
3001
0000
0000
0100
0000
,
0002
0000
0000
1003
0000
0100
0010
0000
,
0001
0100
0010
0000
0010
1000
0001
0000
,
0001
0010
0100
0000
0100
1000
0010
1000
,
0001
1000
0010
0000
0010
0100
0001
0000
,
0001
1000
0010
0000
0010
0100
0001
0100
,
0010
1000
0001
0000
0001
0010
0100
0000
,
0100
1000
0010
0000
0010
0100
0001
0100
,
0010
1000
0001
0000
0001
0010
0100
0000
,
0100
1000
0010
0000
0010
0100
0001
1000
,
0010
0000
0100
0000
0001
0000
0010
0100
,
1000
0000
0010
0000
0100
0001
0010
0000
,
0100
0000
1000
0010
0100
0000
0001
1000
,
0010
0000
0100
0000
0001
0010
0100
1000
,
0010
0000
0100
0000
0010
0000
1000
0100
,
0010
0000
0001
1000
0010
1000
0001
0000
,
0010
0000
0100
1000
0010
0000
0100
0001
,
0010
0000
0100
0000
1000
0001
1000
0000
,
0001
0100
0010
0000
0010
1000
0100
0000
,
0100
0010
0001
0000
0001
1000
0010
1000
,
0001
0010
0100
0000
0100
1000
0001
0000
,
0001
1000
0010
0000
0010
1000
0001
1000
,
0010
0100
0001
0000
0001
1000
0100
0000
,
0100
1000
0010
0000
0010
1000
0001
0010
,
0001
0100
0010
0000
0010
1000
0001
0000
,
0001
0010
0100
0000
0100
1000
0001
1000
,
0010
0000
0100
0000
0001
0000
0010
0100
,
1000
0000
0010
0100
0001
0000
1000
0000
,
0010
0000
0100
0001
0010
0000
0100
1000
,
0020
0000
0230
0000
0302
0000
0013
0100
,
1000
0000
0010
0100
0001
0000
1000
0100
,
0010
0000
0100
1000
0010
0000
0100
0001
,
0010
0000
0100
1000
0001
1000
0010
0000
,
0100
0000
0001
0000
0010
0100
1000
0000
,
0010
0000
0100
0000
0001
1000
0100
0000
,
0010
0000
0001
0000
0100
0010
1000
0000
,
0001
0000
0010
0000
0001
0100
0010
0000
,
1000
0010
1000
0001
,
0010
0001
1000
0010
,
0100
0001
0010
0100
,
1000
0000
0010
0000
0100
0000
0001
1000
,
0100
1000
0010
0000
0100
0000
0001
0010
,
0100
0000
1000
0000
0010
0000
1000
0001
,
0010
0000
0100
0000
1000
0000
0010
0100
,
0001
0000
1000
0000
0001
0100
0010
1000
,
0000
0000
0000
0000
,
0001
0010
0100
1000
0010
0000
0100
0001
,
0010
0000
0100
0000
1000
0010
0100
0010
,
2000
3200
0320
0032
,
2003
0000
3020
0000
0130
0001
0010
0001
,
1000
0000
0010
0000
0100
0000
0001
0010
,
0100
0000
1000
0000
0001
0100
0010
0100
,
0001
0010
0100
1000
,
0010
0100
0001
0000
0010
0100
1000
0010
,
0100
0001
0010
0000
0010
0001
1000
0000
,
1000
0010
0100
0000
0100
0001
0010
0001
,
1000
0010
0100
0000
0100
0010
1000
0000
,
1000
0001
0010
0000
0001
1000
0010
1000
,
0001
0100
0010
0000
0010
1000
0001
0000
,
0001
1000
0010
0000
0010
0100
0001
0100
,
0010
1000
0100
0000
0100
0010
0001
0000
,
1000
0010
0100
0010
1000
0100
0010
0001
,
1000
0000
0000
0000
,
0010
0000
0000
0000
,
0100
0000
0000
0000
,
0001
0000
0010
0000
,
0100
0000
0000
0000
,
1000
0000
0000
0000
,
0010
0000
0000
0000
,
0100
0000
0001
0000
;

//---------------dance-single - ----------------
#NOTES:
     dance-single:
     :
     Easy:
     4:
     0.274,0.280,0.000,0.000,0.000: // measure 1
0000
0000
0000
0000
,  // measure 2
0000
0000
0000
0000
,  // measure 3
0000
0000
0000
0000
,  // measure 4
0000
0000
0000
0000
,  // measure 5
0000
0000
0000
0000
,  // measure 6
1000
0100
1000
0000
,  // measure 7
0001
0100
0001
0000
,  // measure 8
1000
0100
1000
0000
,  // measure 9
0001
0010
0001
0000
,  // measure 10
1000
1000
0010
0010
,  // measure 11
0100
0100
0001
0001
,  // measure 12
1000
0100
0010
0001
,  // measure 13
0100
0010
1000
0001
,  // measure 14
1000
1000
0010
0010
,  // measure 15
0100
0100
0010
0010
,  // measure 16
1000
0100
0010
0001
,  // measure 17
0100
0010
1000
0001
,  // measure 18
0010
0000
0100
0000
,  // measure 19
1000
0010
0100
0010
,  // measure 20
1000
0000
0100
0000
,  // measure 21
0010
0001
1000
0010
,  // measure 22
1000
0000
0001
0000
,  // measure 23
0010
0000
0100
1000
,  // measure 24
0010
0100
0010
1000
,  // measure 25
0100
0010
0001
0000
,  // measure 26
1000
1000
0010
0010
,  // measure 27
0100
0100
0001
0001
,  // measure 28
1000
0100
0010
0001
,  // measure 29
0100
0010
0100
0001
,  // measure 30
0010
0010
0100
0100
,  // measure 31
1000
1000
0010
0010
,  // measure 32
0100
0001
0010
0100
,  // measure 33
1000
0010
0100
0010
,  // measure 34
1000
0000
0100
0000
,  // measure 35
0010
0001
1000
0000
,  // measure 36
0001
0100
0010
1000
,  // measure 37
0100
0010
0001
0100
,  // measure 38
0010
0000
1000
0000
,  // measure 39
0001
0010
0100
0000
,  // measure 40
1000
0000
0010
0000
,  // measure 41
1000
0100
0010
0001
,  // measure 42
0100
0010
0100
0010
,  // measure 43
0100
0001
0010
0100
,  // measure 44
1000
0010
0100
0100
,  // measure 45
0001
0000
1000
0000
,  // measure 46
0001
0000
1000
0010
,  // measure 47
0100
0000
0001
0000
,  // measure 48
0010
0000
0100
1000
,  // measure 49
0010
0010
0100
0100
,  // measure 50
0001
0001
0010
0100
,  // measure 51
1000
1000
0010
0010
,  // measure 52
0100
0100
0001
1000
,  // measure 53
0000
0000
0000
0000
,  // measure 54
0001
0100
0010
1000
,  // measure 55
0100
1000
0010
0100
,  // measure 56
0001
0001
0010
0010
,  // measure 57
0100
1000
0010
0100
,  // measure 58
0010
1000
0100
0010
,  // measure 59
0001
0100
0010
1000
,  // measure 60
0001
0001
0010
0010
,  // measure 61
0100
1000
0010
1000
,  // measure 62
0001
0001
0100
0100
,  // measure 63
0010
0010
1000
1000
,  // measure 64
0001
0100
0010
1000
,  // measure 65
0001
0010
0100
1000
,  // measure 66
1000
1000
0010
0010
,  // measure 67
0100
0100
0001
0001
,  // measure 68
1000
0100
0010
0001
,  // measure 69
0100
0010
1000
0001
,  // measure 70
1000
0000
0000
0000
,  // measure 71
0100
0000
0000
0000
,  // measure 72
0010
0000
0000
0000
,  // measure 73
0001
0000
0100
0000
,  // measure 74
0010
0000
0000
0000
,  // measure 75
1000
0000
0000
0000
,  // measure 76
0001
0000
0000
0000
,  // measure 77
1000
0000
0010
0000
;

//---------------dance-single - ----------------
#NOTES:
     dance-single:
     :
     Beginner:
     0:
     0.133,0.155,0.000,0.000,0.000: // measure 1
0000
0000
0000
0000
,  // measure 2
0000
0000
0000
0000
,  // measure 3
0000
0000
0000
0000
,  // measure 4
0000
0000
0000
0000
,  // measure 5
0000
0000
0000
0000
,  // measure 6
1000
0000
0000
0000
,  // measure 7
1000
0000
0000
0000
,  // measure 8
0001
0000
0000
0000
,  // measure 9
0001
0000
0000
0000
,  // measure 10
1000
0000
1000
0000
,  // measure 11
1000
0000
1000
0000
,  // measure 12
0010
0000
0010
0000
,  // measure 13
0010
0000
0010
0000
,  // measure 14
0100
0000
0100
0000
,  // measure 15
0100
0000
0100
0000
,  // measure 16
0001
0000
0001
0000
,  // measure 17
0001
0000
0001
0000
,  // measure 18
1000
0000
0100
0000
,  // measure 19
1000
0000
0100
0000
,  // measure 20
0010
0000
0001
0000
,  // measure 21
0010
0000
0001
0000
,  // measure 22
1000
0000
0010
0000
,  // measure 23
1000
0000
0010
0000
,  // measure 24
0100
0000
0001
0000
,  // measure 25
0100
0000
0001
0000
,  // measure 26
1000
0000
0000
0000
,  // measure 27
0100
0000
0000
0000
,  // measure 28
0010
0000
0000
0000
,  // measure 29
0001
0000
0000
0000
,  // measure 30
1000
0000
0100
0000
,  // measure 31
0010
0000
0001
0000
,  // measure 32
1000
0000
0100
0000
,  // measure 33
0010
0000
0001
0000
,  // measure 34
1000
0000
0000
0000
,  // measure 35
0010
0000
0000
0000
,  // measure 36
0100
0000
0001
0000
,  // measure 37
1000
0000
0001
0000
,  // measure 38
1000
0000
0000
0000
,  // measure 39
0010
0000
0000
0000
,  // measure 40
0100
0000
0000
0000
,  // measure 41
0001
0000
0010
0000
,  // measure 42
0100
0000
0010
0000
,  // measure 43
0001
0000
0100
0000
,  // measure 44
0010
0000
0100
0000
,  // measure 45
0001
0000
0000
0000
,  // measure 46
1000
0000
0000
0000
,  // measure 47
0001
0000
0000
0000
,  // measure 48
0100
0000
0000
0000
,  // measure 49
0010
0000
1000
0000
,  // measure 50
0010
0000
1000
0000
,  // measure 51
0010
0000
1000
0000
,  // measure 52
0010
0000
1000
0000
,  // measure 53
0001
0000
0000
0000
,  // measure 54
1000
0000
0100
0000
,  // measure 55
1000
0000
0100
0000
,  // measure 56
0010
0000
0001
0000
,  // measure 57
1000
0000
0010
0000
,  // measure 58
1000
0000
0001
0000
,  // measure 59
1000
0000
0001
0000
,  // measure 60
1000
0000
0100
0000
,  // measure 61
0010
0000
0001
0000
,  // measure 62
1000
0000
0000
0000
,  // measure 63
0010
0000
0000
0000
,  // measure 64
0100
0000
0000
0000
,  // measure 65
0001
0000
0000
0000
,  // measure 66
1000
0000
1000
0000
,  // measure 67
0100
0000
0100
0000
,  // measure 68
0010
0000
0010
0000
,  // measure 69
0001
0000
0100
0000
,  // measure 70
0010
0000
0000
0000
,  // measure 71
1000
0000
0000
0000
,  // measure 72
0001
0000
0000
0000
,  // measure 73
0010
0000
0000
0000
,  // measure 74
0100
0000
0000
0000
,  // measure 75
1000
0000
0000
0000
,  // measure 76
0010
0000
0000
0000
,  // measure 77
0100
0000
0000
0000
;
