#TITLE:The 美学;
#SUBTITLE:;
#ARTIST:松浦亜弥;
#TITLETRANSLIT:The Bigaku;
#SUBTITLETRANSLIT:;
#ARTISTTRANSLIT:Aya Matsuura;
#CREDIT:Xythar;
#BANNER:The Bigaku-bn.avi;
#BACKGROUND:The Bigaku-bg.png;
#LYRICSPATH:The Bigaku.lrc;
#CDTITLE:CDTitle.png;
#MUSIC:The Bigaku.mp3;
#OFFSET:-0.293;
#SAMPLESTART:60.322;
#SAMPLELENGTH:11.410;
#SELECTABLE:YES;
#BPMS:0.000=167.974;
#STOPS:;
#BGCHANGES:1.500=The Bigaku.avi=1.000=1=1=0,
99999=-nosongbg-=1.000=0=0=0 // don't automatically add -songbackground-
;

//---------------dance-single - MANIAC----------------
#NOTES:
     dance-single:
     MANIAC:
     Hard:
     8:
     0.582,0.616,0.514,0.086,0.019: // measure 1
0000
0000
0000
0000
,  // measure 2
0010
0000
1000
0100
0000
0010
0001
1000
,  // measure 3
0000
0010
0100
0001
0000
1000
0100
1000
,  // measure 4
0200
0000
1300
0000
1000
0001
1000
0010
,  // measure 5
0000
0000
0000
1001
0000
0100
1000
0000
,  // measure 6
0001
0000
1000
0010
0000
1000
0001
0010
,  // measure 7
0000
1000
0010
0001
0000
0100
0010
0100
,  // measure 8
0020
0000
1030
0000
1000
0100
0010
0001
,  // measure 9
0000
1000
0001
1001
0000
0010
0100
0000
,  // measure 10
1100
0001
1100
0001
,  // measure 11
1100
0001
1100
0010
,  // measure 12
0101
0000
0101
0000
0010
1000
0001
1000
,  // measure 13
0000
0001
0010
0100
0000
1000
0010
1000
,  // measure 14
0001
0000
1000
0100
1000
0000
0001
1000
,  // measure 15
0100
1000
0001
0000
1000
0000
0110
0000
,  // measure 16
0001
0000
0000
0000
0100
0000
0000
0000
0010
0000
0000
1000
0000
0000
0100
0000
,  // measure 17
0010
0000
0001
1000
0010
0000
0101
0000
,  // measure 18
0010
1000
0100
0000
0010
0001
0100
0000
,  // measure 19
0010
1000
0001
1000
0100
0000
0011
0000
,  // measure 20
0100
0000
1000
0000
0001
0000
0000
0000
0100
0000
0000
0010
0000
0000
1000
0000
,  // measure 21
0001
0000
1000
0100
1000
0000
0101
0000
,  // measure 22
0010
1001
0100
1001
,  // measure 23
0010
1001
0100
1001
,  // measure 24
0110
0000
0110
0000
0100
0001
0100
0001
,  // measure 25
0000
1000
0100
0010
0000
0001
1000
0000
,  // measure 26
0010
1000
0001
0000
1000
0001
0100
0000
,  // measure 27
0010
1000
0001
1000
0100
0000
1100
0000
,  // measure 28
0010
0000
0000
0000
0001
0000
0000
0000
0100
0000
0000
0010
0000
0000
1000
0000
,  // measure 29
0001
1000
0000
0001
,  // measure 30
1000
0001
0100
0000
0001
1000
0100
0000
,  // measure 31
1000
0010
0100
0010
1000
0000
0001
0000
,  // measure 32
0010
0000
0000
0000
0100
0000
0000
0000
1000
0000
0000
0010
0000
0000
0100
0000
,  // measure 33
0001
0000
1000
0001
0100
0001
1000
0000
,  // measure 34
0001
0000
0010
0000
0100
0000
1000
0001
,  // measure 35
0100
0000
0010
1000
0001
1000
0100
0000
,  // measure 36
0011
0000
0100
1000
0001
0000
0010
0000
,  // measure 37
0001
1000
0001
1000
,  // measure 38
0010
0100
0001
0100
0010
0000
1000
0100
,  // measure 39
0010
0000
0100
1000
0001
0000
0100
0000
,  // measure 40
0010
1000
0000
0001
1000
0000
0100
2000
,  // measure 41
0000
0000
0000
3000
,  // measure 42
0202
0000
0000
0303
,  // measure 43
1000
0000
0001
1000
0010
0000
0100
0000
,  // measure 44
0001
1000
0100
1000
0000
0001
1000
0001
,  // measure 45
1000
0000
0100
0000
1010
0000
0001
1000
,  // measure 46
0010
0000
1000
0000
0101
0000
0010
1000
,  // measure 47
0001
1000
0100
0000
1000
0010
0100
0000
,  // measure 48
0001
0000
0010
0100
2000
0000
3001
0000
,  // measure 49
1100
0000
0010
0100
0101
0000
0010
0100
,  // measure 50
1100
0101
1100
0101
,  // measure 51
0010
0000
1000
0000
0001
1000
0100
0000
,  // measure 52
0010
0001
1000
0001
0000
0100
0010
0000
,  // measure 53
1000
0100
0010
0000
0100
1000
0010
0000
,  // measure 54
0101
0000
0010
0000
1100
0000
0001
0010
,  // measure 55
0100
0000
1000
0010
0000
0100
0001
0000
,  // measure 56
1000
0001
0010
0000
2100
0000
3001
0000
,  // measure 57
0101
0000
0010
1000
1100
0000
0100
1000
,  // measure 58
1010
0011
1010
0011
,  // measure 59
0110
0000
0000
0101
0000
0000
1100
0000
,  // measure 60
0000
0011
0000
0000
1001
0000
0010
0000
,  // measure 61
0100
0001
0100
0001
0000
0100
0010
1000
,  // measure 62
0000
0001
1000
0010
0000
1000
0001
1000
,  // measure 63
0001
0000
0110
0000
0001
1000
0100
1000
,  // measure 64
0000
0010
0100
1001
0000
0100
0010
0000
,  // measure 65
0001
0100
0001
0100
0000
0010
1000
0001
,  // measure 66
0000
0010
0100
1000
0000
0010
0100
0010
,  // measure 67
0100
0000
1001
0000
0001
0100
0010
1000
,  // measure 68
0000
0100
0010
1001
0000
0010
0100
0000
,  // measure 69
0011
0100
1010
0001
,  // measure 70
0110
1000
0110
0001
,  // measure 71
1001
0000
1001
0000
1000
0010
1000
0001
,  // measure 72
0000
1000
0001
2002
0000
0000
0000
3003
;

//---------------dance-single - TRICK----------------
#NOTES:
     dance-single:
     TRICK:
     Medium:
     6:
     0.486,0.548,0.143,0.371,0.019: // measure 1
0000
0000
0000
0000
,  // measure 2
0001
0000
2000
0010
0000
0010
0000
3100
,  // measure 3
0000
0001
0000
0010
0000
0001
0010
0001
,  // measure 4
1000
0000
1000
0000
0000
0001
1000
0100
,  // measure 5
0000
0000
0000
1001
0000
1000
0010
0000
,  // measure 6
1000
0000
0200
1000
0000
1000
0000
0310
,  // measure 7
0000
0001
0000
0100
0000
0001
1000
0001
,  // measure 8
1000
0000
1000
0000
0000
0001
1000
0010
,  // measure 9
0000
0000
0000
0110
0000
0001
1000
0000
,  // measure 10
0002
0100
2003
0100
,  // measure 11
3002
0100
2003
0100
,  // measure 12
3001
0000
0001
0000
1000
0100
1000
0001
,  // measure 13
0000
0100
0000
1001
0000
0100
0010
0000
,  // measure 14
0001
0100
0010
1000
,  // measure 15
0001
1000
0001
0000
0010
0000
0000
0000
,  // measure 16
0100
0000
0000
0000
1000
0000
0000
0000
0010
0000
0000
1000
0000
0000
0001
0000
,  // measure 17
1000
0001
0000
0000
,  // measure 18
2000
0100
3002
0100
,  // measure 19
1003
0100
1000
0000
0001
0000
0000
0000
,  // measure 20
1000
0000
0000
0000
0010
0000
0000
0000
1000
0000
0000
0001
0000
0000
0010
0000
,  // measure 21
0001
0000
1000
0000
0001
1000
0001
0000
,  // measure 22
2000
0010
3002
0100
,  // measure 23
2003
0100
3002
0010
,  // measure 24
1000
0000
1003
0000
0001
1000
0010
1000
,  // measure 25
0000
0010
0000
1001
0000
0100
0010
0000
,  // measure 26
0001
0100
0010
1000
,  // measure 27
0001
1000
0001
0000
0020
0000
0030
0000
,  // measure 28
0100
0000
0000
0000
1000
0000
0000
0000
0010
0000
0000
1000
0000
0000
0001
0000
,  // measure 29
0010
0001
0000
1000
,  // measure 30
0010
0100
0010
1000
,  // measure 31
0001
0010
0001
0000
1000
0000
0000
0000
,  // measure 32
0001
0000
0000
0000
0100
0000
0000
0000
0001
0000
0000
1000
0000
0000
0100
0000
,  // measure 33
1000
0020
0000
0030
,  // measure 34
1000
0100
0010
0001
,  // measure 35
0100
0010
1000
0001
,  // measure 36
0010
0000
0010
0000
0100
1000
0001
0000
,  // measure 37
2100
3001
0102
1003
,  // measure 38
0001
0100
0010
1000
,  // measure 39
0001
0010
0100
1000
,  // measure 40
0001
0100
0000
0001
1000
0000
0001
0020
,  // measure 41
0000
0000
0000
0030
,  // measure 42
2002
0000
0000
3003
,  // measure 43
1000
0001
0010
0001
,  // measure 44
2000
0000
0001
3001
0000
0000
1000
0000
,  // measure 45
1100
0001
0101
0010
,  // measure 46
2000
0000
0001
3001
0000
0000
1000
0000
,  // measure 47
0010
0000
1000
0001
0000
0001
1000
0000
,  // measure 48
0100
0010
0001
0100
,  // measure 49
0020
0000
0130
0001
2000
0000
3100
1000
,  // measure 50
0002
0100
1000
0013
,  // measure 51
0100
1000
0001
1000
,  // measure 52
0001
0100
0001
1000
0000
0001
0010
0000
,  // measure 53
0100
0110
0001
1001
,  // measure 54
1000
0000
0001
0100
0000
0010
1000
0000
,  // measure 55
0001
0000
1000
0100
0000
1000
0000
0010
,  // measure 56
0000
0100
0001
1000
,  // measure 57
0002
0000
0013
0100
2000
0000
3010
0100
,  // measure 58
0002
0100
1000
0013
,  // measure 59
0200
0000
1300
0002
0000
0103
0020
0000
,  // measure 60
1030
0200
0000
0310
0001
0000
1001
0000
,  // measure 61
1000
0000
0001
0020
0000
0100
0000
0130
,  // measure 62
0000
1000
0000
0001
0000
1000
0010
1000
,  // measure 63
0001
0000
0001
0000
0000
1000
0100
1000
,  // measure 64
0000
0001
0000
1001
0000
0001
0100
0000
,  // measure 65
0010
0000
1000
0200
0000
0010
0000
0310
,  // measure 66
0000
0001
0000
1000
0000
0001
0100
0001
,  // measure 67
1000
0000
1000
0000
0000
0001
1000
0010
,  // measure 68
0000
0000
0000
1001
0000
0100
0010
0000
,  // measure 69
0200
1000
0320
0001
,  // measure 70
0230
0010
2300
0100
,  // measure 71
3001
0000
0001
0000
1000
0100
1000
0001
,  // measure 72
0000
0100
0000
2002
0000
0000
0000
3003
;

//---------------dance-single - BASIC----------------
#NOTES:
     dance-single:
     BASIC:
     Easy:
     4:
     0.317,0.306,0.057,0.324,0.000: // measure 1
0000
0000
0000
0000
,  // measure 2
1000
0000
0000
0001
0000
1000
0000
0010
,  // measure 3
0000
0000
0000
1000
,  // measure 4
1000
0000
0001
0000
0000
1000
0000
0010
,  // measure 5
0000
0000
0000
1001
0000
0000
0000
0000
,  // measure 6
0100
0000
0000
1000
0000
0010
0000
0100
,  // measure 7
0000
0000
0000
0001
,  // measure 8
0001
0000
1000
0000
0000
0001
0000
0100
,  // measure 9
0000
0000
0000
1001
0000
0000
0000
0000
,  // measure 10
0002
0000
0203
0000
,  // measure 11
0320
0000
2030
0000
,  // measure 12
0001
0000
3001
0000
2000
0000
0000
3001
,  // measure 13
0000
0000
0000
1001
0000
0000
0000
0000
,  // measure 14
0001
1000
0010
1000
,  // measure 15
0001
0001
0001
0000
,  // measure 16
1000
0100
2000
0000
,  // measure 17
0001
3001
0000
0000
,  // measure 18
1000
0010
1000
0001
,  // measure 19
1000
1000
1000
0000
,  // measure 20
0001
0100
0002
0000
,  // measure 21
1000
1003
0000
0000
,  // measure 22
0002
0000
0203
0000
,  // measure 23
0320
0000
2030
0000
,  // measure 24
0001
0000
3001
0000
0200
0000
0000
0310
,  // measure 25
0000
0000
0000
0110
0000
0000
0000
0000
,  // measure 26
0001
1000
0100
1000
,  // measure 27
0001
0001
0001
0000
,  // measure 28
1000
0010
2000
0000
,  // measure 29
0001
3001
0000
1000
,  // measure 30
0001
0010
0001
1000
,  // measure 31
0010
0010
0010
0000
,  // measure 32
0100
0001
2000
0000
,  // measure 33
0010
3010
0000
0000
,  // measure 34
1000
0001
0010
0000
,  // measure 35
0100
1000
0001
0000
,  // measure 36
2000
0000
0001
3001
,  // measure 37
0100
0010
0100
0010
,  // measure 38
1000
0100
1000
0000
,  // measure 39
0001
0100
0001
0000
,  // measure 40
2000
0000
0000
3002
0000
0000
2003
0000
,  // measure 41
0000
0000
3000
0000
,  // measure 42
0020
0000
0000
0030
,  // measure 43
0100
0001
0100
0001
,  // measure 44
1000
0000
0000
0001
0000
0000
1000
0000
,  // measure 45
0010
1000
0001
0000
,  // measure 46
2000
0000
0000
3001
0000
0000
1000
0000
,  // measure 47
0100
0000
0000
1000
0000
0001
0000
1000
,  // measure 48
0000
0001
1000
0001
,  // measure 49
0200
0000
0320
0000
,  // measure 50
2030
0000
0000
3000
,  // measure 51
0001
1000
0001
1000
,  // measure 52
0010
0000
0000
0010
0000
0000
1000
0000
,  // measure 53
0100
1000
0001
0000
,  // measure 54
1001
0000
0000
0001
0000
0000
1000
0000
,  // measure 55
0100
0000
0000
1000
0000
0001
0000
1000
,  // measure 56
0000
0001
1000
0001
,  // measure 57
0020
0000
0230
0000
,  // measure 58
2300
0000
3001
0100
,  // measure 59
0002
0000
0000
1000
0000
0000
1000
0000
,  // measure 60
0000
1000
0000
0000
1003
0000
1001
0000
,  // measure 61
0001
0000
0000
1000
0000
0001
0000
1000
,  // measure 62
0000
0000
0000
0001
,  // measure 63
0001
0000
1000
0000
0000
0010
0000
0200
,  // measure 64
0000
0000
0000
0301
0000
0000
0000
0000
,  // measure 65
1000
0000
0000
0010
0000
1000
0000
0001
,  // measure 66
0000
0000
0000
1000
,  // measure 67
0100
0000
0100
0000
0000
1000
0000
0002
,  // measure 68
0000
0000
0000
0103
0000
0000
0000
0000
,  // measure 69
0002
0000
2003
0000
,  // measure 70
3200
0000
2300
0000
,  // measure 71
0001
0000
3001
0000
1000
0000
0000
0020
,  // measure 72
0000
0000
0000
0130
0000
0000
0000
0000
;
