#TITLE:Ten Below Blazing;
#SUBTITLE:;
#ARTIST:m-flo;
#TITLETRANSLIT:;
#SUBTITLETRANSLIT:;
#ARTISTTRANSLIT:;
#CREDIT:;
#BANNER:Ten Below Blazing.png;
#BACKGROUND:Ten Below Blazing-bg.png;
#LYRICSPATH:;
#CDTITLE:cdtitle.png;
#MUSIC:Ten Below Blazing.mp3;
#OFFSET:-0.142;
#SAMPLESTART:67.540;
#SAMPLELENGTH:11.286;
#SELECTABLE:YES;
#BPMS:0.000=170.000;
#STOPS:;
#BGCHANGES:;

//---------------dance-single - ----------------
#NOTES:
     dance-single:
     :
     Hard:
     7:
     0.497,0.523,0.379,0.000,0.000:
0000
0000
0000
0000
,
0000
0000
0000
0000
,
0000
0000
0000
0000
,
0000
0000
0000
0000
,
0000
0000
0000
0000
,
0000
0000
0000
0000
,
0000
0000
0000
0000
,
0000
0000
0000
0000
,
1000
0000
0010
0000
0010
0100
0000
0001
,
0000
1000
0100
0000
1000
0001
1000
0000
,
0100
0000
0010
0010
0001
0000
0100
0010
,
0000
0100
0001
0000
1000
0100
1000
0000
,
0010
0000
0010
0000
0100
0001
0000
1000
,
0000
0100
1000
0000
0010
0100
0010
0000
,
1000
0000
0100
0010
0000
0001
0100
0000
,
0010
0000
1000
0010
0000
1000
0100
0000
,
1000
0010
1000
0000
0001
0001
0000
1000
,
0000
0100
0100
0000
0010
0001
0010
0000
,
0100
0000
1000
0000
0010
0000
0100
0010
,
0000
0100
0001
0000
1000
1000
0100
0000
,
0010
0000
0010
0000
0000
0001
0000
0100
,
0000
0010
1000
0000
0001
1000
0001
0000
,
1100
0000
0001
0100
0000
0010
1000
0000
,
0011
0000
1000
0100
0000
0010
0001
0000
,
1000
0000
0010
0000
0100
0001
1000
0000
,
0100
1000
0001
0000
0010
0100
1000
0000
,
0010
0000
0010
0000
0100
0001
0100
0000
,
1000
0100
1000
0000
0001
0010
0100
0000
,
1000
0000
0010
0000
0000
0100
0000
0001
,
0000
1000
0100
0000
1000
1000
0001
0000
,
0110
0000
1000
0100
0000
0001
0100
0000
,
0110
0000
0001
0010
0000
1000
0010
0000
,
1000
0000
0100
1000
0001
1000
0010
0000
,
1000
0010
0001
0000
1000
0100
0001
0000
,
0100
0000
0100
0000
1000
0001
0000
0100
,
0010
0100
0010
0000
1000
0001
0001
0000
,
0010
0000
0110
0000
0000
0100
0000
0100
,
1000
0010
0100
0000
0001
0010
0100
0000
,
1000
0010
0100
0000
1000
0010
0100
0000
,
0001
1000
0100
0000
1000
0000
1000
0000
,
0001
1100
0001
1010
,
0100
0001
1000
0000
0100
1000
0001
0000
,
1000
0011
1000
0101
,
0010
1000
0001
1000
0100
0000
0100
0000
,
0010
0000
0001
0000
0000
0100
0000
0010
,
0000
1000
0100
0000
1000
1000
0001
0000
,
1000
0010
0001
0100
,
1000
0010
0001
0100
,
1000
0000
1100
0000
1000
0000
0000
0001
,
0100
0001
1000
0000
0100
1000
0001
0000
,
0100
1010
0100
0011
,
1001
0000
0100
1000
0001
0000
1000
0000
,
0010
0000
0101
0000
1001
0000
0000
0100
,
1000
0001
1000
0000
0010
0100
0001
0000
,
1100
0000
0001
0100
0000
0010
1000
0000
,
0101
0000
1000
0100
0000
0010
0001
0000
,
1100
0000
1001
0000
1100
0000
0000
1000
,
0001
0100
1000
0000
0001
0100
1000
0000
,
1100
0000
0001
0000
1100
0000
0010
0100
,
0000
0001
1000
0100
0100
0000
1000
0000
,
0110
0000
0101
0000
0110
0000
0000
0001
,
1000
0100
0001
0000
1000
0100
0001
0000
,
1001
0000
0010
0100
0000
0100
0010
0000
,
1001
0000
0100
0010
0100
0000
0001
0000
,
1100
0000
1010
0000
1100
0000
0000
0010
,
0100
0000
0001
0000
1000
0100
1000
0000
,
0010
0101
1000
0101
,
0010
0000
1000
0100
0010
0100
1000
0000
,
0110
0000
1100
0000
0110
0000
0000
0001
,
1000
0000
0100
0000
1000
0001
1000
0000
,
1001
0000
0001
0101
0000
1000
1100
0000
,
0110
0000
0000
0001
1000
0000
0001
0000
;

//---------------dance-single - ----------------
#NOTES:
     dance-single:
     :
     Medium:
     6:
     0.448,0.488,0.544,0.000,0.000:
0000
0000
0000
0000
,
0000
0000
0000
0000
,
0000
0000
0000
0000
,
0000
0000
0000
0000
,
0000
0000
0000
0000
,
0000
0000
0000
0000
,
0000
0000
0000
0000
,
0000
0000
0000
0000
,
0001
0010
0100
1000
,
0010
0100
0101
1100
,
0010
0000
0100
0001
1000
0000
0000
0100
,
0000
0010
0001
1000
,
0010
0000
0100
0000
0100
0010
0000
1000
,
0000
0100
1000
0000
0010
0000
0100
0000
,
1001
0000
0000
1100
0000
0000
0101
0000
,
1010
0000
0000
0011
0000
0000
1001
0000
,
0001
0100
0010
1000
,
0001
0000
0010
0000
1000
0010
0001
0000
,
0100
0000
1010
0000
1100
0000
0000
0010
,
0000
0000
0001
0000
1000
0100
0001
0000
,
0100
0000
1100
0000
0101
0000
0000
0010
,
0000
1000
0001
0000
0001
0100
1000
0000
,
1100
0000
0000
0101
0000
0000
1010
0000
,
0011
0000
0000
1001
0000
0000
0000
0000
,
1000
0010
0100
0010
,
1000
1000
0100
0000
0010
0000
0001
0000
,
1000
0010
0100
0010
,
1000
0100
0001
0000
0100
0000
1000
0000
,
0010
0000
0101
0000
0000
1000
0000
0100
,
0000
1000
0010
0000
0100
0000
0100
0000
,
0001
0000
0000
1100
0000
0000
0101
0000
,
0010
0000
1000
0000
0001
0100
1000
0000
,
0100
0000
0001
0000
1000
0100
0000
1000
,
0010
0100
0001
1100
,
0101
0000
1100
0000
0010
0100
0000
0001
,
1000
0000
0100
0000
0001
0100
1000
0000
,
0010
0000
0010
0000
0000
0100
0000
0001
,
1000
1100
1000
1100
,
1000
1001
0001
0101
,
0001
0101
1100
1100
,
0001
0100
0010
1000
,
0100
0010
0001
0000
1000
0000
1100
0000
,
1000
0010
0100
0001
,
0010
0100
1000
0000
0001
0000
0101
0000
,
0001
0000
0001
0000
0000
1000
0000
0001
,
0000
1000
0010
0000
0100
0000
0001
0000
,
1000
0100
0001
0010
,
1000
0100
0001
0010
,
1000
0100
1000
0000
0101
0000
0000
0010
,
1000
0100
0001
0010
,
1000
0101
0001
1100
,
0010
0000
1000
0010
0001
0000
0010
0000
,
1000
0100
0001
0000
1100
0000
0000
0010
,
0100
0001
0010
1000
,
0100
0000
0000
0101
0000
0000
1100
0000
,
1001
0000
0000
0101
0000
0000
0010
0000
,
0001
0010
1000
0000
0100
0000
0000
0010
,
0100
0110
1000
1100
,
0010
0000
0010
0000
0100
0000
0001
1000
,
0000
1000
0001
0000
0100
0000
0010
0000
,
1000
0100
1000
0000
0101
0000
0000
0010
,
1000
1001
0001
1001
,
1000
0000
0000
0101
0000
0000
1100
0000
,
1010
0000
0000
0100
0000
0001
1000
0000
,
0100
0010
0100
0000
1001
0000
0000
0100
,
0010
0001
0100
1000
,
0010
0000
0010
0000
1001
0000
1000
0100
,
0001
0010
1000
0100
,
1000
0010
0100
0000
0001
0000
0000
0000
,
1000
0101
1000
0011
,
0101
0000
0000
1100
0000
0000
0110
0000
,
0110
0000
1000
0100
0010
0001
1000
0000
;

//---------------dance-single - ----------------
#NOTES:
     dance-single:
     :
     Easy:
     5:
     0.358,0.418,0.427,0.000,0.000: // measure 1
0000
0000
0000
0000
,  // measure 2
0000
0000
0000
0000
,  // measure 3
0000
0000
0000
0000
,  // measure 4
0000
0000
0000
0000
,  // measure 5
0000
0000
0000
0000
,  // measure 6
0000
0000
0000
0000
,  // measure 7
0000
0000
0000
0000
,  // measure 8
0000
0000
0000
0000
,  // measure 9
0001
0010
0100
1000
,  // measure 10
0010
0100
1001
0100
,  // measure 11
1000
1000
0001
0000
,  // measure 12
0001
0001
1000
0100
,  // measure 13
0010
0001
0100
0010
,  // measure 14
1001
0100
1001
0100
,  // measure 15
1000
0000
0000
1000
0000
0000
1000
0000
,  // measure 16
0001
0100
0010
1000
,  // measure 17
0100
0100
1000
0010
,  // measure 18
0100
1000
0100
0001
,  // measure 19
1000
1000
0110
0000
,  // measure 20
0001
0010
0100
1000
,  // measure 21
0010
0010
0100
0000
,  // measure 22
0001
0110
1000
0110
,  // measure 23
0001
0000
0000
0001
0000
0000
0001
0000
,  // measure 24
1000
0000
0100
1000
,  // measure 25
0010
0010
0100
0000
,  // measure 26
0001
1100
1000
0101
,  // measure 27
0000
0100
0100
0000
,  // measure 28
1000
0011
0001
1010
,  // measure 29
0000
0100
0100
0000
,  // measure 30
0010
1001
0100
1001
,  // measure 31
0100
0000
0000
0100
0000
0000
0100
0000
,  // measure 32
0010
0010
0001
1001
,  // measure 33
0000
0010
0100
0001
,  // measure 34
1000
1100
1000
1100
,  // measure 35
0000
0001
0100
0000
,  // measure 36
0010
1010
0010
1010
,  // measure 37
0000
0100
0001
0000
,  // measure 38
0010
0110
0010
0110
,  // measure 39
0001
1001
1000
1001
,  // measure 40
0010
1001
0100
0100
,  // measure 41
1000
0100
0001
0010
,  // measure 42
1000
0100
1001
1001
,  // measure 43
0001
0100
1000
0010
,  // measure 44
0001
0100
1001
1001
,  // measure 45
0100
0100
0000
0000
,  // measure 46
1000
0001
0100
0100
,  // measure 47
0001
0010
1000
0100
,  // measure 48
0001
0010
1000
0100
,  // measure 49
1000
0001
1001
0000
,  // measure 50
0001
0101
0001
0101
,  // measure 51
1000
0000
1000
0000
0100
0000
0000
0010
,  // measure 52
0000
0000
0100
0000
,  // measure 53
0010
0100
0110
0000
,  // measure 54
1000
1010
1000
1010
,  // measure 55
0100
0000
0000
0100
0000
0000
0100
0000
,  // measure 56
0001
0000
1000
0000
,  // measure 57
0010
0100
1001
0000
,  // measure 58
0100
0110
0100
0110
,  // measure 59
0010
0000
0010
0000
1000
0000
0000
0001
,  // measure 60
0000
0010
0100
0000
,  // measure 61
1000
0001
0110
0000
,  // measure 62
1000
1001
1000
1001
,  // measure 63
0001
0000
0000
0001
0000
0000
0001
0000
,  // measure 64
1000
0000
0100
0000
,  // measure 65
0010
0100
1001
0000
,  // measure 66
0010
0101
0010
0101
,  // measure 67
1000
0000
1000
0000
0100
0000
0000
1000
,  // measure 68
0000
0000
0001
0000
,  // measure 69
1000
0001
0110
0000
,  // measure 70
1000
0101
1000
0101
,  // measure 71
1000
0000
0000
1000
0000
0000
1000
0000
,  // measure 72
0001
0000
0000
0100
;
