#TITLE:水上の提督;
#SUBTITLE:(Short mix from '幻想水滸伝V');
#ARTIST:猫叉Master;
#TITLETRANSLIT:Suijou no Teitoku;
#SUBTITLETRANSLIT:(Short mix from 'Genso Suikoden V');
#ARTISTTRANSLIT:Nekomata Master;
#CREDIT:Steps and graphics by Xythar (source - Suikoden V cover art & calendar art);
#BANNER:Suijou no Teitoku.png;
#BACKGROUND:Suijou no Teitoku-bg.png;
#LYRICSPATH:;
#CDTITLE:cdtitle.png;
#MUSIC:Suijou no Teitoku.mp3;
#OFFSET:-7.401;
#SAMPLESTART:15.960;
#SAMPLELENGTH:13.720;
#SELECTABLE:YES;
#DISPLAYBPM:140.000;
#BPMS:0.000=140.000;
#STOPS:;
#BGCHANGES:-12.266=Suijou no Teitoku.avi=1.000=1=1=0,
244.000=Suijou no Teitoku-bg.png=1.000=0=0=1,
99999=-nosongbg-=1.000=0=0=0 // don't automatically add -songbackground-
;

//---------------dance-single - ----------------
#NOTES:
     dance-single:
     :
     Easy:
     4:
     0.227,0.225,0.082,0.000,0.000: // measure 1
0000
0000
0000
0000
,  // measure 2
1000
0000
0010
0000
,  // measure 3
0100
0000
0001
0000
,  // measure 4
0010
0100
0010
0001
,  // measure 5
0100
0010
0100
0101
,  // measure 6
0001
1000
0000
0100
,  // measure 7
0010
0100
0000
0010
,  // measure 8
0001
0100
0010
0100
,  // measure 9
0101
0000
0001
0000
,  // measure 10
1000
0000
0000
0010
,  // measure 11
0100
0010
0000
1000
,  // measure 12
0100
0010
0001
0100
,  // measure 13
0110
0000
0001
0000
,  // measure 14
1000
0000
0001
0000
,  // measure 15
0010
0100
1000
0000
,  // measure 16
0010
0100
0001
0100
,  // measure 17
0010
0000
1010
0000
,  // measure 18
1000
0000
0100
0000
,  // measure 19
0010
0001
0100
0000
,  // measure 20
0001
0010
0100
1000
,  // measure 21
1100
0000
0100
0100
,  // measure 22
0010
0001
0010
0100
,  // measure 23
1000
0010
0100
0000
,  // measure 24
0001
1000
0100
1000
,  // measure 25
0001
0100
0010
0000
,  // measure 26
1000
0000
0100
0000
,  // measure 27
0010
0001
0010
0100
,  // measure 28
1000
0010
0100
0010
,  // measure 29
0100
0001
1000
0100
,  // measure 30
1000
0010
0100
0001
,  // measure 31
0100
0010
0100
0001
,  // measure 32
0010
0100
0010
0100
,  // measure 33
1000
0010
0100
0001
,  // measure 34
1000
0000
0100
0000
,  // measure 35
0010
0000
0001
0100
,  // measure 36
0010
0100
0001
1000
,  // measure 37
0100
0000
0010
0000
,  // measure 38
0001
0000
0100
0000
,  // measure 39
0010
0000
1000
0000
,  // measure 40
0100
0010
0001
0100
,  // measure 41
0010
1000
1001
0000
,  // measure 42
0001
0000
0010
0000
,  // measure 43
0100
1000
0010
0000
,  // measure 44
0100
0001
0100
0001
,  // measure 45
0100
0001
0010
0100
,  // measure 46
1100
0000
1000
0010
,  // measure 47
0100
0001
0000
1000
,  // measure 48
0100
0010
0100
1000
,  // measure 49
0010
0000
0101
0000
,  // measure 50
0001
0000
0010
0100
,  // measure 51
1000
0010
0100
0000
,  // measure 52
0001
0000
1000
0100
,  // measure 53
0010
0001
0100
0000
,  // measure 54
0001
0010
0100
1000
,  // measure 55
0010
0100
0001
0000
,  // measure 56
1000
0100
0010
0001
,  // measure 57
0100
0010
1000
0000
,  // measure 58
1001
0000
0001
0000
,  // measure 59
0010
0000
0100
0000
,  // measure 60
1000
0000
0010
0000
,  // measure 61
0100
0000
0001
0000
,  // measure 62
1001
0000
0000
0000
;

//---------------dance-single - ----------------
#NOTES:
     dance-single:
     :
     Hard:
     9:
     0.581,0.600,0.074,0.000,0.492: // measure 1
0000
0000
0000
0000
,  // measure 2
1000
0000
0000
0100
0000
0000
0010
0000
0001
0000
0000
0100
0000
0000
0010
0000
,  // measure 3
1000
0000
0000
0001
0000
0000
0010
0000
0100
0000
0000
1000
0000
0000
0010
0000
,  // measure 4
0100
0001
0100
0010
1000
0100
1000
0010
,  // measure 5
0100
0000
0001
0000
0010
0000
0100
0000
1000
0100
1000
0100
0000
0000
1001
0000
,  // measure 6
1000
0000
0010
0000
0100
0001
0000
0001
0100
0000
0001
0000
0010
0000
0100
0000
,  // measure 7
1000
0000
0010
0000
0100
0001
0000
0001
0100
0000
0010
0000
1000
0000
0100
1000
,  // measure 8
0100
0000
0000
0010
0001
0000
0000
1000
0010
0000
0000
0100
0001
0000
1000
0100
,  // measure 9
1000
0000
0010
0000
0001
0000
0010
0000
0100
0010
0000
1000
0000
0001
0010
0001
,  // measure 10
1000
0000
0001
0000
0100
0010
0000
0010
0100
0000
0001
0000
0010
0000
0100
0000
,  // measure 11
1000
0000
0010
0000
0100
0001
0000
0001
0100
0000
0010
0000
1000
0000
0100
0000
,  // measure 12
0010
0000
0000
0001
0010
0000
0000
0100
1000
0000
0000
0001
0100
0000
0010
0100
,  // measure 13
0010
0000
0100
0000
1000
0000
0100
0000
0001
1000
0000
0100
0000
0010
0100
1000
,  // measure 14
0100
0000
0001
0000
0100
1000
0000
1000
0001
0000
0100
0000
0010
0000
0100
0000
,  // measure 15
0001
0000
0000
0010
0001
0000
0000
0001
0100
0000
1000
0000
0100
0000
0001
0000
,  // measure 16
1000
0000
0000
1000
0001
0000
0000
0001
0100
0000
0000
0100
0010
0000
0000
0010
,  // measure 17
1000
0000
0100
0000
0010
0000
0001
0000
0100
0001
0000
1000
0000
0100
1000
0100
,  // measure 18
0010
0000
0001
0000
1000
0001
0000
0001
1000
0000
0010
0000
0100
0000
0010
0000
,  // measure 19
1000
0000
0000
0001
0010
0000
0000
0100
1000
0000
0001
0000
0100
0000
0010
0000
,  // measure 20
1000
0000
0000
1000
0100
0000
0000
0100
0001
0000
0000
0001
0100
0000
0000
0100
,  // measure 21
1000
0000
0010
0000
0100
0000
0001
0000
0100
0010
0100
0010
1000
0010
1000
0001
,  // measure 22
1000
0001
0010
0100
0010
0001
1000
0010
,  // measure 23
0100
0000
0100
0001
0000
0001
1000
0000
0000
0000
0000
0000
,  // measure 24
1001
0000
0001
0010
0000
0010
0100
0000
0100
1000
0000
1000
,  // measure 25
0010
0000
0000
0000
0010
0000
0100
0000
0000
0000
0100
0000
0001
0000
0000
0000
0000
0000
1000
0000
0000
1001
0000
0000
,  // measure 26
1001
0001
0100
0010
0100
0001
1000
0000
,  // measure 27
0100
0010
0001
0010
0100
1000
0010
0100
,  // measure 28
0001
1000
0010
1000
0100
1000
0001
1000
,  // measure 29
0100
1000
0010
0100
0001
0100
0010
0100
,  // measure 30
0001
1000
0100
0010
0100
1000
0001
0100
,  // measure 31
0010
1000
0001
0010
0100
1000
0010
0100
,  // measure 32
0001
0100
0010
1000
0100
0001
0100
1000
,  // measure 33
0010
0000
0001
0000
0010
0000
1000
0000
0001
0100
0000
0010
0000
0100
0001
0000
,  // measure 34
1000
0100
0010
0100
1000
0000
0001
0000
,  // measure 35
0100
0000
0010
0000
1000
0100
0010
0001
,  // measure 36
0010
0100
0010
0001
0010
0100
0010
0000
,  // measure 37
0001
0000
0100
0000
0010
1000
0100
1000
,  // measure 38
0010
0100
0001
0000
1000
0000
0001
0010
,  // measure 39
0100
0000
0010
0001
0100
0010
0100
1000
,  // measure 40
0100
0001
0010
1000
0010
0001
1000
0100
,  // measure 41
0010
0001
0100
0010
1000
0000
1001
0000
,  // measure 42
0001
0000
1000
0000
0100
0000
0010
0001
,  // measure 43
1000
0010
0100
0000
0001
0000
1000
0000
,  // measure 44
0100
1000
0100
1000
0001
1000
0001
1000
0001
0100
0001
0100
0010
0100
0010
0100
,  // measure 45
0010
1000
0010
1000
0001
1000
0001
1000
0001
0010
0100
1000
0000
0000
1001
0000
,  // measure 46
0001
0000
1000
0000
0010
1000
0000
1000
0010
0000
0100
0000
0001
0000
0010
0000
,  // measure 47
0100
0000
0010
0000
0001
0100
0000
0100
0001
0000
1000
0000
0100
0000
0010
0000
,  // measure 48
0001
0000
0000
0001
0100
0000
0000
0100
0010
0000
0000
0010
1000
0000
0000
1000
,  // measure 49
0100
0000
0001
0000
0100
0000
1000
0000
0010
1000
0000
0001
0000
0100
0001
0100
,  // measure 50
0010
0000
1000
0000
0100
0000
0010
0000
0001
0000
0100
0000
0010
0000
0000
1000
,  // measure 51
0001
0000
0100
0010
0100
0000
0010
0000
1000
0000
0100
0000
0001
0000
0100
0000
,  // measure 52
1000
0000
0010
0000
0100
0000
0001
0000
0010
0000
0100
0000
1000
0000
0000
0100
,  // measure 53
0010
0000
0000
0010
0001
0000
0000
0001
0100
0000
0010
0000
1000
0000
0100
0000
,  // measure 54
1000
0000
0000
1000
0010
0000
0000
0010
0100
0000
0000
0100
0001
0000
0000
0001
,  // measure 55
0010
0000
0000
0010
1000
0000
0000
1000
0010
0000
0001
0000
0100
0000
0010
1000
,  // measure 56
0010
0000
0000
1000
0100
0000
0000
0100
0010
0000
0000
0010
0001
0000
0000
0001
,  // measure 57
1000
0000
0000
1000
0010
0000
0000
0010
0100
0000
0000
0110
0000
0000
0101
0000
,  // measure 58
0001
0000
0000
1000
0000
0000
0100
0000
0010
0000
0000
0100
0000
0000
1000
0000
,  // measure 59
0010
0000
0000
0001
0000
0000
0010
0000
1000
0000
0000
0100
0000
0000
0001
0000
,  // measure 60
0100
0000
0000
1000
0000
0000
0001
0000
0100
0000
0000
0010
0000
0000
1000
0000
,  // measure 61
0100
0000
0000
0010
0000
0000
0001
0000
0010
0100
0010
0100
0000
0000
1000
0000
,  // measure 62
1001
0000
0000
0000
;

//---------------dance-single - ----------------
#NOTES:
     dance-single:
     :
     Medium:
     6:
     0.368,0.400,0.139,0.000,0.004: // measure 1
0000
0000
0000
0000
,  // measure 2
1000
0100
0010
0001
,  // measure 3
1000
0010
0100
0001
,  // measure 4
1000
0100
1000
0100
0010
0100
0010
0100
,  // measure 5
0010
0000
0000
0000
0001
0000
0000
0000
1000
0000
0000
0010
0000
0000
0100
0000
,  // measure 6
0001
0000
1000
0000
0010
0000
1000
0100
,  // measure 7
0010
0100
1000
0000
0001
0000
0100
0010
,  // measure 8
0100
0001
0010
0100
,  // measure 9
1000
0001
1000
0010
0100
0000
0001
0000
,  // measure 10
1000
0100
0010
0000
0001
0000
0100
0010
,  // measure 11
0100
0001
1000
0000
0100
0000
1000
0010
,  // measure 12
0100
0001
0010
0100
,  // measure 13
1000
0001
1000
0001
0010
0000
0100
0000
,  // measure 14
1000
0010
0100
0010
1000
0000
0001
0010
,  // measure 15
0100
0000
0100
0010
0001
0000
0100
0000
,  // measure 16
0010
1000
0100
1000
,  // measure 17
0010
0100
0010
0100
0001
0000
1000
0000
,  // measure 18
0100
0000
0010
0000
0001
0000
1000
0010
,  // measure 19
0100
0000
0100
0010
1000
0000
0001
0000
,  // measure 20
0010
0100
1000
0010
,  // measure 21
0100
0000
0001
0100
0001
0100
0001
1000
,  // measure 22
0100
0010
0001
0010
,  // measure 23
0011
0100
1100
0000
,  // measure 24
0101
0100
0110
0010
,  // measure 25
1010
1000
1001
0000
,  // measure 26
0001
0010
0100
1000
,  // measure 27
0001
0100
0001
0000
1000
0100
1000
0000
,  // measure 28
0001
0100
0010
0000
0010
0100
0001
0000
,  // measure 29
1000
0100
0010
0000
0010
0100
1000
0000
,  // measure 30
0001
0100
1000
0000
1000
0100
0001
0000
,  // measure 31
0001
0010
1000
0000
1000
0010
0001
0000
,  // measure 32
1000
0100
1000
0001
0010
0001
1000
0010
,  // measure 33
0100
0001
0010
0100
1000
0000
0001
0000
,  // measure 34
0100
0000
0000
0010
0000
0000
1000
0000
,  // measure 35
0100
0010
0001
1000
,  // measure 36
0010
0100
0010
1000
,  // measure 37
0100
0010
0001
0010
,  // measure 38
0001
1000
0010
1000
,  // measure 39
0100
1000
0001
0100
,  // measure 40
0001
0010
0100
1000
,  // measure 41
0001
0100
0010
1000
0100
0000
0110
0000
,  // measure 42
0001
0000
0000
1000
,  // measure 43
0100
0010
0000
0000
,  // measure 44
0001
0010
0001
0010
0100
0010
0100
0010
,  // measure 45
0100
1000
0100
1000
0001
1000
0001
1000
,  // measure 46
0001
0000
0100
0000
0010
0000
1000
0100
,  // measure 47
0010
0100
1000
0000
0001
0000
0010
0000
,  // measure 48
0100
1000
0010
0100
,  // measure 49
0001
1000
0001
1000
0001
0000
0100
0000
,  // measure 50
0010
1000
0100
0010
,  // measure 51
0001
0010
0100
0010
0001
0000
1000
0010
,  // measure 52
1000
0001
0100
0010
,  // measure 53
1000
0010
0100
0010
1000
0000
0001
0000
,  // measure 54
0011
0010
0110
0100
,  // measure 55
1010
0000
0110
0000
0101
0000
0001
0100
,  // measure 56
0010
1010
1000
1100
,  // measure 57
0110
0011
1001
1000
,  // measure 58
0100
0010
0001
0100
,  // measure 59
0010
0100
0001
0010
,  // measure 60
0100
1000
0001
1000
,  // measure 61
0010
1000
0001
1000
,  // measure 62
0100
0000
0000
0000
;

//---------------dance-single - ----------------
#NOTES:
     dance-single:
     :
     Challenge:
     10:
     0.724,0.775,0.131,0.000,0.980: // measure 1
0000
0000
0000
0000
,  // measure 2
0001
0000
0000
0100
0000
0000
0010
0000
0100
0000
0000
0001
0000
0000
1000
0000
,  // measure 3
0100
0000
0000
0001
0000
0000
0100
0000
1000
0000
0000
0010
0000
0000
0100
0000
,  // measure 4
0001
0000
0010
0000
0100
0000
1000
0000
0010
0000
0100
0000
0001
0100
0010
1000
,  // measure 5
0100
0010
0100
1000
0001
0100
0010
1000
0010
0100
0001
0100
0000
0000
1001
0000
,  // measure 6
1000
0000
0000
0000
0000
0000
0010
0000
0000
0000
0000
0000
0100
0000
0000
0001
0000
0000
0000
0000
0000
0001
0000
0000
1000
0000
0000
0000
0000
0000
0100
0000
1000
0000
0100
0000
1000
0000
0000
0000
0000
0000
0001
0000
0000
0000
0000
0000
,  // measure 7
0100
0000
0010
0000
0100
0001
0000
0001
1000
0100
0000
0100
0010
0000
0001
0100
,  // measure 8
0001
0000
0000
0001
0010
0000
0000
0010
0100
0000
0000
0100
1000
0000
0100
1000
,  // measure 9
0100
0000
0010
0000
0001
0000
0011
0000
0001
0100
0000
1000
0000
0100
0010
0100
,  // measure 10
0001
0000
0000
0000
0000
0000
1000
0000
0000
0000
0000
0000
0100
0000
0000
0010
0000
0000
0000
0000
0000
0010
0000
0000
0001
0000
0000
0000
0000
0000
0010
0000
0001
0000
0010
0000
0001
0000
0000
0000
0000
0000
0100
0000
0000
0000
0000
0000
,  // measure 11
0010
0000
0100
0000
0001
1000
0000
1000
0010
0100
0000
0100
0001
0000
1000
0100
,  // measure 12
1000
0000
0000
0001
0100
0000
0000
0100
0010
0000
0000
0010
1000
0000
0000
1000
,  // measure 13
0100
0000
0010
0000
0110
0000
0100
0000
1000
0010
0000
0001
0000
0010
0100
0010
,  // measure 14
1000
0000
0001
0000
0100
0010
0000
0010
0100
0000
0001
0000
1000
0000
0100
1000
,  // measure 15
0100
0000
0000
0000
0000
0000
0010
0000
0100
0000
0010
0000
0100
0000
0000
0000
0000
0000
0010
0000
0001
0000
0010
0000
0001
0000
0000
1000
0000
0000
0000
0000
0000
1000
0000
0000
0001
0000
0000
0000
0000
0000
0100
0000
0000
0000
0000
0000
,  // measure 16
0010
0000
0000
0010
1000
0000
0000
1000
0100
0000
0000
0100
0010
0000
0000
0010
,  // measure 17
0001
0000
0100
0000
0010
0000
0110
0000
0100
1000
0000
0100
0000
0001
0100
0010
,  // measure 18
0100
0000
0001
0000
1000
0100
0000
0100
0010
0000
0001
0000
0100
0000
0010
1000
,  // measure 19
0010
0000
0000
0000
0000
0000
1000
0000
0010
0000
1000
0000
0010
0000
0000
0000
0000
0000
0100
0000
0010
0000
0100
0000
0010
0000
0000
0100
0000
0000
0000
0000
0000
0100
0000
0000
0001
0000
0000
0000
0000
0000
1000
0000
0000
0000
0000
0000
,  // measure 20
0100
0000
0000
0100
0010
0000
0000
0010
0001
0000
0000
0001
1000
0000
0000
1000
,  // measure 21
0010
0000
0100
0000
0001
0000
0101
0000
0100
1000
0100
0010
0100
0001
0100
0010
,  // measure 22
1000
0000
0000
0100
0000
0000
0010
0000
0000
0001
0010
0001
0010
0000
0000
0100
0010
0100
0010
0000
0000
0100
0000
0000
,  // measure 23
1000
0000
1000
0010
0000
0010
0100
0000
0000
0000
0000
0000
,  // measure 24
1001
0000
0001
0010
0000
0010
0100
0000
0100
1000
0000
1000
,  // measure 25
0010
0000
0000
0000
0000
0000
0000
0000
0010
0000
0000
0000
0100
0000
0000
0000
0000
0000
0000
0000
0100
0000
0000
0000
0001
0000
0000
0000
0000
0000
1000
0000
0000
0100
0000
0000
1000
0000
0000
0100
0000
0000
0010
0000
0000
0100
0000
0000
,  // measure 26
0010
0000
0001
0000
0100
0000
0010
0010
0000
0000
1000
1000
0000
0000
0001
0000
,  // measure 27
0010
0000
0100
0010
0001
0010
0100
1000
0001
0100
0010
1000
0001
0010
0100
0010
,  // measure 28
0001
0000
1000
0100
0010
0100
0010
0001
1000
0010
0100
0010
0100
0001
1000
0100
,  // measure 29
0010
0100
1000
0001
0100
0010
0100
0001
1000
0100
0010
0000
0000
0011
0000
0000
,  // measure 30
0100
0000
0010
0010
0000
1000
0000
0010
0000
0100
0000
0010
0000
0010
0010
0000
,  // measure 31
1000
0000
0100
0000
0010
0010
0000
0001
0000
0100
0100
0000
0010
1000
0000
1000
,  // measure 32
0010
0000
1000
0001
0010
0100
0010
0100
1000
0010
0100
0001
0100
0010
1000
0100
,  // measure 33
0010
0000
1000
0000
0010
0000
0011
0000
0100
0010
0000
0010
1000
0000
1001
0000
,  // measure 34
0001
0000
0010
0000
0100
0000
0010
0001
0010
0000
0100
0000
0010
0000
0100
0000
,  // measure 35
1000
0000
0010
0000
0001
0000
0010
0000
0000
0000
0100
0010
1000
0010
1000
0100
,  // measure 36
1000
0001
1000
0010
1000
0001
0010
0001
1000
0001
0100
0001
0010
0001
0000
0000
,  // measure 37
0010
0000
0000
0000
0100
0000
1000
0000
0000
0000
0001
0100
0010
1000
0100
0010
,  // measure 38
0001
0010
0100
0010
0001
0000
0000
0000
0100
0000
0000
0000
0010
1000
0100
0010
,  // measure 39
0000
0000
0000
0000
0000
0000
0001
0010
0100
1000
0000
0000
0000
0000
0001
0010
,  // measure 40
0001
0000
1000
0100
1000
0000
0001
0100
0001
0010
0100
1000
0001
0100
0010
1000
,  // measure 41
0100
0010
0001
0010
0100
1000
0010
0000
0100
0000
0000
0000
0101
0000
0000
0000
,  // measure 42
1000
0000
0000
0100
0000
0000
0010
0000
0000
0100
0000
0000
1000
0000
0000
0100
1000
0100
1000
0000
0000
0001
0000
0000
,  // measure 43
0100
0010
0100
0001
0010
0100
1000
0010
,  // measure 44
0100
0001
0100
0001
0100
0010
0100
0010
0100
1000
0100
1000
0100
0001
0010
0001
,  // measure 45
0100
0010
1000
0100
1000
0010
0100
0001
0010
0001
0100
0001
0000
0000
1001
0000
,  // measure 46
1000
0000
0000
0000
0000
0000
0100
0000
0000
0000
0000
0000
0010
0000
0000
0001
0000
0000
0000
0000
0000
0001
0000
0000
0100
0000
0000
0000
0000
0000
0001
0000
0100
0000
0001
0000
0100
0000
0000
0000
0000
0000
0010
0000
0000
0000
0000
0000
,  // measure 47
1000
0000
0100
0000
0010
0100
0000
0010
0001
0010
0000
0100
1000
0000
0001
0100
,  // measure 48
0001
0000
0000
0001
1000
0000
0000
1000
0100
0000
0000
0100
0010
0000
0000
0010
,  // measure 49
0001
0000
1000
0000
0001
0000
1001
0000
1000
0010
0000
0100
0000
1000
0100
0010
,  // measure 50
0100
0000
0000
0000
0000
0000
0001
0000
0000
0000
0000
0000
0010
0000
0000
0000
0000
0000
0100
0000
0010
0000
0100
0000
0010
0000
0000
0000
0000
0000
0001
0000
0000
0000
0000
0000
0100
0000
0000
0000
0000
0000
0000
0000
0000
0010
0000
0000
,  // measure 51
1000
0000
0000
0000
0000
0000
0100
0000
0000
1000
0000
0000
0100
0000
0000
0000
0000
0000
0010
0000
0000
0001
0000
0000
0010
0000
0000
0000
0000
0000
0001
0000
0000
0000
0000
0000
0100
0000
0000
0000
0000
0000
0001
0000
0100
0000
0001
0000
,  // measure 52
0100
0000
0010
0000
1000
0000
0100
1000
0100
0000
1000
0000
0001
0000
0000
0001
,  // measure 53
0100
0000
0000
0100
0010
0000
0000
0010
1000
0010
0100
0000
0101
0000
0000
0000
,  // measure 54
1001
0000
0000
0001
0010
0000
0000
0010
0100
0000
0000
0100
1000
0000
0000
1000
,  // measure 55
0010
0000
0000
0000
0000
0000
0000
0000
0000
0010
0000
0000
0100
0000
0000
0000
0000
0000
0000
0000
0000
0100
0000
0000
0001
0000
0000
0000
0000
0000
1000
0000
0000
0000
0000
0000
0001
0000
0000
0000
0000
0000
1000
0000
0001
0000
1000
0000
,  // measure 56
0001
0000
0000
0001
0100
0000
0000
0100
0010
0000
0000
0010
1000
0000
0000
1000
,  // measure 57
0100
0010
0001
0010
0100
0010
0100
1000
0001
0100
0010
0100
0000
0000
0101
0000
,  // measure 58
1000
0000
0000
0010
0000
0000
0001
0000
0010
0000
0000
1000
0000
0000
0100
0000
,  // measure 59
0001
0000
0000
0100
0000
0000
1000
0000
0010
0000
0000
0100
0000
0000
0001
0000
,  // measure 60
0100
0000
0000
1000
0000
0000
0100
0000
0001
0000
0000
1000
0000
0000
0100
0000
,  // measure 61
0010
0000
0000
0001
0000
0000
0100
0000
0010
0100
0010
1000
0000
0000
0001
0000
,  // measure 62
1001
0000
0000
0000
;

//---------------dance-single - ----------------
#NOTES:
     dance-single:
     :
     Beginner:
     1:
     0.127,0.150,0.000,0.000,0.000: // measure 1
0000
0000
0000
0000
,  // measure 2
0001
0000
0000
0000
,  // measure 3
1000
0000
0000
0000
,  // measure 4
0001
0000
1000
0000
,  // measure 5
0010
0000
0100
0000
,  // measure 6
0001
0000
0010
0000
,  // measure 7
0100
0000
1000
0000
,  // measure 8
0010
0000
0100
0000
,  // measure 9
0010
0000
0000
0000
,  // measure 10
1000
0000
0100
0000
,  // measure 11
0010
0000
0001
0000
,  // measure 12
1000
0000
0010
0000
,  // measure 13
1000
0000
0000
0000
,  // measure 14
0001
0000
0010
0000
,  // measure 15
0100
0000
1000
0000
,  // measure 16
0010
0000
0100
0000
,  // measure 17
0010
0000
0000
0000
,  // measure 18
1000
0000
0100
0000
,  // measure 19
0010
0000
0001
0000
,  // measure 20
1000
0000
0001
0000
,  // measure 21
0100
0000
0000
0000
,  // measure 22
0001
0000
0000
0000
,  // measure 23
0010
0000
0000
0000
,  // measure 24
0100
0000
1000
0000
,  // measure 25
0010
0000
0100
0000
,  // measure 26
0001
0000
0001
0000
,  // measure 27
1000
0000
0100
0000
,  // measure 28
0010
0000
0100
0000
,  // measure 29
0010
0000
0001
0000
,  // measure 30
1000
0000
0010
0000
,  // measure 31
0100
0000
0010
0000
,  // measure 32
0100
0000
0001
0000
,  // measure 33
1000
0000
0100
0000
,  // measure 34
0010
0000
0001
0000
,  // measure 35
0100
0000
0010
0000
,  // measure 36
0100
0000
0001
0000
,  // measure 37
1000
0000
0100
0000
,  // measure 38
1000
0000
0010
0000
,  // measure 39
0100
0000
0001
0000
,  // measure 40
0010
0000
0100
0000
,  // measure 41
1000
0000
0010
0000
,  // measure 42
0100
0000
0000
0000
,  // measure 43
0001
0000
0000
0000
,  // measure 44
1000
1000
1000
1000
,  // measure 45
1000
0000
0001
0000
,  // measure 46
0100
0000
0010
0000
,  // measure 47
0100
0000
0001
0000
,  // measure 48
0010
0000
0100
0000
,  // measure 49
1000
0000
0000
0000
,  // measure 50
0010
0000
0100
0000
,  // measure 51
0001
0000
1000
0000
,  // measure 52
0100
0000
1000
0000
,  // measure 53
0010
0000
0100
0000
,  // measure 54
0001
0000
0010
0000
,  // measure 55
0100
0000
1000
0000
,  // measure 56
0001
0000
0100
0000
,  // measure 57
0010
0000
1000
0000
,  // measure 58
0100
0000
0000
0000
,  // measure 59
0010
0000
0000
0000
,  // measure 60
0001
0000
0000
0000
,  // measure 61
1000
0000
0000
0000
,  // measure 62
0010
0000
0000
0000
;
