#TITLE:素晴しい新世界;
#SUBTITLE:;
#ARTIST:古代祐三;
#TITLETRANSLIT:Subarashii Shin Sekai;
#SUBTITLETRANSLIT:;
#ARTISTTRANSLIT:Yuzo Koshiro;
#CREDIT:Xythar;
#BANNER:Subarashii Shin Sekai-bn.avi;
#BACKGROUND:Subarashii Shin Sekai-bg.png;
#LYRICSPATH:;
#CDTITLE:nxc.png;
#MUSIC:Subarashii Shin Sekai.mp3;
#OFFSET:-2.175;
#SAMPLESTART:37.418;
#SAMPLELENGTH:13.812;
#SELECTABLE:YES;
#BPMS:0.000=139.000;
#LASTBEAT:228;
#STOPS:;
#BGCHANGES:-5.125=Subarashii Shin Sekai.avi=1.000=1=1=0,
227.063=Subarashii Shin Sekai-bg.png=1.000=1=0=1,
99999=-nosongbg-=1.000=0=0=0 // don't automatically add -songbackground-
;

//---------------dance-single - ----------------
#NOTES:
     dance-single:
     :
     Hard:
     7:
     0.398,0.356,0.096,0.106,0.034:
0000
0000
0000
0000
,
0000
0000
0000
0000
,
0000
0000
0000
0000
,
0000
0000
0000
0000
,
2000
0000
0100
0000
3001
0000
0100
0010
,
1000
0000
0001
0000
0010
0100
1000
0100
,
0010
0000
0001
0100
0010
0000
1000
0001
,
0010
0000
1100
0000
0010
0100
0001
0100
,
0020
1000
0230
0001
,
0310
0000
1000
0001
0010
0001
1000
0000
,
0010
0100
0001
0000
0010
0100
1000
0000
,
0001
0000
0100
0000
0010
0000
0100
0000
0001
0000
0000
1000
0000
0000
0100
0000
,
0010
0000
0000
0000
0001
0000
1000
0000
0010
0000
0000
0100
0000
0000
0001
0000
,
1000
0000
0000
0000
0100
0000
0010
0000
0001
0000
0000
0100
0000
0000
0010
0000
,
1000
0000
0001
0010
0100
0000
1000
0001
,
0000
0000
1000
0000
0010
0000
0100
0000
0001
0000
0000
0001
0000
0000
1000
0000
,
0100
0000
0000
0000
1000
0000
0010
0000
0100
0000
0000
0100
0000
0000
1000
0000
,
0100
0000
0000
0000
0001
0000
0010
0000
0100
0000
0000
1000
0000
0000
0001
0000
,
0100
0000
1000
0100
0001
0000
1000
0100
,
0001
0100
1000
0000
,
0001
0000
0000
0000
,
1000
0100
1000
0100
0010
0001
0100
0010
,
0000
0100
0001
0010
0000
0100
1000
0010
,
0100
0000
0100
0000
0100
0001
0010
0001
,
0000
0001
0000
1000
0020
0000
0100
0000
,
1030
0000
0011
0000
0100
1000
0010
0100
,
0000
0001
0010
0100
0000
1000
0010
0100
,
0000
0001
1000
0000
0100
0010
0100
0010
,
0000
0001
0000
1000
0001
0000
2100
0000
,
0010
0000
3001
0000
0100
0010
1000
0100
,
0000
1000
0010
0100
0000
0001
0010
0000
,
0200
0001
0010
1300
,
0010
0100
0001
0000
2100
0000
0001
0000
,
3010
0000
0100
0000
0001
0010
0100
1000
,
0000
0010
0100
0001
0000
1000
0100
1000
,
0000
0001
0100
0000
0001
1000
0100
1000
,
0001
0000
0000
0000
,
1001
1000
0100
0010
0000
0100
1000
0010
,
0100
0000
0001
0010
0100
0000
1010
0000
,
0100
0001
0010
0100
0000
1000
0010
0100
,
0001
0000
0010
0100
1000
0000
0101
0000
,
0020
0001
0100
1030
,
0200
0001
0010
1300
,
0010
0100
0001
0000
2100
0000
3001
0000
,
0010
0100
1000
0000
0102
0000
1003
0000
,
0010
0100
0001
0000
0010
0100
1000
0000
,
0001
0100
1000
0000
1000
0100
0001
0000
,
1000
0100
0010
0000
1000
0100
0010
0000
,
0001
0100
0010
0000
0001
0100
0010
0000
,
1000
0100
0001
0000
1000
0010
0001
0000
,
0001
0100
1000
0000
0001
0010
1000
0000
,
1000
0010
0100
0001
0010
0100
1000
0000
,
0010
0000
0100
0000
0001
0000
0000
0000
1000
0000
0000
0001
0000
0000
1000
0000
,
1001
0000
0000
0000
;

//---------------dance-single - ----------------
#NOTES:
     dance-single:
     :
     Medium:
     5:
     0.298,0.356,0.154,0.106,0.000:
0000
0000
0000
0000
,
0000
0000
0000
0000
,
0000
0000
0000
0000
,
0000
0000
0000
0000
,
0002
0100
1003
0010
,
0100
0000
0001
0010
,
0100
1000
0010
0000
,
0100
0000
0001
1000
,
0020
1000
2030
0100
,
3200
0010
0310
0001
,
0100
0010
1000
0001
,
1000
0000
0000
1000
0001
0000
0000
0001
,
1000
0000
0000
0100
0010
0000
0000
0010
,
0100
0000
0000
0001
0010
0000
0000
0100
,
1000
0000
0000
0010
0100
0000
0001
0000
,
1000
0100
0001
0000
0100
0000
0000
1000
,
0010
0000
0000
1000
0100
0000
0000
0010
,
0001
0000
0000
0100
0010
0000
0000
0100
,
0001
0000
0000
1000
0100
0000
1000
0000
,
0010
0000
0100
0000
,
0001
0000
0000
0000
,
1100
0000
0011
0000
0100
0000
1000
0100
,
0001
0100
1000
0010
,
0100
0100
0001
0000
,
0001
1000
0101
0010
,
1100
0000
0001
0100
1000
0000
0100
0000
,
0001
0010
0100
1000
,
0100
0010
0001
0000
0100
0000
1000
0000
,
1000
0100
0011
0100
,
1001
0000
0001
0100
1000
0000
0100
0000
,
0010
0010
1000
0000
,
0200
1000
0010
1300
,
0001
0100
0001
0000
1100
0000
0001
0000
,
1010
0000
0001
0010
1000
0000
0010
0000
,
0101
0000
0010
1000
0100
0000
1000
0000
,
0010
0010
0000
1000
,
0001
0000
0000
0000
,
0010
0000
0100
0000
1001
0000
0100
1000
,
0010
0100
1001
0000
,
0001
0000
1000
0000
0110
0000
0001
0010
,
0100
1000
0110
0000
,
0002
1000
0103
0000
,
2000
0001
3100
0000
,
0120
2030
3001
0000
,
0210
0302
1003
0000
,
1000
0010
0100
0010
,
1000
0100
0010
0001
,
0100
0010
1000
0100
,
1000
0010
0100
0001
,
0010
0000
0100
0000
1000
0100
1000
0000
,
0010
0000
0100
0000
0001
0100
0001
0000
,
1000
0000
0100
0000
0010
0001
0010
0000
,
0001
0100
0010
1000
,
1001
0000
0000
0000
;

//---------------dance-single - ----------------
#NOTES:
     dance-single:
     :
     Easy:
     3:
     0.200,0.229,0.010,0.077,0.000: // measure 1
0000
0000
0000
0000
,  // measure 2
0000
0000
0000
0000
,  // measure 3
0000
0000
0000
0000
,  // measure 4
0000
0000
0000
0000
,  // measure 5
0001
0000
0100
0000
,  // measure 6
0010
0000
1000
0100
,  // measure 7
1000
0000
0010
0000
,  // measure 8
0100
0000
0000
0000
,  // measure 9
0001
0000
0010
0000
,  // measure 10
0100
0000
1000
0010
,  // measure 11
1000
0000
0001
0000
,  // measure 12
1000
0000
0002
0000
,  // measure 13
0103
0000
2000
0000
,  // measure 14
3100
0000
0002
0000
,  // measure 15
0013
0000
2000
0000
,  // measure 16
3010
0000
0002
0000
,  // measure 17
1003
0000
0020
0000
,  // measure 18
0130
0000
0002
0000
,  // measure 19
0013
0000
0200
0000
,  // measure 20
1300
0000
0000
0000
,  // measure 21
0010
0000
0000
0000
,  // measure 22
1000
0100
1000
0010
,  // measure 23
0100
0000
0001
0000
,  // measure 24
0010
0100
1000
0010
,  // measure 25
0100
0001
1000
1000
,  // measure 26
1000
0000
0001
0100
,  // measure 27
0010
1000
1000
0100
,  // measure 28
1000
0000
0010
0100
,  // measure 29
0100
0001
0010
0001
,  // measure 30
1000
0000
0010
0100
,  // measure 31
0001
0100
0010
0000
,  // measure 32
1000
0100
0100
0010
,  // measure 33
0001
0100
0001
1000
,  // measure 34
0001
0000
1000
0010
,  // measure 35
0100
0010
1000
0100
,  // measure 36
0100
0010
0000
0001
,  // measure 37
1000
0000
0010
0000
,  // measure 38
1000
0100
1000
0000
,  // measure 39
0001
0000
0010
0000
,  // measure 40
0100
1000
0010
0000
,  // measure 41
0100
0000
0001
0000
,  // measure 42
1000
0001
1000
0000
,  // measure 43
0010
0100
0010
0000
,  // measure 44
1000
0100
1000
0000
,  // measure 45
0001
0100
0001
0000
,  // measure 46
1000
0010
0100
0001
,  // measure 47
1000
0100
0010
0001
,  // measure 48
1000
0010
0100
0010
,  // measure 49
1000
0100
0010
0000
,  // measure 50
0001
0100
0010
1000
,  // measure 51
0001
0010
0100
1000
,  // measure 52
0010
0000
0100
0000
,  // measure 53
0001
0000
1000
0000
,  // measure 54
1001
0000
0000
0000
;

//---------------dance-single - ----------------
#NOTES:
     dance-single:
     :
     Beginner:
     1:
     0.135,0.153,0.019,0.000,0.000: // measure 1
0000
0000
0000
0000
,  // measure 2
0000
0000
0000
0000
,  // measure 3
0000
0000
0000
0000
,  // measure 4
0000
0000
0000
0000
,  // measure 5
1000
0000
0001
0000
,  // measure 6
1000
0000
0000
0000
,  // measure 7
0010
0000
0100
0000
,  // measure 8
0010
0000
0000
0000
,  // measure 9
1000
0000
0100
0000
,  // measure 10
1000
0000
0000
0000
,  // measure 11
0001
0000
0100
0000
,  // measure 12
0001
0000
1000
0000
,  // measure 13
1000
0000
0001
0000
,  // measure 14
0001
0000
0100
0000
,  // measure 15
0100
0000
0010
0000
,  // measure 16
0010
0000
1000
0000
,  // measure 17
1000
0000
0100
0000
,  // measure 18
0100
0000
0010
0000
,  // measure 19
0010
0000
0001
0000
,  // measure 20
1001
0000
0000
0000
,  // measure 21
0000
0000
0000
0000
,  // measure 22
0010
0000
0100
0000
,  // measure 23
0001
0000
0010
0000
,  // measure 24
0100
0100
0100
0000
,  // measure 25
1000
0000
0010
0000
,  // measure 26
0100
0000
0001
0000
,  // measure 27
1000
0000
0100
0000
,  // measure 28
1000
0000
0010
0000
,  // measure 29
0100
0000
0001
0001
,  // measure 30
0001
0000
1000
0000
,  // measure 31
0100
0000
1000
0000
,  // measure 32
0010
0010
0010
0000
,  // measure 33
0100
0000
0001
0000
,  // measure 34
0010
0000
0100
0000
,  // measure 35
1000
0000
0010
0000
,  // measure 36
0100
0000
0000
0000
,  // measure 37
0001
0000
0000
0000
,  // measure 38
1000
0000
0100
0000
,  // measure 39
1000
0000
0010
0000
,  // measure 40
0100
0000
0001
0000
,  // measure 41
0010
0000
0100
0000
,  // measure 42
1000
1000
1000
0000
,  // measure 43
0001
0000
1000
0000
,  // measure 44
0001
0001
0001
0000
,  // measure 45
1000
0000
0010
0000
,  // measure 46
0100
0000
0001
0000
,  // measure 47
0010
0000
0100
0000
,  // measure 48
1000
0000
0010
0000
,  // measure 49
0100
0000
0001
0000
,  // measure 50
1000
0000
0100
0000
,  // measure 51
1000
0000
0010
0000
,  // measure 52
0100
0000
0001
0000
,  // measure 53
0010
0000
0100
0000
,  // measure 54
1001
0000
0000
0000
;
