#TITLE:ストロボナイツ;
#SUBTITLE:;
#ARTIST:livetune feat. 初音ミク;
#TITLETRANSLIT:Strobe Nights;
#SUBTITLETRANSLIT:;
#ARTISTTRANSLIT:livetune feat. Miku Hatsune;
#CREDIT:Xythar;
#BANNER:Strobe Nights-bn.avi;
#BACKGROUND:Strobe Nights-bg.png;
#LYRICSPATH:;
#CDTITLE:cdtitle.png;
#MUSIC:Strobe Nights.ogg;
#OFFSET:0.000;
#SAMPLESTART:84.000;
#SAMPLELENGTH:15.260;
#SELECTABLE:YES;
#BPMS:0.000=125.000;
#STOPS:;
#BGCHANGES:4.854=Strobe Nights.avi=1.000=1=0=0,
99999=-nosongbg-=1.000=0=0=0 // don't automatically add -songbackground-
;

//---------------dance-single - ----------------
#NOTES:
     dance-single:
     :
     Hard:
     7:
     0.383,0.381,0.022,0.347,0.092: // measure 1
0000
0000
0000
0000
,  // measure 2
0000
0000
0000
0000
,  // measure 3
0000
0000
0000
0000
,  // measure 4
0000
0000
0000
0010
,  // measure 5
2000
0000
0002
0000
,  // measure 6
3003
0000
0010
0100
,  // measure 7
0002
0000
2000
0000
,  // measure 8
3003
0000
0000
0000
0100
0000
0010
0001
,  // measure 9
2000
0000
0010
0000
3010
0000
0100
0001
,  // measure 10
1000
0100
0010
0001
,  // measure 11
2000
0000
3000
0010
,  // measure 12
0200
0000
0300
0001
,  // measure 13
0020
0000
0200
0000
,  // measure 14
0330
1000
0010
1000
,  // measure 15
0002
0000
0100
0000
1003
0000
0010
0100
,  // measure 16
0002
0000
0003
1000
,  // measure 17
0200
0000
0001
0000
1300
0000
0010
0100
,  // measure 18
0001
0000
0010
0100
1000
0000
0001
0000
,  // measure 19
0200
1000
0010
0301
,  // measure 20
1001
0000
0000
0000
,  // measure 21
0002
0000
0000
0100
0000
0000
0103
0000
0000
0000
1000
0000
0100
0000
0000
0000
,  // measure 22
0002
0000
0000
0010
0000
0000
0013
0000
0000
0000
1000
0000
0010
0000
0001
0000
,  // measure 23
0200
0000
0000
0010
0000
0000
0310
0000
0000
0000
0001
0000
0010
0000
0000
0000
,  // measure 24
2000
0000
0000
0100
0000
0000
3100
0000
1000
0000
0010
0000
0100
0000
0001
0000
,  // measure 25
0020
0000
0000
0100
0000
0000
0130
0000
0000
0000
0001
0000
0100
0000
0000
0000
,  // measure 26
2000
0000
0000
0010
0000
0000
3010
0000
0000
0000
0001
0000
0010
0000
1000
0000
,  // measure 27
0200
0000
0000
0010
0000
0000
0310
0000
0000
0000
1000
0000
0010
0000
0000
0000
,  // measure 28
0002
0000
0000
0100
0000
0000
0103
0000
0001
0000
0010
0000
0100
0000
1000
0000
,  // measure 29
0001
0000
0100
0000
0010
1000
0001
1000
,  // measure 30
0000
0001
0010
0100
0000
0001
0100
0010
,  // measure 31
0000
0001
0010
0100
1000
0010
0100
0001
,  // measure 32
0000
1000
0100
1000
0020
0000
0130
0000
,  // measure 33
0001
0000
0010
0000
0100
1000
0010
0100
,  // measure 34
0000
1000
0100
0001
0000
0001
0010
1000
,  // measure 35
0000
0001
0100
1000
0000
0001
0010
0100
,  // measure 36
1000
0000
0010
0000
0100
0001
0010
0001
,  // measure 37
1000
0000
0010
0000
0100
0001
1000
0001
,  // measure 38
0000
1000
0010
0100
0000
1000
0100
0010
,  // measure 39
0000
1000
0100
0001
0100
1000
0100
0001
,  // measure 40
0000
0100
1000
0010
0000
0100
0001
0000
,  // measure 41
0010
0000
0100
0000
1000
0010
1000
0001
,  // measure 42
0000
0100
1000
0100
0010
0000
1000
0001
,  // measure 43
0020
1000
0032
0100
,  // measure 44
2003
0000
0000
0000
3010
0000
0100
0001
,  // measure 45
2000
0000
0000
0100
0000
0000
3100
0000
0000
0000
0010
0000
0001
0000
0000
0000
,  // measure 46
0200
0000
0000
0010
0000
0000
0310
0000
0000
0000
1000
0000
0100
0000
1000
0000
,  // measure 47
0002
0000
0000
0100
0000
0000
0103
0000
0000
0000
0010
0000
1000
0000
0000
0000
,  // measure 48
0002
0000
0000
0010
0000
0000
0013
0000
0000
0000
0100
0000
1000
0000
0001
0000
,  // measure 49
2000
0000
0010
0000
3001
0000
0100
0010
,  // measure 50
2000
0100
3002
0100
,  // measure 51
2003
0000
0000
0010
0000
0000
3010
0000
0000
0000
0100
0000
0001
0000
1000
0000
,  // measure 52
0002
0010
1000
0103
,  // measure 53
0020
0000
0000
1000
0000
0000
1030
0000
0000
0000
0001
0000
0010
0000
0000
0000
,  // measure 54
0200
0000
0000
1000
0000
0000
1300
0000
0000
0000
0001
0000
0100
0000
0010
0000
,  // measure 55
0100
0000
1001
0000
0001
0000
0100
0010
,  // measure 56
2000
0100
0001
3010
,  // measure 57
0200
0000
0000
0001
0000
0000
0301
0000
0000
0000
0010
0000
0100
0000
0000
0000
,  // measure 58
2000
0000
0000
0010
0000
0000
3010
0000
0000
0000
0100
0000
0001
0000
0000
0000
,  // measure 59
0010
0000
0000
0100
0000
1000
0001
0000
,  // measure 60
1001
0000
0000
0000
,  // measure 61
2000
0000
0000
0100
0000
0000
3100
0000
0000
0000
0001
0000
0100
0000
0000
0000
,  // measure 62
2000
0000
0000
0010
0000
0000
3010
0000
0000
0000
0001
0000
0010
0000
1000
0000
,  // measure 63
0200
0000
0000
0010
0000
0000
0310
0000
0000
0000
1000
0000
0010
0000
0000
0000
,  // measure 64
0002
0000
0000
0100
0000
0000
0103
0000
0001
0000
0010
0000
0100
0000
1000
0000
,  // measure 65
0010
0000
0000
0100
0000
0000
0002
0000
0000
0000
1000
0000
1003
0000
0000
0000
,  // measure 66
0001
0000
0000
0010
0000
0000
0200
0000
0000
0000
1000
0000
1300
0000
0010
0000
,  // measure 67
0100
0000
0000
0001
0000
0000
0020
0000
0000
0000
0100
0000
0130
0000
0000
0000
,  // measure 68
1000
0000
0000
0010
0000
0000
1000
0000
0001
0000
0010
0000
0100
0000
1000
0000
,  // measure 69
0020
0000
0000
0000
0000
0100
0130
0000
;

//---------------dance-single - ----------------
#NOTES:
     dance-single:
     :
     Medium:
     6:
     0.351,0.406,0.037,0.369,0.000: // measure 1
0000
0000
0000
0000
,  // measure 2
0000
0000
0000
0000
,  // measure 3
0000
0000
0000
0000
,  // measure 4
0000
0000
0000
0001
,  // measure 5
2000
0000
3020
0000
,  // measure 6
0030
0000
0100
0001
,  // measure 7
2000
0000
3002
0000
,  // measure 8
0003
0000
1000
0010
,  // measure 9
2000
0000
3100
0010
,  // measure 10
0002
0000
0103
0010
,  // measure 11
2000
0000
3000
0001
,  // measure 12
0200
0000
0300
0010
,  // measure 13
2000
0000
3200
0000
,  // measure 14
0300
0010
0001
0100
,  // measure 15
0010
0000
1000
0000
0001
0000
1000
0020
,  // measure 16
0000
0000
0030
0100
,  // measure 17
0002
0000
2003
0000
,  // measure 18
3001
0010
0100
1000
,  // measure 19
0020
0000
0230
0000
,  // measure 20
0301
0000
1000
0001
,  // measure 21
2000
0000
0010
0000
3001
0100
0010
0000
,  // measure 22
2000
0000
0100
0000
3001
0010
0100
1000
,  // measure 23
0002
0000
0100
0000
1003
0010
0100
0000
,  // measure 24
0002
0000
0010
0000
1003
0100
0010
0100
,  // measure 25
2000
0000
0001
0000
3100
1000
0010
0000
,  // measure 26
0200
0000
0001
0000
0310
1000
0001
1000
,  // measure 27
0200
0000
0001
0000
1300
0010
0100
0000
,  // measure 28
0002
0100
1000
0013
,  // measure 29
0100
0000
1000
0000
0001
0000
0100
0010
,  // measure 30
0000
1000
0100
1000
0000
0001
0100
0001
,  // measure 31
0000
1000
0010
1000
0002
0000
0100
0000
,  // measure 32
0013
0000
0100
1000
0001
0000
0000
0000
,  // measure 33
1000
0000
0010
0000
0100
0000
0001
0010
,  // measure 34
0000
0100
1000
0000
0010
0000
0100
0001
,  // measure 35
1000
0000
0100
0000
0001
0000
0100
1000
,  // measure 36
0001
0000
1000
0010
,  // measure 37
0200
0000
0001
0000
0310
0000
1000
0001
,  // measure 38
0000
0010
0100
0010
0000
0001
1000
0001
,  // measure 39
0000
1000
0010
0000
0100
0000
1000
0100
,  // measure 40
0001
0000
1000
0100
0001
0000
0100
0000
,  // measure 41
2000
0000
0010
0000
3100
0000
0010
0001
,  // measure 42
0100
0000
0010
1000
0200
0000
0001
0000
,  // measure 43
1300
0000
0001
0000
1000
0010
1000
0002
,  // measure 44
0000
0000
0000
1003
0000
0000
0001
0000
,  // measure 45
2100
0000
0001
0000
3010
0000
0100
0001
,  // measure 46
0010
0100
2001
0100
,  // measure 47
3010
0000
0100
0001
0010
0000
0100
0000
,  // measure 48
1000
0000
0000
0000
0001
0000
0100
0010
,  // measure 49
2000
0000
0100
0000
3001
0000
0010
0100
,  // measure 50
2000
0000
0010
0000
3001
0000
0100
0010
,  // measure 51
0200
0000
1000
0000
0010
0000
0301
0010
,  // measure 52
0100
0000
1000
0010
,  // measure 53
0102
0000
1000
0000
0013
0000
0100
1000
,  // measure 54
0010
0100
1002
0100
,  // measure 55
0013
0000
0100
1000
0010
0000
0100
0001
,  // measure 56
0020
1000
0100
0031
,  // measure 57
1000
0000
0010
0100
0001
0000
1000
0001
,  // measure 58
0020
0000
1000
0000
0031
0000
0010
0100
,  // measure 59
1000
0000
0001
0000
,  // measure 60
1001
0000
2000
0010
,  // measure 61
3002
0000
0100
0000
1003
0100
0010
0000
,  // measure 62
0002
0000
0100
0000
0013
0100
1000
0010
,  // measure 63
0200
0000
1000
0000
0310
1000
0100
0000
,  // measure 64
0020
0000
1000
0000
0031
0010
0100
1000
,  // measure 65
0002
0000
0203
0000
1300
0100
0001
0000
,  // measure 66
2000
0000
3200
0000
0301
0100
1000
0010
,  // measure 67
0200
0000
2300
0000
3100
0001
0010
0000
,  // measure 68
2000
0000
3020
0000
0031
0100
0010
1000
,  // measure 69
0100
0000
0000
0000
0000
1000
0001
0000
;

//---------------dance-single - ----------------
#NOTES:
     dance-single:
     :
     Easy:
     3:
     0.222,0.279,0.000,0.251,0.000: // measure 1
0000
0000
0000
0000
,  // measure 2
0000
0000
0000
0000
,  // measure 3
0000
0000
0000
0000
,  // measure 4
0000
0000
0000
0000
,  // measure 5
2000
0000
3010
0000
,  // measure 6
0000
0000
1000
0000
,  // measure 7
0002
0000
0103
0000
,  // measure 8
0000
0000
0001
0000
,  // measure 9
1000
0000
0100
0000
,  // measure 10
1000
0000
0001
0000
,  // measure 11
2000
0000
0000
0000
,  // measure 12
3010
0000
0000
0000
,  // measure 13
2000
0000
3100
0000
,  // measure 14
0000
0000
1000
0000
,  // measure 15
0001
0000
1000
0000
,  // measure 16
0020
0000
0030
0000
,  // measure 17
1000
0000
0001
0000
,  // measure 18
0010
0000
0001
0000
,  // measure 19
2000
0000
0000
0000
,  // measure 20
3001
0000
0000
0000
,  // measure 21
2000
0010
3010
0100
,  // measure 22
0002
0010
0013
0001
,  // measure 23
2000
0010
3010
1000
,  // measure 24
0002
0010
0013
0100
,  // measure 25
2000
0010
3010
1000
,  // measure 26
0002
0010
0013
0001
,  // measure 27
2000
0100
3100
1000
,  // measure 28
0001
0100
0010
1000
,  // measure 29
0001
0000
1000
0000
,  // measure 30
0001
0000
1000
0010
,  // measure 31
0100
0000
0001
0000
,  // measure 32
0010
0001
2000
0000
,  // measure 33
3001
0000
0100
0000
,  // measure 34
0010
0000
1000
0001
,  // measure 35
0010
0000
0001
1000
,  // measure 36
0010
0000
0000
0000
,  // measure 37
1000
0100
1000
0010
,  // measure 38
0100
0000
0001
0000
,  // measure 39
0010
0000
0001
1000
,  // measure 40
0010
0000
0100
0001
,  // measure 41
1000
1000
0001
0000
,  // measure 42
1000
1000
0010
0000
,  // measure 43
0100
0100
0001
0000
,  // measure 44
2000
0000
3010
0000
,  // measure 45
1000
0100
2000
0000
,  // measure 46
3001
0000
1000
0010
,  // measure 47
0100
0001
0200
0000
,  // measure 48
0310
0000
1000
0100
,  // measure 49
2000
0000
3002
0000
,  // measure 50
1003
0010
0100
0010
,  // measure 51
2000
0000
0000
3001
,  // measure 52
0010
0000
0001
0000
,  // measure 53
1000
0010
0200
0000
,  // measure 54
0301
1000
0100
1000
,  // measure 55
0002
0000
1003
0010
,  // measure 56
2000
0000
3001
0010
,  // measure 57
0200
0000
1300
0010
,  // measure 58
0200
0000
0301
1000
,  // measure 59
0001
0000
1000
0000
,  // measure 60
0001
0000
0000
0000
,  // measure 61
2000
0010
3010
0100
,  // measure 62
0002
0010
0013
0100
,  // measure 63
2000
0010
3010
0100
,  // measure 64
0002
0010
0013
0100
,  // measure 65
1000
0002
1000
1003
,  // measure 66
0001
2000
0010
3010
,  // measure 67
1000
0020
1000
1030
,  // measure 68
0001
0020
0100
0130
,  // measure 69
2000
0000
0000
3001
;

//---------------dance-single - ----------------
#NOTES:
     dance-single:
     :
     Beginner:
     1:
     0.097,0.126,0.000,0.059,0.000: // measure 1
0000
0000
0000
0000
,  // measure 2
0000
0000
0000
0000
,  // measure 3
0000
0000
0000
0000
,  // measure 4
0000
0000
0000
0000
,  // measure 5
2000
0000
0000
0000
,  // measure 6
3000
0000
0000
0000
,  // measure 7
0002
0000
0000
0000
,  // measure 8
0003
0000
0000
0000
,  // measure 9
2000
0000
0000
0000
,  // measure 10
3000
0000
0000
0000
,  // measure 11
0002
0000
0000
0000
,  // measure 12
0003
0000
0000
0000
,  // measure 13
0020
0000
0000
0000
,  // measure 14
0030
0000
0000
0000
,  // measure 15
0200
0000
0000
0000
,  // measure 16
0300
0000
0000
0000
,  // measure 17
0020
0000
0000
0000
,  // measure 18
0030
0000
0000
0000
,  // measure 19
0200
0000
0000
0000
,  // measure 20
0300
0000
0000
0000
,  // measure 21
0001
0000
0001
0000
,  // measure 22
1000
0000
1000
0000
,  // measure 23
0010
0000
0010
0000
,  // measure 24
0100
0000
0100
0000
,  // measure 25
0001
0000
0001
0000
,  // measure 26
1000
0000
1000
0000
,  // measure 27
0010
0000
0010
0000
,  // measure 28
0100
0000
0100
0000
,  // measure 29
0001
0000
0000
0000
,  // measure 30
1000
0000
0000
0000
,  // measure 31
0010
0000
0100
0000
,  // measure 32
0010
0000
0000
0000
,  // measure 33
1000
0000
0000
0000
,  // measure 34
0001
0000
0000
0000
,  // measure 35
0010
0000
0100
0000
,  // measure 36
0010
0000
0000
0000
,  // measure 37
0100
0000
0000
0000
,  // measure 38
0010
0000
0000
0000
,  // measure 39
0001
0000
1000
0000
,  // measure 40
0001
0000
0000
0000
,  // measure 41
1000
0000
0000
0000
,  // measure 42
0010
0000
0000
0000
,  // measure 43
0100
0000
0000
0000
,  // measure 44
0001
0000
1000
0000
,  // measure 45
0001
0000
0001
0000
,  // measure 46
0000
0000
1000
0000
,  // measure 47
1000
0000
0010
0000
,  // measure 48
0000
0000
0100
0000
,  // measure 49
0100
0000
0001
0000
,  // measure 50
0001
0000
1000
0000
,  // measure 51
1000
0000
0000
0000
,  // measure 52
0001
0000
0000
0000
,  // measure 53
1000
0000
1000
0000
,  // measure 54
0000
0000
0010
0000
,  // measure 55
0010
0000
0100
0000
,  // measure 56
0100
0000
0001
0000
,  // measure 57
0001
0000
0000
0000
,  // measure 58
1000
0000
0000
0000
,  // measure 59
0001
0000
0000
0000
,  // measure 60
1000
0000
0000
0000
,  // measure 61
0010
0000
0010
0000
,  // measure 62
0100
0000
0100
0000
,  // measure 63
0001
0000
0001
0000
,  // measure 64
0010
0000
0010
0000
,  // measure 65
0100
0000
0100
0000
,  // measure 66
1000
0000
1000
0000
,  // measure 67
0001
0000
0001
0000
,  // measure 68
1000
0000
1000
0000
,  // measure 69
0010
0000
0000
0000
;
