#TITLE:Starry Sky;
#SUBTITLE:;
#ARTIST:capsule;
#TITLETRANSLIT:;
#SUBTITLETRANSLIT:;
#ARTISTTRANSLIT:;
#CREDIT:Xythar;
#BANNER:Starry Sky.png;
#BACKGROUND:Starry Sky-bg.png;
#LYRICSPATH:;
#CDTITLE:Sugarless GiRL.png;
#MUSIC:Starry Sky.mp3;
#OFFSET:-0.678;
#SAMPLESTART:53.298;
#SAMPLELENGTH:15.120;
#SELECTABLE:YES;
#BPMS:0.000=127.000;
#STOPS:;
#BGCHANGES:;

//---------------dance-single - ----------------
#NOTES:
     dance-single:
     :
     Hard:
     8:
     0.432,0.463,0.238,0.111,0.123: // measure 1
0000
0000
0000
0000
,  // measure 2
0000
0000
0000
0000
,  // measure 3
0000
0000
0000
0000
,  // measure 4
0000
0000
0000
0000
,  // measure 5
0000
0000
0000
0000
,  // measure 6
0000
0000
0000
0000
,  // measure 7
0000
0000
0000
0000
,  // measure 8
0000
0000
0000
0000
,  // measure 9
1000
0001
1000
0001
,  // measure 10
0100
0010
0100
0010
,  // measure 11
1000
0100
0010
0000
0001
0100
0010
0000
,  // measure 12
2000
0000
0000
0000
,  // measure 13
3001
0000
0000
0100
0000
0000
0010
0000
1000
0000
0100
0000
0010
0000
0001
0000
,  // measure 14
0100
0000
0000
0010
0000
0000
1000
0000
0001
0000
0010
0000
0100
0000
1000
0000
,  // measure 15
0001
0000
0000
0100
0000
0000
0010
0000
0100
0000
0001
0000
0010
0000
0100
0000
,  // measure 16
1000
0000
0000
0001
0000
0000
0100
0000
0010
0000
1000
0000
0100
0000
0010
0000
,  // measure 17
0001
0000
0000
1000
0000
0000
0100
0000
1000
0000
0010
0000
0100
0000
0010
0000
,  // measure 18
0100
0000
0000
0001
0000
0000
1000
0000
0001
0000
0010
0000
0100
0000
1000
0000
,  // measure 19
0001
0000
0000
0100
0000
0000
1000
0000
0100
0000
0001
0000
0010
0000
0100
0000
,  // measure 20
1000
0000
0000
0010
0000
0000
0100
0000
1000
0000
0100
0000
0001
0000
1000
0000
,  // measure 21
0001
0010
0100
0010
0001
0100
0010
0000
,  // measure 22
1000
0100
0010
0000
0101
0000
1010
0000
,  // measure 23
0001
0100
0010
1000
0100
0010
0001
0000
,  // measure 24
1000
0100
0010
0100
1000
1001
0010
0110
,  // measure 25
1000
0000
0000
0000
,  // measure 26
0001
0000
0000
0000
,  // measure 27
0010
0000
0000
0000
,  // measure 28
0200
0000
0000
0000
0000
0000
0300
0000
1000
0001
1000
0000
1001
0000
0001
0000
,  // measure 29
0100
0010
1000
0100
0010
0000
1001
0001
,  // measure 30
0100
0010
0100
0001
1000
0000
1100
0000
,  // measure 31
1000
0100
0011
0000
0001
0100
1010
0000
,  // measure 32
0100
0010
1001
0000
0010
0100
1001
0000
,  // measure 33
0001
0010
0100
1000
0001
0100
1010
0000
,  // measure 34
1000
0100
0010
0001
1000
0010
0101
0000
,  // measure 35
0001
0010
1100
0000
1000
0010
0101
0000
,  // measure 36
0001
1000
0110
0000
1000
0001
0110
0001
,  // measure 37
2000
0000
0100
0000
3001
0010
0100
1000
,  // measure 38
0020
0000
0001
0000
0130
0010
1000
0100
,  // measure 39
0020
0000
1000
0000
0130
1000
0010
0100
,  // measure 40
0002
0000
0010
0000
1003
0100
0010
0001
,  // measure 41
2000
0000
0010
0000
3100
0001
0100
1000
,  // measure 42
0020
0000
0001
0000
1030
0100
0010
0001
,  // measure 43
2000
0000
0010
0000
0100
0000
3001
0100
,  // measure 44
0020
0000
0000
0000
1030
0000
0000
0000
0001
1000
0001
0000
1001
0000
0000
0000
,  // measure 45
0001
0010
0100
1000
0010
0100
0001
1000
,  // measure 46
0100
0000
0000
0010
0000
0000
0001
0000
0000
0100
0000
0000
0010
0000
1000
0000
,  // measure 47
0100
0010
0100
1000
0010
0100
1000
0100
,  // measure 48
0001
0000
0000
0010
0000
0000
0100
0000
0000
1000
0000
0000
0010
0000
0100
0000
,  // measure 49
0001
0010
0100
1000
0010
0100
0001
1000
,  // measure 50
0100
0000
0000
0010
0000
0000
0001
0000
0000
0100
0000
0000
0010
0000
1000
0000
,  // measure 51
0100
1000
0010
0100
0001
0100
0010
1000
,  // measure 52
0100
1000
0010
0100
0001
0010
0100
1000
,  // measure 53
0000
0000
0100
0000
1000
0000
0001
0000
0000
0000
0001
0000
0010
0000
0100
1000
,  // measure 54
0000
0000
0010
0000
0100
0000
0001
1000
0000
0000
0100
0000
1000
0000
0010
0100
,  // measure 55
0000
0000
1000
0000
0100
0000
0001
0100
0000
0000
0001
0000
0010
0000
0100
0010
,  // measure 56
0000
0000
1000
0000
0010
0000
0001
0010
0000
0000
0100
0000
1000
0000
0001
1000
,  // measure 57
0000
0000
0010
0000
0100
0000
0001
1000
0000
0000
0100
0000
0010
0000
0001
1000
,  // measure 58
0000
0000
0001
0000
1000
0000
0100
0010
0000
0000
0001
0000
1000
0000
0010
0100
,  // measure 59
0000
0000
0001
0000
0010
0000
0100
1000
0000
0000
0001
0000
0100
0000
0010
1000
,  // measure 60
0000
0000
0001
0000
0001
1000
0100
1000
0000
0000
0000
0000
1001
0000
0000
0000
,  // measure 61
1010
1010
0011
0011
,  // measure 62
1100
0101
1100
0101
,  // measure 63
2100
3010
0102
0013
,  // measure 64
2002
0000
0000
0000
,  // measure 65
0000
0000
0000
0000
,  // measure 66
3003
0000
0000
0000
;

//---------------dance-single - ----------------
#NOTES:
     dance-single:
     :
     Medium:
     6:
     0.336,0.437,0.055,0.119,0.000:
0000
0000
0000
0000
,
0000
0000
0000
0000
,
0000
0000
0000
0000
,
0000
0000
0000
0000
,
0000
0000
0000
0000
,
0000
0000
0000
0000
,
0000
0000
0000
0000
,
0000
0000
0000
0000
,
1000
1000
1000
1000
,
0001
0001
0001
0001
,
1000
0001
1000
0001
,
2000
0000
0000
0000
,
3001
0000
0100
0000
0010
1000
0010
0000
,
1000
0100
1000
0000
0001
0000
0010
0000
,
0100
0000
1000
0000
0010
0100
0010
0000
,
0100
0001
0100
0000
0001
0000
1100
0000
,
0001
0000
1000
0000
0100
1000
0010
0000
,
0100
0001
1000
0000
0100
0000
0011
0000
,
0100
1000
0010
0000
0100
0001
1000
0000
,
0001
0100
0010
0100
0001
0000
1100
0000
,
0001
0100
0001
0000
1000
0100
1000
0000
,
0001
0010
0001
1000
0010
1000
0001
0000
,
0100
0000
0010
0000
1000
0100
1000
0000
,
0010
0100
0001
0100
0010
0000
1000
0000
,
1001
0000
0000
0000
,
0000
0000
0000
0000
,
0001
0000
0000
0000
,
0000
0000
0000
0000
1000
0001
1000
0001
,
1000
0000
0100
0010
0002
0000
1000
0000
,
0103
0000
0010
1000
0200
0000
1000
0000
,
0010
0000
1300
0000
0001
0010
1000
0000
,
0010
0000
0001
1000
0010
0100
0001
0010
,
0200
0000
1000
0000
0310
0000
0100
1000
,
0020
0000
0100
0000
1030
0000
0001
0100
,
1000
0000
1000
0100
0001
0000
0001
0010
,
1000
0000
1000
0010
0001
0000
0100
0010
,
0200
1000
0010
0301
,
0020
1000
0100
0031
,
2000
0010
0001
3100
,
0002
0100
1000
0013
,
0200
0001
0010
1300
,
0020
0001
0100
1030
,
0002
0010
1000
0100
,
1003
0000
0001
0000
1000
0001
1000
0000
,
0001
0100
0001
0100
0010
1000
0010
1000
,
0001
0010
0100
1000
,
0100
0010
0100
0010
0001
1000
0001
1000
,
0010
0100
0001
1000
,
0100
0010
0001
0010
0100
0010
0001
0010
,
0100
1000
0010
0100
,
0010
1000
0001
1000
0100
1000
0001
1000
,
0010
0100
0001
0100
0010
1000
0100
1000
,
0001
0000
1000
0100
1000
0000
0010
0100
,
0010
0000
0100
0001
1000
0000
0100
1000
,
0001
0000
0100
0010
1000
0000
0100
0010
,
0001
0000
1000
0010
0100
0000
0001
0100
,
0010
0000
1000
0001
0010
0000
0001
1000
,
0010
0000
0100
0010
1000
0000
0010
0100
,
0001
0000
0010
0100
1000
0000
0100
0010
,
0002
1000
0023
0100
,
0130
1000
0001
1000
,
0001
0000
1000
0001
1000
0000
0001
1000
,
0001
1100
0101
1100
,
0002
0000
0000
0000
,
0000
0000
0000
0000
,
0003
0000
0000
0000
;

//---------------dance-single - ----------------
#NOTES:
     dance-single:
     :
     Easy:
     4:
     0.251,0.309,0.182,0.119,0.000:
0000
0000
0000
0000
,
0000
0000
0000
0000
,
0000
0000
0000
0000
,
0000
0000
0000
0000
,
0000
0000
0000
0000
,
0000
0000
0000
0000
,
0000
0000
0000
0000
,
0000
0000
0000
0000
,
1000
0000
1000
0000
,
1000
0000
1000
0000
,
0001
0001
0001
0001
,
2002
0000
0000
3003
,
0001
0100
0010
1000
,
0100
1000
0010
0010
,
0100
0001
0010
0100
,
0010
0001
0100
0100
,
0010
1000
0100
1000
,
0001
0001
1000
1000
,
0010
0100
0001
0010
,
0100
1000
0010
0010
,
1001
0001
1000
1000
,
0100
0100
0010
0010
,
0001
0100
0010
0100
,
0001
0010
0100
1000
,
1001
0000
0000
0000
,
0000
0000
0000
0000
,
0000
0000
0000
0000
,
0000
0000
1000
1000
,
0001
0100
0020
1000
,
1030
0100
0020
0001
,
0031
0100
0010
0100
,
0001
1000
0100
1000
,
0010
0100
0002
1000
,
1003
0100
0020
0001
,
0031
0100
0010
0100
,
0001
0010
0100
1000
,
0020
0100
1030
0100
,
0020
0001
0130
1000
,
0020
0100
1030
0100
,
0020
0001
0130
0001
,
2000
0100
3010
0100
,
0002
0010
0103
1000
,
0020
0001
0130
0001
,
2000
0010
3100
1001
,
0001
0100
0010
1000
,
0100
0010
0001
0100
,
0010
0100
0001
0010
,
0100
1000
0010
0100
,
0001
1000
0100
0010
,
0001
0100
0010
1000
,
0100
1000
0010
0100
,
0001
1000
0100
1000
,
1001
0000
0110
0000
,
0011
0000
1100
0000
,
1010
0000
0101
0000
,
1001
0000
0110
0000
,
1001
0000
0011
0000
,
1100
0000
1010
0000
,
0101
0000
1001
0000
,
1001
1001
1001
0000
,
0001
1000
0001
1000
,
0001
1000
0001
1000
,
1001
0000
1001
0000
,
2000
0000
0000
0000
,
0000
0000
0000
0000
,
3000
0000
0000
0000
;

//---------------dance-single - ----------------
#NOTES:
     dance-single:
     :
     Beginner:
     1:
     0.124,0.180,0.040,0.103,0.000:
0000
0000
0000
0000
,
0000
0000
0000
0000
,
0000
0000
0000
0000
,
0000
0000
0000
0000
,
0000
0000
0000
0000
,
0000
0000
0000
0000
,
0000
0000
0000
0000
,
0000
0000
0000
0000
,
1000
0000
0000
0000
,
0001
0000
0000
0000
,
1000
0000
0001
0000
,
1000
0000
0000
0000
,
0001
0000
0010
0000
,
0001
0000
0100
0000
,
0001
0000
1000
0000
,
0100
0000
1000
0000
,
0010
0000
0100
0000
,
0001
0000
1000
0000
,
0100
0000
1000
0000
,
0010
0000
0100
0000
,
0001
0000
0010
0000
,
0100
0000
1000
0000
,
0010
0000
0100
0000
,
0010
0000
1000
0000
,
0100
0000
0000
0000
,
0000
0000
0000
0000
,
0000
0000
0000
0000
,
0000
0000
0000
0000
,
1000
0000
0010
0000
,
0100
0000
0010
0000
,
1000
0000
1001
0000
,
0001
0000
1001
0000
,
1000
0000
0100
0000
,
0010
0000
0001
0000
,
0100
0000
0110
0000
,
0010
0000
0110
0000
,
0200
0000
0000
0000
,
2300
0000
0000
0000
,
3020
0000
0000
0000
,
0230
0000
0000
0000
,
0302
0000
0000
0000
,
0023
0000
0000
0000
,
0230
0000
0000
0000
,
2300
0000
0000
0000
,
3001
0000
0100
0000
,
0010
0010
0010
0000
,
1000
0000
0100
0000
,
0010
0010
0010
0000
,
0001
0000
1000
0000
,
0100
0100
0100
0000
,
1000
0000
0001
0000
,
0010
0010
0010
0000
,
0200
0000
0000
0000
,
2300
0000
0000
0000
,
3020
0000
0000
0000
,
0230
0000
0000
0000
,
0301
0000
1000
0000
,
0001
0000
1000
0000
,
0001
0001
0000
1000
,
1000
0000
1001
0000
,
0010
0000
0000
0000
,
0100
0000
0000
0000
,
0001
0000
1000
0000
,
0002
0000
0000
0000
,
0000
0000
0000
0000
,
0003
0000
0000
0000
;
