#TITLE:So Merry Christmas;
#SUBTITLE:;
#ARTIST:mihimaru GT;
#TITLETRANSLIT:;
#SUBTITLETRANSLIT:;
#ARTISTTRANSLIT:;
#CREDIT:Xythar;
#BANNER:So Merry Christmas.png;
#BACKGROUND:So Merry Christmas-bg.png;
#LYRICSPATH:;
#CDTITLE:cdtitle.png;
#MUSIC:So Merry Christmas.mp3;
#OFFSET:-0.031;
#SAMPLESTART:49.200;
#SAMPLELENGTH:9.606;
#SELECTABLE:YES;
#BPMS:0.000=100.000,152.000=96.000;
#STOPS:;
#BGCHANGES:0.000=So Merry Christmas.avi=1.000=1=1=0,
99999=-nosongbg-=1.000=0=0=0 // don't automatically add -songbackground-
;

//---------------dance-single - ----------------
#NOTES:
     dance-single:
     :
     Hard:
     6:
     0.351,0.367,0.129,0.059,0.000: // measure 1
0000
0000
0000
0000
,  // measure 2
0000
0000
0000
0000
,  // measure 3
0000
0000
0000
0000
,  // measure 4
0000
0000
0000
0000
,  // measure 5
1000
0001
0001
0100
0010
1000
1000
0100
,  // measure 6
0010
0001
0001
1000
1000
1000
0001
1000
,  // measure 7
0200
0010
0010
0000
2300
0001
0001
0000
,  // measure 8
3100
0000
0010
1000
1000
0001
0001
0000
,  // measure 9
1000
1000
0010
0100
0001
0010
0010
0100
,  // measure 10
0100
1000
0010
1000
0001
0001
1000
0000
,  // measure 11
0001
0010
0100
0100
1000
0010
0100
0001
,  // measure 12
0000
1000
1000
0100
0010
0001
0100
0010
,  // measure 13
1000
0100
0011
0000
0100
1000
0010
0100
,  // measure 14
0001
0010
1100
0000
0010
0100
0001
1000
,  // measure 15
0110
0000
0001
0100
0010
1000
1000
0100
,  // measure 16
0010
0001
0001
0100
0010
1000
1000
0001
,  // measure 17
1000
0100
0100
1000
0001
0100
0100
0001
,  // measure 18
1000
0100
0001
0100
1000
0010
1000
0010
,  // measure 19
1000
0001
0001
0000
0010
0100
1000
0010
,  // measure 20
0100
0100
0010
0010
1000
0001
1000
0000
,  // measure 21
0001
0000
0000
0000
0000
1000
0010
0100
,  // measure 22
1001
0000
1100
0000
0010
0100
0100
0001
,  // measure 23
0010
0100
1000
0000
1000
0010
0100
0001
,  // measure 24
1100
0000
0101
0000
1000
0100
0100
1000
,  // measure 25
0010
0100
0001
0000
0001
0010
0100
2000
,  // measure 26
0000
0001
3001
0000
0010
1001
1001
0000
,  // measure 27
0001
1000
0010
0010
1000
0001
0010
1000
,  // measure 28
0000
0010
0001
0100
0010
1000
0100
1000
,  // measure 29
0000
0001
1000
0100
1000
0001
0100
0002
,  // measure 30
1000
0000
1003
0000
1000
0100
0010
0001
,  // measure 31
2000
0000
0000
0000
3001
1000
0100
1000
,  // measure 32
1001
0100
0011
0100
0100
1000
1000
0010
,  // measure 33
0100
0001
1000
0100
0100
0010
0001
0100
,  // measure 34
1010
0100
0011
0100
0100
1000
1000
0010
,  // measure 35
0100
0001
1000
0001
0001
0010
0100
2000
,  // measure 36
0000
0001
3001
0000
1000
0000
0010
0000
,  // measure 37
0100
0000
0001
0000
,  // measure 38
1000
0100
1000
0000
,  // measure 39
0001
0000
1000
0000
,  // measure 40
1000
0000
0000
0000
;

//---------------dance-single - ----------------
#NOTES:
     dance-single:
     :
     Medium:
     4:
     0.248,0.271,0.159,0.059,0.000:
0000
0000
0000
0000
,
0000
0000
0000
0000
,
0000
0000
0000
0000
,
0000
0000
0000
0000
,
0001
1000
0100
1000
,
0010
1000
0001
0100
,
0020
1000
2030
0100
,
3200
0000
0010
0000
0010
0010
0310
0000
,
0001
0000
0100
0000
1000
1000
0100
0000
,
0001
0001
0100
0000
0010
0000
1001
0000
,
0100
0100
0010
0000
0001
1000
0001
0000
,
0010
0010
0100
0000
1000
0001
1000
0000
,
1100
0101
0010
1000
,
0011
1010
0001
0100
,
1001
0100
1000
0010
,
0001
0001
0010
0000
1000
1000
0010
0000
,
1000
0000
0001
0000
,
1000
1000
0100
0000
0100
0000
1000
1000
,
0001
0000
0100
0000
0010
0000
1000
1000
,
0100
0000
0001
0001
0100
0000
1000
0000
,
1001
0000
0000
0000
0000
0000
0001
1000
,
0001
0110
0100
0100
,
1000
0010
1000
0000
0001
0000
0010
0100
,
0010
1001
0010
0010
,
0100
0001
0100
0000
0001
0000
0010
0200
,
0000
1000
1300
0000
0010
0000
0010
0000
,
1000
0101
0010
1100
,
0010
0000
1001
0000
0100
0010
0100
0000
,
1000
0000
0001
0000
1000
1000
0100
0000
,
1000
0000
0001
0001
0100
0000
0000
0000
,
0020
0000
1030
0100
,
1001
0000
1001
0000
0010
0000
0100
0100
,
0001
1000
0100
1000
,
0011
0000
1100
0000
0010
0000
1000
1000
,
0001
0000
0100
0000
1000
0000
0100
0200
,
0000
0001
0301
0000
1000
0000
0100
0000
,
1000
0000
0001
0000
,
1000
0100
0000
0000
,
1000
0000
0001
0000
,
0100
0000
0000
0000
;

//---------------dance-single - ----------------
#NOTES:
     dance-single:
     :
     Easy:
     1:
     0.136,0.174,0.010,0.069,0.000:
0000
0000
0000
0000
,
0000
0000
0000
0000
,
0000
0000
0000
0000
,
0000
0000
0000
0000
,
0000
1000
0000
0001
,
0000
1000
0000
0001
,
0010
0010
0000
0100
,
0100
0000
1000
1000
,
0001
1000
0001
0000
,
1000
0001
1000
0000
,
0010
0100
0010
0000
,
0100
0010
0100
0000
,
0002
1003
0000
0000
,
2000
3001
0000
0000
,
0100
0000
0001
0000
,
1000
0100
1000
0000
,
0001
0000
1000
0000
,
0010
0100
0010
0100
,
0000
0001
0000
1000
,
1000
0001
1000
0000
,
0001
0000
0000
1000
,
0001
1000
0010
0000
,
0100
0001
0000
1000
,
0100
1000
0010
0000
,
0100
0001
2000
0000
,
3001
0000
1000
0010
,
0100
0000
0001
0000
,
0010
0100
0000
0000
,
2000
0000
3002
0000
,
2003
0100
3100
0000
,
0020
0000
0031
1000
,
0001
0001
0100
0010
,
0010
0000
0000
1000
,
0001
1001
0001
0000
,
0010
0100
0000
0000
,
1000
0000
0000
0000
,
0001
0000
1000
0000
,
0001
0000
0000
0000
,
1000
0000
0000
0000
,
0001
0000
0000
0000
;
