#TITLE:Snail;
#SUBTITLE:;
#ARTIST:Do As Infinity;
#TITLETRANSLIT:;
#SUBTITLETRANSLIT:;
#ARTISTTRANSLIT:;
#CREDIT:Xythar;
#BANNER:Snail.png;
#BACKGROUND:Snail-bg.png;
#LYRICSPATH:Snail.lrc;
#CDTITLE:daiseries.png;
#MUSIC:Snail.mp3;
#OFFSET:-1.332;
#SAMPLESTART:44.750;
#SAMPLELENGTH:12.000;
#SELECTABLE:YES;
#BPMS:0.000=87.927;
#STOPS:;
#BGCHANGES:;

//---------------dance-single - ----------------
#NOTES:
     dance-single:
     :
     Hard:
     6:
     0.337,0.327,0.242,0.091,0.061:
0000
0000
0000
0000
,
0000
0000
0000
0000
,
0001
0010
0100
0010
0001
0100
0010
1000
,
0010
0100
0010
0000
1000
0000
0100
0000
1000
0000
0001
0000
0100
0000
0000
0000
,
0001
0000
0100
1000
0100
0000
0001
0010
,
0100
0000
0010
0100
1000
0020
0000
0130
,
0001
0000
1000
0100
0010
0000
0100
0010
,
0001
0000
1000
0100
0010
0100
0010
0000
,
0010
0000
0100
1000
0100
0000
0010
0001
,
0010
0000
0100
0010
0001
2000
0000
3100
,
1000
0000
0001
0100
1000
0000
1000
0100
,
0001
0000
0001
0010
0100
0001
0100
1000
,
0010
0000
0001
0000
0010
0000
0100
0010
0000
1000
0000
0000
0000
0000
0001
0000
,
0010
0000
0100
0000
0010
0000
0100
0010
0000
0001
0000
0000
0000
0000
1000
0000
,
0100
0000
0010
0000
0001
0000
0100
0010
0000
0100
0000
0000
0000
0000
1000
0000
,
0200
0000
0301
0000
0001
0010
0100
1000
,
1001
0000
0000
0000
0011
0000
0000
0010
0001
0000
0100
0000
0010
0000
0000
0000
,
0110
0000
0000
0000
1010
0000
0000
0100
1000
0000
0100
0000
0010
0000
0100
0000
,
0110
0000
0000
0000
1100
0000
0000
0001
1000
0000
0100
0000
0010
0000
0100
0000
,
0120
0031
0210
1300
,
1001
0000
0000
0000
1010
0000
0000
1000
0010
0000
0100
0000
0001
0000
0000
0000
,
0001
0000
0010
0000
1000
0000
0000
0010
1000
0000
0010
0000
0100
0000
0010
0000
,
0001
0000
0000
0000
0011
0000
0000
0001
0010
0000
0100
0000
1000
0000
0001
0000
,
0100
0000
0010
0000
1000
0000
0001
1000
,
0000
1001
1001
0000
0001
0100
1000
0100
,
0001
0000
1000
0100
1000
0000
0010
0000
,
0100
0000
0001
0010
0001
0010
0001
1000
,
0100
1000
0100
0010
0001
0010
0001
0010
,
0001
0010
0100
1000
0100
0010
0001
1000
,
0001
0000
0010
0001
0100
0001
0100
0000
,
0001
0010
0100
1000
1001
0000
0100
0010
,
0100
0000
1000
0000
0001
0010
0001
0100
,
0010
0000
0100
0000
0001
0100
0010
1000
,
0010
0000
1000
0000
0001
0010
0100
1000
,
0020
0000
0200
0030
0002
0300
2000
0003
,
0000
0000
3000
0000
0000
0000
0000
0000
1100
0000
0100
0000
0110
0000
0000
0100
,
1000
0000
0001
0000
0010
0000
0000
0000
0110
0000
0010
0000
0011
0000
0000
0001
,
1000
0010
0100
0001
1000
0100
0110
0000
,
0100
1000
1001
0000
0011
0000
0110
0000
,
1100
1001
0201
1000
,
0010
0000
0000
0000
0301
0000
0000
0000
0011
0000
0001
0000
1001
0000
0000
1000
,
0010
0000
0110
0000
0001
0100
1000
0000
,
1000
0100
0001
0000
1000
0010
0100
1000
,
0100
0001
0010
0100
0000
0110
0110
0000
,
1000
0100
0010
0001
0000
1001
2002
0000
,
0000
0000
3003
0000
;

//---------------dance-single - ----------------
#NOTES:
     dance-single:
     :
     Medium:
     4:
     0.278,0.276,0.257,0.068,0.000:
0000
0000
0000
0000
,
0000
0000
0000
0000
,
1000
0100
0010
0100
,
0010
0100
0010
0000
0001
0000
1000
0000
,
0100
0010
0001
0010
,
0001
0010
0100
0010
0002
0000
1000
0000
,
0013
0000
0100
0000
1000
0000
0001
0100
,
0010
0000
1000
0000
0001
0100
0010
0000
,
1000
0001
1000
0100
,
0010
0001
0100
0001
0020
0000
0100
0000
,
0031
0000
0010
0100
1000
0000
1000
0100
,
0010
0002
1000
0013
,
0100
0000
1000
0100
0010
0000
0100
0000
,
0010
0000
0001
0010
0100
0000
0010
0000
,
0100
0000
1000
0000
0001
0100
0000
0100
,
0002
0010
0100
1003
,
1001
0000
0100
0000
0010
0001
0010
0000
,
0011
0000
0100
0000
1000
0100
1000
0000
,
1100
0000
0010
0000
0001
0100
0001
0000
,
0101
1001
1100
0110
,
0011
0000
0001
0000
0010
0100
0010
0000
,
0110
0000
0100
0000
1000
0100
1000
0000
,
1001
0000
0100
0000
0010
1000
0010
0000
,
0101
0000
0110
0000
1010
0000
1000
0001
,
0000
0001
1000
0000
1001
0000
0110
0000
,
1001
0000
0100
0010
0001
0000
0100
0000
,
0001
0000
0010
0001
0010
0001
0010
0001
,
0010
0000
0100
0000
0010
0001
0100
0000
,
0001
0000
1000
0000
0100
0010
0001
0000
,
0001
0010
0100
0000
0010
0100
1000
0000
,
0001
0100
0010
1000
0100
0000
0010
0000
,
0001
0000
1000
0000
1000
0100
0010
0000
,
0100
0000
0010
0000
0001
0010
0100
0000
,
0010
0000
0100
0000
1000
0100
0010
0001
,
0020
0100
0001
0130
,
1001
1001
0002
0010
,
0103
0000
1000
0100
0010
0000
0110
0000
,
0011
0000
0001
0100
0010
0000
0110
0000
,
1010
0000
0001
0010
0100
0000
0011
0000
,
1100
0110
2000
0100
,
0010
3001
0110
1100
,
1000
0100
0010
0000
0001
0010
0100
0000
,
1000
0001
0100
0000
0101
0000
1010
0000
,
1100
0000
0011
0010
0000
0001
0011
0000
,
1000
0001
1000
0001
0000
1001
2002
0000
,
0000
0000
3003
0000
;

//---------------dance-single - ----------------
#NOTES:
     dance-single:
     :
     Easy:
     2:
     0.147,0.155,0.038,0.068,0.000:
0000
0000
0000
0000
,
0000
0000
0000
0000
,
0001
0000
0100
0000
,
0010
1000
0010
0100
,
0001
0000
1000
0000
,
0001
0000
0010
0100
,
1000
0000
0100
0000
,
0010
0000
0100
0010
,
0001
0000
1000
0000
,
0001
0000
0100
0010
,
1000
0000
0100
0000
,
0010
0000
0100
1000
,
0010
0100
0001
0000
,
0010
0100
1000
0000
,
1000
0100
0010
0000
,
2002
0000
0000
3003
,
0200
1000
1000
1300
,
0000
0000
0100
0010
,
0100
0000
1000
0000
,
0001
0010
0100
1000
,
0200
0010
0010
0310
,
0000
0000
0100
1000
,
0010
0100
0001
0000
,
1000
0100
0010
0001
,
0000
1001
0000
0000
,
0001
0010
0100
0000
,
0010
0100
1000
0100
,
1000
0100
0010
0001
,
0010
0100
1000
0100
,
0010
0100
0010
0001
,
0010
0100
1000
0000
,
0001
0100
0010
0000
,
0010
0100
0001
0000
,
0001
0100
0010
1000
,
0200
0000
0000
0300
,
1000
0001
0100
0000
,
0001
0010
0100
0000
,
0010
0100
1000
0010
,
0100
0000
0001
0100
,
0010
1000
2002
0000
,
0000
3003
0000
0000
,
1000
0100
0010
0100
,
1000
0000
0001
0010
,
0100
1000
0000
1001
,
0000
0000
0000
0220
,
0000
0000
0330
0000
;

//---------------dance-single - ----------------
#NOTES:
     dance-single:
     :
     Beginner:
     1:
     0.091,0.102,0.053,0.000,0.000:
0000
0000
0000
0000
,
0000
0000
0000
0000
,
1000
0000
0000
0000
,
0001
0000
0000
0000
,
1000
0000
0001
0000
,
1000
0000
0100
0000
,
1000
0000
0010
0000
,
1000
0000
0000
0000
,
1000
0000
0100
0000
,
0010
0000
0001
0000
,
0010
0000
0100
0000
,
1000
0000
0000
0000
,
1001
0000
0000
0000
,
0110
0000
0000
0000
,
1001
0000
0000
0000
,
0001
0001
0000
0001
,
0001
0000
0010
0000
,
0100
0000
0010
0000
,
0100
0000
1000
0000
,
0001
0000
1000
0000
,
0001
0000
0010
0000
,
0100
0000
0010
0000
,
0001
0000
0100
0000
,
0010
0010
0010
0010
,
0000
1001
0000
0000
,
1000
0000
0000
0000
,
0001
0000
1000
1000
,
1000
0000
0010
0000
,
0100
0000
0001
0000
,
0100
0000
0010
0000
,
1000
1000
1000
0000
,
0001
0000
0000
0000
,
0010
0000
0000
0000
,
0001
0000
0000
0000
,
1000
0000
0000
0000
,
0000
0000
1001
0000
,
0010
0000
0100
0000
,
0010
0000
0001
0000
,
1000
0000
0001
0000
,
0001
0001
0001
0000
,
0000
0000
1000
0000
,
0010
0000
0100
0000
,
0010
0000
1000
0000
,
0001
0000
0010
0000
,
0110
0000
0000
1001
;

//---------------dance-single - ----------------
#NOTES:
     dance-single:
     :
     Challenge:
     8:
     0.460,0.465,0.280,0.053,0.303:
0000
0000
0000
0000
,
0000
0000
0000
0000
,
1000
0100
0010
0100
1000
0100
0010
0001
,
0010
0100
0010
0000
0001
0100
0010
0100
0001
1000
0100
0000
1001
0000
0000
0000
,
1000
0100
0010
0100
0010
0001
0100
0010
,
1000
0001
0100
1000
0100
0002
0000
0013
,
0000
1000
0010
0001
0100
1000
0100
0010
,
0100
0001
0010
0100
0010
0100
0010
0100
,
1000
0100
0010
0100
1000
0001
0010
0100
,
0010
0001
0100
0010
1000
0020
0000
0130
,
0000
0000
0001
0000
0100
0000
0010
0000
0100
0000
0001
0000
0010
0000
0100
0010
,
0000
0000
0100
0000
1000
0000
0100
0000
1000
0000
0100
0000
1000
0100
1000
0100
,
0010
0000
0100
0000
1000
0000
0100
0010
0000
0200
0000
0000
0000
0000
0310
0000
,
0001
0000
0100
0010
0100
0000
0001
0100
0000
0010
0000
0000
1000
0000
0001
0000
,
0010
0000
0100
0000
0010
0000
0001
1000
0000
0001
0000
0000
0000
0000
0100
0000
,
0020
1000
0100
0031
,
1000
0000
0100
0000
0010
0000
0100
1000
0100
1000
0100
0000
0010
0000
0001
0000
,
0100
0000
0010
0000
1000
0000
0001
1000
0001
1000
0001
0000
0100
0000
0010
0000
,
1000
0000
0100
0000
0010
0000
0100
0010
0100
0010
0100
0000
1000
0000
0001
0000
,
0101
0100
0110
0010
1010
1000
1001
0001
,
0010
0000
0100
0000
1000
0000
0100
0010
0100
0010
0100
0000
0010
0000
0001
0000
,
0100
0000
0010
0000
1000
0000
0001
0100
0001
0100
0001
0000
1000
0000
0100
0000
,
0010
0000
0100
0000
1000
0000
0100
1000
0100
1000
0100
0000
1000
0000
0010
0000
,
0110
0100
0101
0001
1001
1000
1100
0110
,
0000
0000
0011
0000
0011
0000
0000
0000
0001
0000
0010
0000
0100
1000
0100
1000
,
0100
0000
0010
0001
0010
0100
0010
0000
,
0100
0000
0000
0000
1000
0000
0001
1000
0001
1000
0100
1000
0100
1000
0010
1000
,
0001
0010
0001
0010
0001
0010
0100
0010
0100
0010
0100
0010
0100
0010
0001
0000
,
0000
0000
0010
0100
1000
0100
0010
0100
1000
0000
0100
0010
0000
0001
0010
0100
,
0000
0000
0000
0000
1000
0100
1000
0000
0100
0000
0010
0000
0100
0000
0010
0000
0001
0000
0010
0000
0100
0000
1000
0000
0100
0000
0000
0000
0010
0000
0000
0000
,
0001
0000
0100
0000
0010
0100
0010
0000
1000
0000
0100
0000
0010
0001
0010
0001
,
0010
0000
0100
0000
0010
0000
0001
1000
0000
0010
0000
0000
0000
0000
1000
0000
,
0100
0000
1000
0010
1000
0000
0001
0100
0000
0010
0000
0000
0000
0000
1000
0000
,
0100
0000
0010
0000
0001
0000
0010
0100
0000
1000
0000
0000
0000
0000
0100
0000
,
0020
1000
0100
0031
,
1000
0100
1000
0100
0010
0001
0010
0001
1000
0000
0100
0000
0110
0000
0100
1000
,
0100
0010
0001
0000
0011
0000
0100
0000
0010
0000
1000
0000
1010
0000
0001
1000
,
0100
1000
0001
0000
1001
0000
1000
0000
0100
0000
0010
0000
0011
0000
0001
0010
,
0100
0010
0001
0000
1001
0000
0001
0000
0011
0000
0010
0000
0110
0000
0100
0000
,
1100
0000
1000
0000
1010
0000
0010
0000
0110
0000
0100
0000
1000
0000
0100
0010
,
0001
0010
0100
0000
1100
0000
0001
0000
1000
0000
0010
0000
0110
0000
1000
0001
,
0100
0001
1000
0000
1001
0000
0100
0000
0010
0000
0100
0000
1100
0000
0010
0100
,
0001
0100
0010
0000
0101
0000
0001
0000
1001
0000
1000
0000
1100
0000
0100
0000
,
0110
0100
0101
0110
0000
0011
0011
0000
,
0010
0000
0100
1000
0100
1000
0100
0000
0000
0000
1001
0000
2002
0000
0000
0000
,
0000
0000
3003
0000
;
