#TITLE:侵略ノススメ☆;
#SUBTITLE:;
#ARTIST:ULTRA-PRISM with イカ娘;
#TITLETRANSLIT:Shinryaku no Susume;
#SUBTITLETRANSLIT:;
#ARTISTTRANSLIT:ULTRA-PRISM with Ika Musume;
#CREDIT:Xythar;
#BANNER:Shinryaku no Susume.png;
#BACKGROUND:Shinryaku no Susume-bg.png;
#LYRICSPATH:Shinryaku no Susume.lrc;
#CDTITLE:cdtitle.png;
#MUSIC:Shinryaku no Susume.ogg;
#OFFSET:-0.622;
#SAMPLESTART:64.178;
#SAMPLELENGTH:20.700;
#SELECTABLE:YES;
#BPMS:0.000=185.000;
#STOPS:;
#BGCHANGES:10.500=Shinryaku no Susume.avi=1.000=0=0=1,
283.000=Shinryaku no Susume-bg.png=1.000=0=0=1,
99999=-nosongbg-=1.000=0=0=0 // don't automatically add -songbackground-
;

//---------------dance-single - ----------------
#NOTES:
     dance-single:
     :
     Hard:
     8:
     0.689,0.680,0.758,0.181,0.000: // measure 1
0000
0000
0000
0000
,  // measure 2
0000
0000
0000
0000
,  // measure 3
0000
0000
0000
0000
,  // measure 4
1100
0101
1100
0101
,  // measure 5
1010
0011
1010
0011
,  // measure 6
1100
1010
0101
0011
,  // measure 7
1000
0100
1000
0100
0010
0000
1001
0000
,  // measure 8
0001
0000
0100
0000
0010
1000
0001
1000
,  // measure 9
0000
0100
0010
0001
0000
1000
0010
0000
,  // measure 10
0100
0000
1001
0000
0001
0010
0100
1000
,  // measure 11
0000
0001
0100
0010
0000
1000
0100
0000
,  // measure 12
0011
0000
0001
0100
0000
0010
1000
0000
,  // measure 13
0011
0000
1000
0100
0000
0010
0001
0000
,  // measure 14
1100
0000
0001
0100
0010
1000
0100
0000
,  // measure 15
0011
1100
1001
0010
,  // measure 16
0100
0000
0001
0000
1000
0100
1000
0001
,  // measure 17
0000
0100
0020
0000
1000
0000
0130
0000
,  // measure 18
0001
0000
0010
0000
0100
1000
0001
1000
,  // measure 19
0000
0010
0200
0000
0301
0000
1100
0000
,  // measure 20
0001
0000
0010
0000
0100
1000
0001
1000
,  // measure 21
0000
0010
0100
0000
0001
0000
1000
0000
,  // measure 22
0001
0100
0001
0100
0010
0000
1100
0000
,  // measure 23
0001
0010
0001
0010
0100
0000
1001
0000
,  // measure 24
0001
0000
0100
0000
0010
1000
0001
1000
,  // measure 25
0000
0100
0020
0000
0001
0000
0130
0000
,  // measure 26
2000
0000
0010
0000
3010
0100
0001
0100
,  // measure 27
0000
0010
1000
0000
0001
0000
0110
0000
,  // measure 28
1000
0000
0100
0000
0010
0001
1000
0001
,  // measure 29
0000
0100
0010
0000
1000
0000
0001
0000
,  // measure 30
1000
0100
0001
0100
1000
0000
0011
0000
,  // measure 31
1000
0010
0001
0010
1000
0000
0101
0000
,  // measure 32
1020
0000
0100
0000
1030
0000
0001
0010
,  // measure 33
0100
0000
1000
0010
0000
0010
0100
0000
,  // measure 34
0102
0000
1000
0000
0103
0000
0010
1000
,  // measure 35
0001
0000
0010
0100
0000
0100
1000
0000
,  // measure 36
0001
0100
0010
1000
0100
0000
0010
0000
,  // measure 37
0001
1000
0010
0100
0001
0000
1000
0000
,  // measure 38
0201
0000
0010
0310
0000
1000
0100
0000
,  // measure 39
1000
0010
0100
0001
0000
0001
1000
0000
,  // measure 40
0011
0000
1100
0000
1001
0000
0010
0100
,  // measure 41
0001
0000
0010
0100
0000
1000
0001
0000
,  // measure 42
1010
0000
0101
0000
1100
0000
0001
0100
,  // measure 43
0010
0000
1000
0100
0000
0010
0001
0000
,  // measure 44
1000
0010
0100
0010
2000
0000
3001
0000
,  // measure 45
0010
0100
1000
0010
0200
0000
0301
0000
,  // measure 46
1000
0100
0010
0100
1000
0000
0101
0000
,  // measure 47
1100
0000
0001
0000
1000
0010
0100
0001
,  // measure 48
0000
1000
0100
0000
1000
0001
0100
0000
,  // measure 49
2010
3100
0012
0103
,  // measure 50
1010
0000
1100
0000
0001
0010
0100
1000
,  // measure 51
0020
0000
0100
0130
0000
0000
1001
0000
,  // measure 52
0101
0000
0011
0000
1000
0100
0010
0001
,  // measure 53
0200
0000
0010
0310
0000
0000
1001
0000
,  // measure 54
0001
0100
0010
1000
0001
0010
0100
1000
,  // measure 55
0001
0100
0010
1000
0001
0010
0100
1000
,  // measure 56
0010
0100
0001
0100
0010
0000
1100
0000
,  // measure 57
0001
0100
1000
0100
0001
0000
1010
0000
,  // measure 58
0011
0000
1100
0000
0001
0100
0010
0100
,  // measure 59
0002
0000
1000
1003
0000
0000
0110
0000
,  // measure 60
1010
0000
0101
0000
1000
0100
0010
0100
,  // measure 61
2000
0000
0001
3001
0000
0000
0110
0000
,  // measure 62
1000
0100
0010
0100
1000
0010
0100
0010
,  // measure 63
1000
0001
0010
0001
1000
0010
0100
0001
,  // measure 64
1000
0100
1000
0001
0100
0000
0010
1000
,  // measure 65
0001
0010
1000
0010
0001
0000
1000
0000
,  // measure 66
0101
1001
1010
1001
,  // measure 67
1100
1001
0011
1001
,  // measure 68
0110
1001
0110
1001
,  // measure 69
2010
0000
0100
3100
0000
0001
1000
0000
,  // measure 70
0011
0000
0100
1000
1010
0000
0100
0010
,  // measure 71
1001
1100
0201
0310
;

//---------------dance-single - ----------------
#NOTES:
     dance-single:
     :
     Challenge:
     12:
     1.000,1.000,0.886,0.000,0.960:
0000
0000
0000
0000
,
0000
0000
0000
0000
,
0000
0000
0000
0000
,
1100
0011
0101
1010
,
0011
0101
1010
1100
,
1001
0110
1001
0110
,
0001
0100
1000
0100
0001
0000
1001
0000
,
1000
0000
0010
0000
0100
0000
0010
0000
1000
0000
0001
0000
0010
0000
0001
0010
,
0100
0000
1000
0000
0010
0000
1000
0000
0001
0000
0010
0000
0100
0000
1000
0100
,
0010
0000
0001
0000
1000
0000
0010
0000
1000
0000
0001
0000
0010
0000
0100
1000
,
0001
0000
1000
0000
0010
0000
1000
0000
0001
0000
1000
0010
1000
0010
0100
0001
,
1000
0000
0100
0000
0010
0000
0001
0100
0010
0100
0001
0000
1000
0000
0010
0000
,
0100
0000
0001
0000
1000
0000
0100
0010
0001
0010
0100
0000
1000
0000
0001
0000
,
0101
0010
1000
0001
1000
0100
1000
0001
,
1100
0000
0001
0000
1010
0000
0001
0000
1001
0000
1000
0000
0001
0100
0001
0100
,
0010
0000
1000
0000
0001
0000
1000
0100
0010
0001
1000
0000
0001
0000
0100
0000
,
0010
0000
0100
0000
0001
0000
1000
0100
0010
0100
1000
0000
0001
0000
0100
0000
,
0010
0000
1000
0000
0001
0000
0010
0100
1000
0100
0010
0000
0001
0000
0100
0000
,
0010
1000
0001
1000
0010
1000
0001
1000
0010
0000
0100
0000
1001
0000
0001
0000
,
1000
0000
0100
0000
0010
0000
0001
0100
0010
0100
0001
0000
1000
0000
0010
0000
,
0100
0000
0001
0000
1000
0000
0100
1000
0001
1000
0010
0000
0100
0000
0001
0000
,
1010
0001
0110
1000
0110
0000
0001
0000
,
1100
0010
0101
0010
1100
0000
0001
1000
,
0010
1000
0010
1000
0001
0000
0010
0000
0100
1000
0100
1000
0001
0000
1000
0000
,
0010
0100
0010
0100
0001
0000
1000
0000
0001
0100
0001
0100
0010
1000
0010
1000
,
0001
1000
0001
1000
0100
0000
0010
0000
0001
0100
0001
0100
0010
0000
1000
0000
,
0001
0010
0001
0010
0100
0000
1000
0000
0001
0100
0010
0100
0001
0100
0010
0100
,
0001
1000
0100
1000
0001
0000
1000
0000
0010
0100
0001
0100
0010
0000
1000
0000
,
0100
0010
0001
0010
0100
0000
1000
0000
0001
0100
0010
1000
0001
0100
0010
1000
,
0001
1000
1100
0001
0101
0000
0010
0000
,
1010
0000
0001
0000
0101
0000
0010
0000
1010
0000
0000
0000
0001
0010
0001
0010
,
0100
1000
0010
1000
0001
0010
0100
1000
,
0001
0000
0100
0000
0010
0000
1000
0100
0010
0000
0001
0000
1000
0000
0010
0000
,
0100
0001
1000
0100
1000
0001
0010
0001
,
1000
0000
0010
0000
0100
0000
0001
0010
0100
0000
1000
0000
0010
0000
0100
0000
,
0001
0100
0001
0100
0010
1000
0010
1000
0001
0010
0001
0010
0100
1000
0100
1000
,
0001
0100
0010
0100
0001
1000
0100
1000
0001
1000
0010
1000
0001
0010
0100
1000
,
0001
0010
0100
1001
0000
0001
0100
0010
,
1000
0100
1000
0110
0001
0010
0100
1000
,
0001
1000
0010
1000
0001
1000
0100
1000
0001
0100
0010
0100
0001
1000
0100
1000
,
0001
0010
0001
0010
0100
0010
0100
0010
0100
1000
0100
1000
0010
1000
0010
1000
,
0001
1000
0100
1000
0001
1000
0010
1000
0001
0010
0001
1000
0010
1000
0001
0100
,
0001
0100
0010
1000
0001
0010
0100
1000
0001
0100
0010
1000
0001
0010
0100
1000
,
0001
0000
1000
0000
0110
0000
0001
0000
1000
0100
0010
0001
0010
0100
1000
0010
,
0100
0000
0001
0000
1010
0000
0001
0000
1000
0010
0100
0001
0100
0010
1000
0001
,
1000
0000
0010
0000
0101
0000
0010
0000
1000
0001
0010
0100
1000
0001
0010
0100
,
1000
0000
0101
0000
1010
0001
1000
0010
,
1000
0100
0010
0001
1000
0010
0100
0001
1000
0100
0010
0001
1000
0010
0100
0001
,
1000
0100
1000
0100
0010
0100
0010
0100
0010
0001
0010
0001
1000
0000
0000
0000
,
0101
0000
1010
0000
0001
0010
0100
1000
,
0010
0100
0001
1000
0100
1000
0101
0000
,
1100
0000
0011
0000
0100
1000
0010
0100
,
0001
1000
0010
1000
0001
0110
1001
0000
,
1000
0100
0010
0001
0100
0010
0100
0001
0010
0100
1000
0010
0100
0001
1000
0100
,
1000
0001
0100
0010
1000
0001
1000
0010
0100
0001
0010
0100
1000
0010
1000
0001
,
1000
0100
0010
0001
0100
0010
0100
0001
0010
0100
1000
0010
0100
0010
1000
0000
,
0110
0001
1010
0100
1001
0000
0110
0000
,
1100
0000
0011
0000
0100
1000
0010
0100
,
1001
0000
0010
1001
0000
1000
0010
0000
,
0101
0000
1100
0000
0001
0010
0100
1000
,
0101
0000
0010
1010
0000
0101
1001
0000
,
0001
0100
0010
1000
0001
0010
0100
1000
0010
1000
0001
1000
0100
0010
0001
0100
,
0010
0100
0001
0010
0100
1000
0010
0100
1000
0100
0010
0100
0001
0010
0001
0100
,
0001
0010
0100
0001
0100
0010
0001
1000
0010
0100
0001
0010
0001
1000
0010
0000
,
0101
0010
1100
0010
1001
0000
0110
0000
,
1100
0001
1100
0001
1010
0001
1010
0001
,
0110
1000
0110
1000
0110
0001
0110
0001
,
1100
0010
0101
0010
1100
0010
0101
0010
,
1001
0100
0010
1001
0000
0110
1001
0000
,
0101
0000
0010
1000
0011
0000
0100
1000
,
0101
0010
1001
0100
0011
0000
1001
0000
;

//---------------dance-single - ----------------
#NOTES:
     dance-single:
     :
     Medium:
     7:
     0.552,0.642,0.374,0.235,0.000:
0000
0000
0000
0000
,
0000
0000
0000
0000
,
0000
0000
0000
0000
,
2100
3001
2010
3001
,
0102
1003
0012
1003
,
0210
0301
0210
1300
,
0001
0100
0010
0000
1000
0000
1001
0000
,
0001
0000
0100
0000
0010
1000
0000
0001
,
0000
1000
0100
2000
0000
3010
0000
0000
,
0100
0000
0001
0000
1000
0010
0000
0100
,
0000
0001
0010
0200
0000
0000
1300
0000
,
0002
0000
0000
0103
0000
0010
1000
0000
,
0002
0000
0000
0013
0000
0100
1000
0000
,
0001
0000
0100
0000
0010
1000
0001
0000
,
1100
0101
1001
0000
,
1000
0000
0010
0000
0100
0000
0001
1000
,
0000
1000
0010
0000
0100
0000
0001
0000
,
0010
0000
0100
0000
1000
0000
0010
0100
,
0000
0100
0001
0000
1000
0000
0101
0000
,
0010
0000
1000
0000
0001
0010
0000
0001
,
0000
1000
0010
0000
0100
0000
0001
0000
,
1000
0100
1000
0100
1000
0000
0010
0000
,
0100
0001
0100
0001
0100
0000
0010
0000
,
1000
0000
0100
0000
1000
0001
1000
0001
,
0000
0100
0010
0000
2000
0000
3001
0000
,
0100
0000
0010
0000
1000
0010
0000
0100
,
0000
0001
0010
0000
0100
0000
1001
0000
,
1000
0000
0010
0000
0100
0001
0000
0010
,
0000
0001
1000
0000
0010
0000
0100
0000
,
0001
0010
0001
0010
0100
0000
1001
0000
,
1000
0010
1000
0010
0100
0000
1001
0000
,
2000
0010
0001
3010
,
0100
0000
0001
0010
0000
0100
1000
0000
,
0002
0100
1000
0103
,
0010
0000
1000
0100
0000
0010
0001
0000
,
1000
0000
0001
0100
0000
0010
1000
0000
,
0001
0000
1000
0100
0000
0010
0001
0000
,
0100
0000
0001
1000
0000
1000
0001
0000
,
1000
0000
0010
0100
0000
1001
0000
0000
,
0002
0100
0010
0103
,
0010
0000
1000
0100
0000
0010
0001
0000
,
2000
0010
0100
3010
,
0100
0000
0001
0010
0000
0100
1000
0000
,
0001
0100
0001
0100
0000
0010
1000
0000
,
0001
0010
0001
0010
0000
0100
1000
0000
,
0001
1000
0001
1000
0010
0000
0100
0000
,
0001
0000
0010
0000
0100
1000
0000
2002
,
0000
0000
0000
3003
,
1000
0001
1000
0001
1000
0000
0110
0000
,
0001
0100
0010
1000
,
0210
0000
0000
0301
0000
0000
1010
0000
,
0001
0010
0100
1000
,
2001
0000
0000
3010
0000
0000
0101
0000
,
0010
1000
0001
0010
,
0100
1000
0010
0100
,
0001
1000
0100
0010
,
0001
1000
0001
1000
0010
0000
1001
0000
,
0001
1000
0010
1000
,
0012
0000
0000
1003
0000
0000
0110
0000
,
1000
0001
0100
0001
,
2100
0000
0000
3001
0000
0000
0110
0000
,
1000
0100
0010
0001
,
1000
0010
0100
0001
,
1000
0100
1000
0010
,
0100
0001
0100
0001
1000
0000
0110
0000
,
1001
0010
0101
0010
,
1100
0001
1010
0001
,
0110
1000
0110
0001
,
2100
0000
0001
3001
0000
0000
0100
0000
,
0010
0000
1000
0001
0010
0000
0001
1000
,
0010
0000
0100
0010
0100
0000
1001
0000
;

//---------------dance-single - ----------------
#NOTES:
     dance-single:
     :
     Easy:
     5:
     0.402,0.415,0.416,0.043,0.000:
0000
0000
0000
0000
,
0000
0000
0000
0000
,
0000
0000
0000
0000
,
1000
0010
1000
0001
,
1000
0010
1000
0001
,
1000
0010
1000
0001
,
1000
0100
0100
1001
,
0001
0100
0010
0000
,
1000
0100
1000
0000
,
0001
0100
0010
0000
,
1000
0001
0010
0000
,
0002
1000
1003
0000
,
0020
0100
0130
0000
,
0002
0010
0013
0000
,
1001
1001
1001
0000
,
0001
0100
0010
0100
,
0001
1000
0001
0000
,
1000
0010
1000
0001
,
1000
1000
1000
1001
,
0001
1000
0001
0000
,
1000
0010
1000
0000
,
1001
1001
1001
0000
,
0110
0110
0110
0000
,
0001
0100
0001
0010
,
0001
0001
0001
0000
,
1000
0100
1000
0010
,
0100
0100
0100
1001
,
1000
0010
1000
0000
,
0001
0010
0001
0000
,
1001
1001
1001
0000
,
0110
0110
0110
0000
,
1000
0010
0100
0010
,
1000
0000
0001
0000
,
1000
0100
0010
0001
,
0100
0000
0010
0000
,
1000
0001
0010
0000
,
0001
1000
0010
0000
,
0100
0001
1000
0000
,
1001
0000
1001
0000
,
0001
0100
0010
0000
,
1000
0001
0010
0000
,
0100
1000
0001
0000
,
1000
0010
1000
0000
,
1001
0000
0110
0000
,
1001
0000
0110
0000
,
1000
0000
0001
0000
,
1000
0010
1000
0001
,
0010
0000
0001
0000
,
2001
0000
0010
3010
,
0100
0001
0010
0001
,
0100
0000
0010
1001
,
0100
1000
0010
1000
,
0100
0000
1000
0110
,
1000
0010
0100
0010
,
1000
0100
0010
0000
,
0001
0100
0010
1000
,
1001
1001
1001
0000
,
0001
0100
0001
0010
,
0001
0000
1000
0110
,
0001
1000
0010
1000
,
0001
0000
0010
1001
,
0100
1000
0010
0100
,
0010
0000
1000
0000
,
0001
0010
0001
1000
,
1001
1001
1001
0000
,
1000
0010
1000
0001
,
1000
0100
1000
0010
,
0100
0010
0100
0001
,
0010
0000
1001
0000
,
0001
0100
0010
1000
,
1001
1001
1001
0100
;

//---------------dance-single - ----------------
#NOTES:
     dance-single:
     :
     Beginner:
     2:
     0.233,0.376,0.192,0.139,0.000:
0000
0000
0000
0000
,
0000
0000
0000
0000
,
0000
0000
0000
0000
,
1001
0000
1001
0000
,
1001
0000
1001
0000
,
1001
0000
1001
0000
,
1001
0000
0000
0000
,
1000
0000
0010
0000
,
1000
0000
0001
0000
,
1000
0000
0100
0000
,
1000
0000
0001
0000
,
2000
0000
3000
0000
,
0020
0000
0030
0000
,
0200
0000
0300
0000
,
0001
0001
0001
0000
,
1000
0000
0001
0000
,
1000
0000
0000
0000
,
0001
0000
1000
0000
,
0001
0000
0000
0000
,
1000
0000
0010
0000
,
1000
0000
0000
0000
,
0001
0001
0001
0000
,
1000
1000
1000
0000
,
0001
0000
0100
0000
,
0010
0000
0000
0000
,
1000
0000
0100
0000
,
0010
0000
0000
0000
,
0001
0000
1000
0000
,
0010
0000
0000
0000
,
1000
1000
1000
0000
,
0001
0001
0001
0000
,
1000
0000
0010
0000
,
0100
0000
0000
0000
,
0001
0000
0010
0000
,
0100
0000
0000
0000
,
1000
0000
0010
0000
,
1000
0000
0001
0000
,
0010
0000
0100
0000
,
1000
0000
0000
0000
,
0001
0000
0100
0000
,
0010
0000
1000
0000
,
0001
0000
0010
0000
,
0100
0000
1000
0000
,
0001
0000
0000
0000
,
1000
0000
0000
0000
,
0010
0000
0100
0000
,
0010
0000
1000
0000
,
0001
0000
0000
0000
,
2002
0000
3003
0000
,
1000
0000
0001
0000
,
2002
0000
3003
0000
,
0010
0000
0100
0000
,
0220
0000
0330
0000
,
0001
0000
0100
0000
,
0010
0000
1000
0000
,
0100
0000
1000
0000
,
0001
0001
0001
0000
,
1000
0000
0001
0000
,
2002
0000
3003
0000
,
0010
0000
0100
0000
,
0220
0000
0330
0000
,
1000
0000
0100
0000
,
0010
0000
0001
0000
,
0100
0000
0010
0000
,
0100
0100
0100
0000
,
0001
0000
1000
0000
,
0001
0000
1000
0000
,
0001
0000
1000
0000
,
1001
0000
0000
0000
,
1001
0000
0110
0000
,
1001
1001
1001
0000
;
