#TITLE:Shine On Me;
#SUBTITLE:;
#ARTIST:kors k;
#TITLETRANSLIT:;
#SUBTITLETRANSLIT:;
#ARTISTTRANSLIT:;
#CREDIT:Xythar;
#BANNER:Shine On Me.png;
#BACKGROUND:Shine On Me-bg.png;
#LYRICSPATH:;
#CDTITLE:jubeat.png;
#MUSIC:Shine On Me.ogg;
#OFFSET:-1.460;
#SAMPLESTART:74.858;
#SAMPLELENGTH:11.240;
#SELECTABLE:YES;
#BPMS:0.000=169.994;
#STOPS:172.000=1.059
;
#BGCHANGES:;

//---------------dance-single - ----------------
#NOTES:
     dance-single:
     :
     Hard:
     8:
     0.509,0.535,0.174,0.098,0.000: // measure 1
0000
0000
0000
0000
,  // measure 2
0000
0000
0000
0000
,  // measure 3
0000
0000
0000
0000
,  // measure 4
1001
0000
0000
0000
,  // measure 5
1000
0010
0000
0100
0001
0010
0000
0100
,  // measure 6
0000
1000
0010
0100
0010
1000
0100
0010
,  // measure 7
0000
1001
0000
0100
1000
0010
0000
0100
,  // measure 8
0000
0001
0010
0001
1000
0010
0100
0010
,  // measure 9
0000
1100
0000
0001
0010
0100
0000
1000
,  // measure 10
0000
0001
0100
0010
0100
0001
1000
0100
,  // measure 11
0000
0011
0000
0100
1000
0010
0000
0100
,  // measure 12
0000
1000
0100
0010
0100
0001
0010
0100
,  // measure 13
0000
1010
0000
0100
0001
1000
0000
0001
,  // measure 14
0000
1000
0010
1000
0001
0010
0100
1000
,  // measure 15
0000
0101
0000
1000
0010
0100
0000
0001
,  // measure 16
0000
1000
0100
1000
0001
0100
0010
0100
,  // measure 17
0000
1001
0000
0100
0010
0001
0000
1000
,  // measure 18
0000
0001
0100
1000
0100
0001
1000
0010
,  // measure 19
0000
0101
0000
1000
0100
0010
0000
0001
,  // measure 20
1000
0000
0000
0000
,  // measure 21
0001
0000
0000
0000
,  // measure 22
0000
0000
0000
0000
,  // measure 23
0000
0000
0000
0000
,  // measure 24
0000
0000
0000
0000
,  // measure 25
0000
0000
0000
0000
,  // measure 26
0000
0000
0000
0000
,  // measure 27
0000
0000
0000
0000
,  // measure 28
0000
0000
0000
0000
,  // measure 29
2000
0000
0001
0000
3001
0000
1000
0100
,  // measure 30
0010
0000
0010
0100
1000
0000
0010
0000
,  // measure 31
0200
0000
0001
0000
0301
0000
0010
0100
,  // measure 32
1000
0000
1000
0100
0010
0001
0100
0000
,  // measure 33
0020
0000
1000
0000
1030
0000
0010
1000
,  // measure 34
0100
0000
0100
1000
0010
0000
0100
0000
,  // measure 35
0002
0000
1000
0000
1003
0000
0100
1000
,  // measure 36
0010
0000
0010
1000
0100
0001
0100
0000
,  // measure 37
2000
0000
0010
0000
3100
0000
0010
0001
,  // measure 38
0100
0000
0100
0001
0010
0000
0001
0000
,  // measure 39
0200
0000
1000
0000
0310
0000
1000
0100
,  // measure 40
0001
0000
0001
0100
1000
0010
0100
0000
,  // measure 41
0002
0000
0100
0000
0013
0000
0100
1000
,  // measure 42
0001
0000
0001
1000
0010
0100
0001
0000
,  // measure 43
2000
0100
0001
3010
,  // measure 44
0100
0000
1000
0100
1000
0001
1000
0010
,  // measure 45
0000
0010
0000
0010
0100
0001
0010
0100
,  // measure 46
0000
0100
0000
0100
1000
0010
0100
0001
,  // measure 47
0000
0001
0000
0001
0010
0100
1000
0010
,  // measure 48
0000
0010
0000
0010
0100
0001
0000
0001
,  // measure 49
0010
0100
0000
0100
1000
0010
0000
0010
,  // measure 50
0100
0001
1000
0100
1000
0001
0100
0010
,  // measure 51
0100
0001
0010
0000
1001
0000
0000
0000
,  // measure 52
0000
0000
1000
0010
0100
0010
0000
1100
,  // measure 53
0000
0011
0000
0100
1000
0010
0100
0010
,  // measure 54
1000
0001
0000
0010
0100
1000
0000
0101
,  // measure 55
0000
1010
0000
0001
0100
0010
1000
0100
,  // measure 56
0010
0001
0000
1000
0010
0100
0000
1001
,  // measure 57
0000
0110
0000
0001
0100
1000
0100
0010
,  // measure 58
1000
0100
0000
0010
0001
0100
0000
1010
,  // measure 59
0000
0001
0010
0100
1000
0010
0100
0001
,  // measure 60
1000
0100
0000
0010
0001
0100
0000
1100
,  // measure 61
0000
0101
0000
1000
0100
0001
0100
1000
,  // measure 62
0010
0100
0000
0001
0010
0100
0000
1010
,  // measure 63
0000
0101
0000
1000
0100
1000
0001
0100
,  // measure 64
0010
1000
0000
0100
0010
0001
0000
1010
,  // measure 65
0000
1100
0000
0001
0100
0010
1000
0100
,  // measure 66
1000
0001
0000
0100
0010
1000
0000
0011
,  // measure 67
0000
0100
2000
0000
0001
0000
0100
0000
,  // measure 68
3010
0000
1000
0100
1000
0020
0000
0100
,  // measure 69
0000
1030
0010
0100
0001
0010
0001
1000
,  // measure 70
0010
0100
0001
0010
0100
2000
0000
0010
,  // measure 71
0000
3001
0100
0010
1000
0001
0010
0001
,  // measure 72
1000
0010
0100
0001
0010
0200
0000
0001
,  // measure 73
0000
1300
0010
0100
0010
1000
0001
0010
,  // measure 74
0100
1000
0010
0100
0001
0020
0000
1000
,  // measure 75
0000
0031
0100
0010
1000
0100
0010
0001
,  // measure 76
0100
0010
1000
0100
1000
0001
1000
0010
,  // measure 77
1000
0001
0100
0010
0100
0001
0010
0100
,  // measure 78
1000
0010
0100
1000
0100
0010
1000
0001
,  // measure 79
0010
0100
0001
0100
1000
0010
0100
0001
,  // measure 80
1000
0001
1000
0100
0001
0100
1000
0001
,  // measure 81
0100
1000
0100
0001
1000
0100
0001
0100
,  // measure 82
1000
0001
0100
1000
0100
0001
1000
0100
,  // measure 83
0001
0100
1000
0001
0100
0010
1000
0100
,  // measure 84
0010
0001
0100
0000
0000
0000
0000
0000
;

//---------------dance-single - ----------------
#NOTES:
     dance-single:
     :
     Medium:
     7:
     0.393,0.441,0.068,0.053,0.000: // measure 1
0000
0000
0000
0000
,  // measure 2
0000
0000
0000
0000
,  // measure 3
0000
0000
0000
0000
,  // measure 4
1001
0000
0000
0000
,  // measure 5
0001
0100
0000
0010
0000
1000
0001
0010
,  // measure 6
0000
0100
0000
1000
0010
0000
0100
0000
,  // measure 7
0010
1000
0000
0001
0000
0010
0100
1000
,  // measure 8
0000
0010
0000
0100
0001
0000
1000
0000
,  // measure 9
0001
0100
0000
0010
0000
1000
0001
0010
,  // measure 10
0000
0100
0000
1000
0010
0000
0100
0000
,  // measure 11
0010
1000
0000
0001
0000
1000
0100
0010
,  // measure 12
0000
0001
0100
0000
0010
0000
0100
0000
,  // measure 13
1001
0000
0001
0100
0010
0000
1000
0000
,  // measure 14
0001
0010
0100
0000
1000
0000
0010
0000
,  // measure 15
1001
0000
0100
0000
1000
0010
0100
0000
,  // measure 16
0010
0000
1000
0000
0001
0010
0100
0000
,  // measure 17
1100
0000
0001
0000
1000
0010
0100
0000
,  // measure 18
0101
0000
0010
0000
1000
0001
0010
0000
,  // measure 19
1100
0000
0001
0000
1000
0010
0100
0000
,  // measure 20
1001
0000
0000
0000
,  // measure 21
1000
0000
0000
0000
,  // measure 22
0000
0000
0000
0000
,  // measure 23
0000
0000
0000
0000
,  // measure 24
0000
0000
0000
0000
,  // measure 25
0000
0000
0000
0000
,  // measure 26
0000
0000
0000
0000
,  // measure 27
0000
0000
0000
0000
,  // measure 28
0000
0000
0000
0000
,  // measure 29
1000
0000
0000
0001
0100
0000
0010
0000
,  // measure 30
1000
0000
0001
0000
0010
0100
0010
0000
,  // measure 31
0001
0000
0000
1000
0010
0000
0100
0000
,  // measure 32
0010
0000
1000
0000
0001
0010
0100
0000
,  // measure 33
1000
0000
0000
0001
0100
0000
0010
0000
,  // measure 34
1000
0000
0001
0000
1000
0100
0010
0000
,  // measure 35
0100
0000
0000
1000
0001
0000
0100
0000
,  // measure 36
0010
0000
1000
0000
0001
0010
0100
0000
,  // measure 37
1001
0000
0000
1000
0010
0000
0100
0000
,  // measure 38
0010
0000
1000
0000
0001
0010
0100
0000
,  // measure 39
1000
0000
0000
0001
0100
0000
0010
0000
,  // measure 40
1000
0000
0001
0000
1000
0100
0010
0000
,  // measure 41
0100
0000
0000
1000
0010
0000
0100
0000
,  // measure 42
0010
1000
0001
0010
,  // measure 43
0100
1000
0001
1000
,  // measure 44
0010
0000
1000
0100
1000
0000
0001
0100
,  // measure 45
0000
0100
0000
0010
1000
0000
0001
0010
,  // measure 46
0000
0010
0000
0100
1000
0000
0010
0100
,  // measure 47
0000
0100
0000
0001
1000
0000
0100
0010
,  // measure 48
0000
0010
0000
0001
1000
0000
0000
1000
,  // measure 49
0010
0000
0000
0010
0100
0000
0000
0100
,  // measure 50
0001
1000
0001
1000
,  // measure 51
0010
1001
0000
0000
,  // measure 52
0000
0000
0001
0100
0010
0000
1000
0100
,  // measure 53
0000
0010
0000
0100
1000
0000
0001
0000
,  // measure 54
0100
0000
0010
1000
0001
0000
0010
0100
,  // measure 55
0000
1000
0000
0010
0100
0000
0001
0000
,  // measure 56
0010
0000
0100
1000
0001
0000
1000
0010
,  // measure 57
0000
0100
0000
0001
1000
0000
0100
0010
,  // measure 58
0001
0000
1000
0010
0100
0000
0010
1000
,  // measure 59
0000
0001
0010
0000
0100
0000
1000
0000
,  // measure 60
0010
0000
0100
0001
1000
0000
0001
0100
,  // measure 61
0000
0010
0000
1000
0100
0000
0010
0000
,  // measure 62
0001
0000
1000
0010
0100
0000
0001
0010
,  // measure 63
0000
0001
0000
1000
0010
0000
0100
0000
,  // measure 64
0001
0000
1000
0100
0010
0000
0100
0010
,  // measure 65
0000
0001
0000
1000
0010
0000
0100
0000
,  // measure 66
0001
0000
0010
0100
1000
0000
0001
0100
,  // measure 67
0000
0010
1000
0000
0001
0000
1000
0000
,  // measure 68
0010
0100
0010
0000
1000
0200
0000
0010
,  // measure 69
0000
0310
0000
0001
0100
0000
0010
1000
,  // measure 70
0001
0000
0010
0000
0100
2000
0000
0001
,  // measure 71
0000
3001
0000
0100
0010
0000
1000
0100
,  // measure 72
0010
0000
0001
0000
1000
0020
0000
0100
,  // measure 73
0000
0130
0000
0001
0010
0000
0100
1000
,  // measure 74
0010
0000
0100
0000
0001
2000
0000
0100
,  // measure 75
0000
3100
0010
0001
1000
0000
0010
0100
,  // measure 76
0001
0000
1000
0100
1000
0002
0000
0100
,  // measure 77
0000
1003
0000
0010
0100
0000
0001
0010
,  // measure 78
0100
0000
1000
0001
1000
0020
0000
0100
,  // measure 79
0000
1030
0000
0001
0010
0000
0100
1000
,  // measure 80
0010
0000
0100
0001
1000
0002
0000
0100
,  // measure 81
0000
0013
0000
0100
1000
0000
0010
0100
,  // measure 82
0001
0000
1000
0100
1000
0001
0000
0100
,  // measure 83
0000
0010
1000
0001
1000
0000
0100
0000
,  // measure 84
0010
0001
1000
0000
0000
0000
0000
0000
;

//---------------dance-single - ----------------
#NOTES:
     dance-single:
     :
     Easy:
     4:
     0.276,0.283,0.008,0.061,0.000: // measure 1
0000
0000
0000
0000
,  // measure 2
0000
0000
0000
0000
,  // measure 3
0000
0000
0000
0000
,  // measure 4
1001
0000
0000
0000
,  // measure 5
1000
0010
0100
0010
,  // measure 6
1000
0100
1000
0001
,  // measure 7
1000
0010
1000
0100
,  // measure 8
1000
0001
0001
0100
,  // measure 9
0010
1000
0100
1000
,  // measure 10
0010
0010
0100
0001
,  // measure 11
0010
0001
1000
0010
,  // measure 12
1000
1000
0001
0010
,  // measure 13
0100
1000
0010
0100
,  // measure 14
0010
0010
1000
0100
,  // measure 15
0010
0001
0100
0010
,  // measure 16
0100
0100
0001
0010
,  // measure 17
0001
1000
0010
0100
,  // measure 18
0010
0010
1000
0001
,  // measure 19
0010
0001
1000
0010
,  // measure 20
0100
0000
0000
0000
,  // measure 21
0001
0000
0000
0000
,  // measure 22
0000
0000
0000
0000
,  // measure 23
0000
0000
0000
0000
,  // measure 24
0000
0000
0000
0000
,  // measure 25
0000
0000
0000
0000
,  // measure 26
0000
0000
0000
0000
,  // measure 27
0000
0000
0000
0000
,  // measure 28
0000
0000
0000
0000
,  // measure 29
2000
0000
3001
0000
,  // measure 30
0000
1000
0000
0010
,  // measure 31
0200
0000
0310
0000
,  // measure 32
0000
0100
0000
0001
,  // measure 33
0020
0000
0130
0000
,  // measure 34
0000
1000
0000
0010
,  // measure 35
0200
0000
0310
0000
,  // measure 36
0000
1000
0000
0001
,  // measure 37
0200
0000
0310
0000
,  // measure 38
0000
1000
0000
0001
,  // measure 39
0020
0000
0130
0000
,  // measure 40
0000
1000
0000
0010
,  // measure 41
0200
0000
0310
0000
,  // measure 42
0000
1000
0000
0001
,  // measure 43
0020
0000
0130
0000
,  // measure 44
1000
0001
0100
0010
,  // measure 45
0000
1000
0100
0010
,  // measure 46
0000
0001
1000
0010
,  // measure 47
0000
1000
0001
0010
,  // measure 48
0000
0100
1000
0001
,  // measure 49
1000
0010
1000
0001
,  // measure 50
1000
0100
0010
0001
,  // measure 51
1000
0001
0000
0000
,  // measure 52
0000
1000
0010
0100
,  // measure 53
0010
1000
0100
0010
,  // measure 54
0001
0100
0010
0100
,  // measure 55
0001
0010
0100
1000
,  // measure 56
0010
0100
0010
1000
,  // measure 57
0100
0010
0001
0100
,  // measure 58
0010
1000
0001
0010
,  // measure 59
0001
1000
0010
0100
,  // measure 60
0001
0010
0100
1000
,  // measure 61
0010
0010
0100
0001
,  // measure 62
0010
0001
1000
0010
,  // measure 63
0100
0100
0001
0010
,  // measure 64
0100
1000
0001
1000
,  // measure 65
0010
0010
1000
0001
,  // measure 66
0010
0100
1000
0010
,  // measure 67
0100
0001
0000
0000
,  // measure 68
1000
0001
0100
0010
,  // measure 69
1000
0001
0010
0001
,  // measure 70
0001
1000
0010
0100
,  // measure 71
0001
0010
0001
1000
,  // measure 72
1000
0001
0100
0010
,  // measure 73
1000
0100
1000
0010
,  // measure 74
0010
1000
0100
0010
,  // measure 75
0001
0100
0010
1000
,  // measure 76
0001
0010
0100
1000
,  // measure 77
0010
0100
0010
1000
,  // measure 78
0100
0010
0001
0100
,  // measure 79
0010
1000
0001
0010
,  // measure 80
0100
1000
0010
0100
,  // measure 81
0010
1000
0100
0010
,  // measure 82
0001
0100
0010
1000
,  // measure 83
0001
0010
0100
1000
,  // measure 84
0010
0100
0000
0000
;

//---------------dance-single - ----------------
#NOTES:
     dance-single:
     :
     Beginner:
     2:
     0.135,0.189,0.000,0.061,0.000: // measure 1
0000
0000
0000
0000
,  // measure 2
0000
0000
0000
0000
,  // measure 3
0000
0000
0000
0000
,  // measure 4
0001
0000
0000
0000
,  // measure 5
1000
0000
0010
0000
,  // measure 6
1000
0000
0001
0000
,  // measure 7
1000
0000
0100
0000
,  // measure 8
1000
0000
0010
0000
,  // measure 9
1000
0000
0001
0000
,  // measure 10
0010
0000
0100
0000
,  // measure 11
1000
0000
0010
0000
,  // measure 12
1000
0000
0001
0000
,  // measure 13
1000
0000
0100
0000
,  // measure 14
0010
0000
0001
0000
,  // measure 15
1000
0000
0010
0000
,  // measure 16
1000
0000
0001
0000
,  // measure 17
1000
0000
0010
0000
,  // measure 18
0100
0000
0001
0000
,  // measure 19
0010
0000
0100
0000
,  // measure 20
1000
0000
0000
0000
,  // measure 21
0001
0000
0000
0000
,  // measure 22
0000
0000
0000
0000
,  // measure 23
0000
0000
0000
0000
,  // measure 24
0000
0000
0000
0000
,  // measure 25
0000
0000
0000
0000
,  // measure 26
0000
0000
0000
0000
,  // measure 27
0000
0000
0000
0000
,  // measure 28
0000
0000
0000
0000
,  // measure 29
2000
0000
0000
0000
,  // measure 30
0000
0000
0000
0000
,  // measure 31
3002
0000
0000
0000
,  // measure 32
0000
0000
0000
0000
,  // measure 33
2003
0000
0000
0000
,  // measure 34
0000
0000
0000
0000
,  // measure 35
3020
0000
0000
0000
,  // measure 36
0000
0000
0000
0000
,  // measure 37
0230
0000
0000
0000
,  // measure 38
0000
0000
0000
0000
,  // measure 39
0302
0000
0000
0000
,  // measure 40
0000
0000
0000
0000
,  // measure 41
0023
0000
0000
0000
,  // measure 42
0000
0000
0000
0000
,  // measure 43
0230
0000
0000
0000
,  // measure 44
0300
0000
0000
0000
,  // measure 45
0000
0001
0000
0000
,  // measure 46
0000
1000
0000
0000
,  // measure 47
0000
0001
0000
0000
,  // measure 48
0000
1000
0000
0001
,  // measure 49
0000
1000
0000
0001
,  // measure 50
0000
1000
1000
1000
,  // measure 51
1000
1000
0000
0000
,  // measure 52
0000
0001
0000
1000
,  // measure 53
0000
0010
0000
1000
,  // measure 54
0000
0100
0000
1000
,  // measure 55
0000
0001
0000
0100
,  // measure 56
0000
0010
0000
1000
,  // measure 57
0000
0001
0000
0010
,  // measure 58
0000
0001
0000
1000
,  // measure 59
0000
0010
0000
0100
,  // measure 60
0000
0001
0000
0010
,  // measure 61
0000
0001
0000
1000
,  // measure 62
0000
0010
0000
0100
,  // measure 63
0000
0001
0000
0010
,  // measure 64
0000
0001
0000
1000
,  // measure 65
0000
0010
0000
0100
,  // measure 66
0000
0001
0000
0010
,  // measure 67
0000
0001
0000
0000
,  // measure 68
0000
1000
0000
0010
,  // measure 69
0000
0100
0000
0010
,  // measure 70
0000
1000
0000
0100
,  // measure 71
0000
0010
0000
0001
,  // measure 72
0000
1000
0000
0010
,  // measure 73
0000
0100
0000
0001
,  // measure 74
0000
1000
0000
0100
,  // measure 75
0000
1000
0000
0001
,  // measure 76
0000
1000
0000
0010
,  // measure 77
0000
0100
0000
0001
,  // measure 78
0000
1000
0000
0100
,  // measure 79
0000
1000
0000
0001
,  // measure 80
0000
0100
0000
0010
,  // measure 81
0000
1000
0000
0010
,  // measure 82
0000
1000
0000
0100
,  // measure 83
0000
0010
0000
0001
,  // measure 84
0000
1000
0000
0000
;
