#TITLE:上海ハニー;
#SUBTITLE:;
#ARTIST:ORANGE RANGE;
#TITLETRANSLIT:Shanghai Honey;
#SUBTITLETRANSLIT:;
#ARTISTTRANSLIT:;
#CREDIT:Xythar;
#BANNER:Shanghai Honey-bn.avi;
#BACKGROUND:Shanghai Honey-bg.png;
#LYRICSPATH:Shanghai Honey.lrc;
#CDTITLE:ORANGE RANGE.png;
#MUSIC:Shanghai Honey.mp3;
#OFFSET:0.788;
#SAMPLESTART:15.824;
#SAMPLELENGTH:14.740;
#SELECTABLE:YES;
#BPMS:0.000=130.000;
#STOPS:;
#BGCHANGES:1.000=Shanghai Honey.avi=1.000=0=0=1,
260.000=Shanghai Honey-eg.jpg=1.000=1=0=1,
99999=-nosongbg-=1.000=0=0=0 // don't automatically add -songbackground-
;

//---------------dance-single - ----------------
#NOTES:
     dance-single:
     :
     Hard:
     7:
     0.520,0.460,0.267,0.142,0.046: // measure 1
0000
0000
0000
0000
,  // measure 2
1001
0000
1000
0100
0010
0000
0001
0100
,  // measure 3
0010
0000
0000
0000
0100
0000
0001
0000
1000
0000
0000
1000
0000
0000
0100
0000
,  // measure 4
0010
0000
0001
0100
0010
0000
0100
0001
,  // measure 5
1000
0001
1100
0101
,  // measure 6
0010
1000
0001
0000
0010
0100
1000
0000
,  // measure 7
0010
0100
0001
0000
1000
0001
0010
0000
,  // measure 8
1100
0011
0101
1010
,  // measure 9
0001
0100
0010
1000
0100
0010
0001
1000
,  // measure 10
0000
0001
0100
0010
0100
0001
0010
0100
,  // measure 11
0000
0001
0100
1000
0010
0100
0001
1000
,  // measure 12
0000
0100
0010
0001
0100
0010
0100
0001
,  // measure 13
0000
0000
1000
0000
0100
0000
0010
0000
0002
0000
0000
1000
0000
0000
1003
0000
,  // measure 14
0000
0010
0100
0001
0100
0010
1000
0100
,  // measure 15
0000
0001
0100
1000
0001
0100
0010
1000
,  // measure 16
0000
0100
0001
0100
0010
0100
1000
0001
,  // measure 17
0000
0100
0010
0100
0001
1000
0100
1000
,  // measure 18
1001
0000
0001
0100
0110
0000
1000
0100
,  // measure 19
0010
0000
0100
0000
0010
0000
0001
0000
2000
0000
0000
0001
0000
0000
3001
0000
,  // measure 20
0100
0000
0010
1000
1001
0000
1000
0010
,  // measure 21
0100
0000
0001
0000
0010
0000
0100
0000
2000
0000
0000
0001
0000
0000
3001
0000
,  // measure 22
0101
0000
0010
1000
1001
0000
0001
0010
,  // measure 23
0100
0000
1000
0000
0010
0000
0100
0000
0002
0000
0000
1000
0000
0000
1003
0000
,  // measure 24
0100
0000
0010
0001
1001
0000
0010
0100
,  // measure 25
0001
0100
0010
1000
1001
0000
0000
0000
,  // measure 26
0001
0000
0100
0010
1000
0000
0100
1000
,  // measure 27
0001
1000
0010
0100
0000
0000
0001
0010
,  // measure 28
0100
0000
1000
0001
0100
0000
0000
0001
,  // measure 29
0010
0100
1000
0001
1001
0000
0000
0000
,  // measure 30
0010
0100
0000
0001
0000
1000
0000
0100
,  // measure 31
0000
1000
0000
0010
0000
0100
0000
0001
,  // measure 32
1000
0100
0000
1000
0000
0001
0000
0100
,  // measure 33
0000
1000
0000
0100
0000
0001
1000
0100
,  // measure 34
0000
1000
0001
0100
0000
0010
0000
0010
,  // measure 35
0000
0100
0001
1000
0000
0001
1000
0000
,  // measure 36
0002
0023
0230
2300
,  // measure 37
3002
0203
0320
2030
,  // measure 38
3100
0010
0001
0100
0010
0100
0001
1000
,  // measure 39
0000
0100
0010
0001
0100
0010
0100
0001
,  // measure 40
0000
0010
0100
1000
0010
0100
0001
1000
,  // measure 41
0000
0000
0100
0000
0010
0000
0001
0000
2000
0000
0000
0001
0000
0000
3001
0000
,  // measure 42
0000
0100
1000
0100
0010
1000
0001
0010
,  // measure 43
0000
0000
1000
0000
0010
0000
0001
0000
0200
0000
0000
0010
0000
0000
0310
0000
,  // measure 44
0000
0100
0001
0100
0010
1000
0100
0010
,  // measure 45
0000
0001
0100
0001
1000
0001
0010
0100
,  // measure 46
1100
0000
1000
0001
0101
0000
0010
1000
,  // measure 47
0001
0000
1000
0000
0100
0000
1000
0000
0020
0000
0000
0100
0000
0000
0130
0000
,  // measure 48
0001
0000
0010
0100
1100
0000
0001
0100
,  // measure 49
1000
0000
0100
0000
0010
0000
0100
0000
0002
0000
0000
1000
0000
0000
1003
0000
,  // measure 50
1100
0000
1000
0001
0101
0000
1000
0100
,  // measure 51
0010
0000
0100
0000
0001
0000
1000
0000
0200
0000
0000
0010
0000
0000
0310
0000
,  // measure 52
0001
0000
0100
0010
1010
0000
0100
0001
,  // measure 53
1000
0100
1000
0001
1001
0000
0000
0000
,  // measure 54
0001
0010
0000
0100
0000
1000
0000
0001
,  // measure 55
0000
0100
0000
0010
1000
0100
0010
0001
,  // measure 56
1000
0100
1000
0100
1000
0001
1000
0001
,  // measure 57
1000
0010
1000
0010
0100
0001
0010
0100
,  // measure 58
0000
1000
0000
0101
0000
0010
0000
1100
,  // measure 59
0000
0010
0000
1001
0001
0100
0010
1000
,  // measure 60
0000
1100
0000
0011
0000
0101
0000
1010
,  // measure 61
0000
0110
0000
1001
1000
0100
0010
0001
,  // measure 62
1000
0000
0100
0010
0001
0000
0100
0010
,  // measure 63
0100
0000
0001
0000
1000
0000
0001
0000
0010
0000
0000
0010
0000
0000
0100
0000
,  // measure 64
1000
0000
0001
0100
0010
0000
0100
0001
,  // measure 65
1000
0100
0010
0001
1001
0000
0100
0000
;

//---------------dance-single - ----------------
#NOTES:
     dance-single:
     :
     Medium:
     5:
     0.369,0.379,0.067,0.050,0.000: // measure 1
0000
0000
0000
0000
,  // measure 2
1000
0000
0000
0010
0100
0000
0000
0001
,  // measure 3
0100
0000
0000
0001
1000
0000
0100
0010
,  // measure 4
0001
0000
0000
0100
0001
0000
0000
1000
,  // measure 5
0001
0000
0000
0010
0001
0000
1100
0000
,  // measure 6
0010
0000
0000
0100
0010
0000
0000
1000
,  // measure 7
0010
0000
0000
1000
0001
0000
0100
0010
,  // measure 8
1000
0100
0010
0001
,  // measure 9
0100
0010
1000
0000
0001
0100
0001
1000
,  // measure 10
0100
0000
0010
0000
0001
0000
0100
0010
,  // measure 11
1000
0000
0100
0000
1000
0000
0001
0100
,  // measure 12
0010
0000
1000
0000
0001
0000
0010
0100
,  // measure 13
1000
0000
0001
0000
0100
0000
0001
1000
,  // measure 14
0100
0000
1000
0000
0010
0000
0100
0001
,  // measure 15
1000
0000
0100
0000
1000
0000
0010
0100
,  // measure 16
0001
0000
1000
0000
0100
0000
0010
0001
,  // measure 17
0100
0000
0010
0000
0100
0000
0001
0010
,  // measure 18
0100
0000
0000
1000
0100
0000
0000
1000
,  // measure 19
0001
0000
0100
0000
0010
0000
1000
0100
,  // measure 20
0010
0000
0000
0100
1000
0000
0000
0001
,  // measure 21
0100
0000
0010
0000
1000
0000
0100
0010
,  // measure 22
0001
0000
0000
0100
0010
0000
0000
0100
,  // measure 23
0001
0000
1000
0000
0100
0000
0010
0001
,  // measure 24
1000
0000
0000
0001
0100
0000
0000
0001
,  // measure 25
1000
0100
1001
0000
,  // measure 26
0010
0000
0000
0100
0010
0000
0000
0100
,  // measure 27
0001
0000
1000
0100
0000
0000
1000
0001
,  // measure 28
0100
0000
0000
0001
1000
0000
0000
0001
,  // measure 29
0010
0100
1000
0001
1000
0000
0010
0000
,  // measure 30
0100
0001
0000
1000
0000
0100
0000
1000
,  // measure 31
0000
0001
0000
0100
0000
0001
0000
0010
,  // measure 32
0000
0100
0000
1000
0000
0010
0000
0100
,  // measure 33
0000
0001
0010
0000
0000
0100
1000
0001
,  // measure 34
0000
0100
0000
0010
0000
0100
0000
0001
,  // measure 35
0000
1000
0000
0100
0000
1000
0000
0001
,  // measure 36
2000
0000
3002
0000
,  // measure 37
0023
0230
2300
3020
,  // measure 38
0130
0000
0001
0000
0010
0000
0100
1000
,  // measure 39
0001
0000
1000
0000
0010
0000
0100
0001
,  // measure 40
1000
0000
0100
0000
0010
0000
0001
0100
,  // measure 41
0010
0000
1000
0000
0100
0000
0010
0001
,  // measure 42
0100
0000
0010
0000
1000
0000
0100
1000
,  // measure 43
0010
0000
0100
0000
0001
0000
0010
0100
,  // measure 44
1000
0000
0001
0100
0010
0000
1000
0001
,  // measure 45
0010
0000
0100
0000
1100
0000
0001
0100
,  // measure 46
0001
0000
0000
1000
1000
0000
0000
0001
,  // measure 47
0010
0000
0100
0000
1000
0000
0001
0100
,  // measure 48
0010
0000
0000
0100
0100
0000
0000
0010
,  // measure 49
1000
0000
0001
0000
1000
0000
0100
0010
,  // measure 50
0001
0000
0000
1000
1000
0000
0000
0001
,  // measure 51
0010
0000
0100
0000
1000
0000
0001
1000
,  // measure 52
0100
0000
0000
0010
0010
0000
0000
0001
,  // measure 53
0100
0010
1001
0000
,  // measure 54
0001
0010
0000
0001
0000
0100
0000
0010
,  // measure 55
0000
0100
0000
0001
0100
0001
1000
0001
,  // measure 56
0000
1000
0000
0100
0000
0010
0000
0001
,  // measure 57
0000
0100
0000
0010
1000
0001
1000
0100
,  // measure 58
0000
0010
0000
1001
0000
0100
0000
1001
,  // measure 59
0000
0010
0000
0100
0001
1000
0100
1000
,  // measure 60
0000
1000
0000
0110
0000
0001
0000
0110
,  // measure 61
0000
1000
0000
0001
1000
0100
0010
0001
,  // measure 62
1000
0000
0000
0001
1000
0000
0000
0010
,  // measure 63
0100
0001
0100
0000
0010
0000
1000
0000
,  // measure 64
0100
0000
0000
0010
0100
0000
0000
0010
,  // measure 65
0001
1000
0001
1000
;

//---------------dance-single - ----------------
#NOTES:
     dance-single:
     :
     Easy:
     2:
     0.189,0.216,0.000,0.067,0.000: // measure 1
0000
0000
0000
0000
,  // measure 2
1000
0000
0010
0000
,  // measure 3
0100
0000
0001
1000
,  // measure 4
0001
0000
0010
0000
,  // measure 5
0100
0000
1000
0001
,  // measure 6
1000
0000
0010
0000
,  // measure 7
0100
0000
0001
0100
,  // measure 8
0001
0001
1000
1000
,  // measure 9
0100
0000
0010
0000
,  // measure 10
0001
0000
0000
1000
,  // measure 11
0100
0000
0000
1000
,  // measure 12
0010
0000
0000
0100
,  // measure 13
0001
0000
1000
0000
,  // measure 14
0100
0000
0000
1000
,  // measure 15
0001
0000
0000
0100
,  // measure 16
0010
0000
0000
0100
,  // measure 17
0001
0000
0010
0000
,  // measure 18
0100
0000
1000
0000
,  // measure 19
0001
0000
1000
0001
,  // measure 20
1000
0000
1000
0000
,  // measure 21
0010
0000
0100
0010
,  // measure 22
0100
0000
0100
0000
,  // measure 23
0001
0000
1000
0100
,  // measure 24
1000
0000
1000
0000
,  // measure 25
0010
0100
0010
0000
,  // measure 26
1000
0000
0100
0000
,  // measure 27
1000
0001
0000
0100
,  // measure 28
0010
0000
0100
0000
,  // measure 29
0001
1000
0001
0000
,  // measure 30
0010
0000
0000
0000
,  // measure 31
0100
0000
0000
0000
,  // measure 32
1000
0000
0000
0000
,  // measure 33
0001
0000
0000
0000
,  // measure 34
1000
0100
0000
0000
,  // measure 35
0010
0000
0001
0000
,  // measure 36
0002
0000
0023
0000
,  // measure 37
0230
0000
2300
0000
,  // measure 38
3002
0000
0000
1000
,  // measure 39
2003
0000
0000
0010
,  // measure 40
3020
0000
0000
0100
,  // measure 41
0230
0000
0000
0001
,  // measure 42
0301
0000
1000
0100
,  // measure 43
1000
0000
0001
0100
,  // measure 44
0001
0000
1000
0000
,  // measure 45
0001
0000
1000
1000
,  // measure 46
1000
0000
0001
0000
,  // measure 47
1000
1000
0001
0001
,  // measure 48
0001
0000
1000
0000
,  // measure 49
0010
0010
0100
0100
,  // measure 50
0100
0000
0001
0000
,  // measure 51
1000
0100
1000
0000
,  // measure 52
0001
0000
0100
0000
,  // measure 53
0010
1000
0010
0000
,  // measure 54
0100
0000
0000
0000
,  // measure 55
0001
0000
1000
0000
,  // measure 56
0100
0010
0100
0010
,  // measure 57
0100
0000
0010
0000
,  // measure 58
0001
0000
0000
1000
,  // measure 59
0010
0000
0100
0000
,  // measure 60
0001
1000
0001
1000
,  // measure 61
0001
0000
0010
0000
,  // measure 62
0100
0000
1000
0000
,  // measure 63
0001
1000
0001
0000
,  // measure 64
1000
0000
0010
0000
,  // measure 65
0100
0001
1000
1000
;

//---------------dance-single - ----------------
#NOTES:
     dance-single:
     :
     Beginner:
     1:
     0.113,0.135,0.000,0.000,0.000: // measure 1
0000
0000
0000
0000
,  // measure 2
1000
0000
0000
0000
,  // measure 3
0001
0000
0000
0000
,  // measure 4
1000
0000
0000
0000
,  // measure 5
0010
0000
0100
0000
,  // measure 6
0100
0000
0000
0000
,  // measure 7
0001
0000
0000
0000
,  // measure 8
0010
0000
0100
0000
,  // measure 9
1000
0000
0001
0000
,  // measure 10
1000
0000
0000
0000
,  // measure 11
0100
0000
0000
0000
,  // measure 12
0010
0000
0000
0000
,  // measure 13
0001
0000
0100
0000
,  // measure 14
0010
0000
0000
0000
,  // measure 15
1000
0000
0000
0000
,  // measure 16
0100
0000
0000
0000
,  // measure 17
1000
0000
0010
0000
,  // measure 18
0100
0000
0001
0000
,  // measure 19
1000
0000
0001
0000
,  // measure 20
1000
0000
0000
0000
,  // measure 21
0100
0000
1000
0000
,  // measure 22
0010
0000
0000
0000
,  // measure 23
0100
0000
0001
0000
,  // measure 24
1000
0000
0000
0000
,  // measure 25
0100
0000
1000
0000
,  // measure 26
0001
0000
0000
0000
,  // measure 27
1000
0000
0000
0000
,  // measure 28
0010
0000
0000
0000
,  // measure 29
0100
0000
0000
0000
,  // measure 30
0001
0000
0000
0000
,  // measure 31
1000
0000
0000
0000
,  // measure 32
0001
0000
0000
0000
,  // measure 33
0010
0000
0000
0000
,  // measure 34
0100
0000
1000
0000
,  // measure 35
0001
0000
0000
0000
,  // measure 36
0100
0000
0010
0000
,  // measure 37
0100
0000
0001
0000
,  // measure 38
1000
0000
0000
0000
,  // measure 39
0100
0000
0000
0000
,  // measure 40
0010
0000
0000
0000
,  // measure 41
0001
0000
1000
0000
,  // measure 42
0001
0000
0000
0000
,  // measure 43
0100
0000
0000
0000
,  // measure 44
0010
0000
0000
0000
,  // measure 45
1000
0000
0100
0000
,  // measure 46
0010
0000
0010
0000
,  // measure 47
0001
0000
0001
0000
,  // measure 48
1000
0000
1000
0000
,  // measure 49
0010
0000
0010
0000
,  // measure 50
0100
0000
0100
0000
,  // measure 51
0001
0000
0001
0000
,  // measure 52
1000
0000
1000
0000
,  // measure 53
0100
0000
0100
0000
,  // measure 54
0010
0000
0000
0000
,  // measure 55
0001
0000
0000
0000
,  // measure 56
1000
0000
0010
0000
,  // measure 57
0100
0000
0010
0000
,  // measure 58
1000
0000
0000
0000
,  // measure 59
0100
0000
0000
0000
,  // measure 60
0010
0000
0001
0000
,  // measure 61
1000
0000
0010
0000
,  // measure 62
0100
0000
0001
0000
,  // measure 63
1000
0000
0100
0000
,  // measure 64
1000
0000
0001
0000
,  // measure 65
1000
0000
0000
0001
;
