#TITLE:Shake It Down;
#SUBTITLE:;
#ARTIST:good-cool;
#TITLETRANSLIT:;
#SUBTITLETRANSLIT:;
#ARTISTTRANSLIT:;
#CREDIT:Steps and graphics by Xythar (source - James Braddock on deviantart);
#BANNER:Shake It Down.png;
#BACKGROUND:Shake It Down-bg.png;
#LYRICSPATH:Shake It Down.lrc;
#CDTITLE:cdtitle.png;
#MUSIC:Shake It Down.mp3;
#OFFSET:-0.368;
#SAMPLESTART:55.960;
#SAMPLELENGTH:15.360;
#SELECTABLE:YES;
#BPMS:0.000=125.000;
#STOPS:;
#BGCHANGES:4.000=zRainbow1S.avi=1.000=1=0=1,
20.000=zRainbow2S.avi=1.000=0=0=1,
36.000=zDiscoball1.avi=1.000=0=0=1,
52.000=zBricks1.avi=1.000=0=0=1,
68.000=zFloor1.avi=1.000=0=0=1,
83.000=zDance12.avi=1.000=0=0=1,
99.000=zGroove1S.avi=1.000=0=0=1,
112.000=zDance7D.avi=1.200=0=0=1,
113.500=zDance7C.avi=1.200=0=0=1,
115.000=zDance7Ds.png=1.000=0=0=1,
115.500=zDance7Cs.png=1.000=0=0=1,
116.000=zSilhouette1.avi=1.000=0=0=1,
132.000=zDance10.avi=1.000=0=0=1,
148.000=zDiscoball1.avi=1.000=0=0=1,
156.500=zFloor1.avi=1.000=0=0=1,
164.500=zBricks1.avi=1.000=0=0=1,
172.500=zRainbow2S.avi=1.000=0=0=1,
176.500=zRainbow1S.avi=1.000=0=0=1,
179.500=Shake It Down-bg.png=1.000=0=0=1,
99999=-nosongbg-=1.000=0=0=0 // don't automatically add -songbackground-
;

//---------------dance-single - ----------------
#NOTES:
     dance-single:
     :
     Hard:
     7:
     0.442,0.450,0.056,0.189,0.095: // measure 1
0000
0000
0000
0000
,  // measure 2
1000
0100
1000
0001
,  // measure 3
1000
0100
0010
0001
0100
0000
0010
0000
,  // measure 4
2000
0100
3100
0002
,  // measure 5
0100
0000
0103
0000
0010
0100
0010
0000
,  // measure 6
1001
0001
1000
0010
,  // measure 7
1000
0100
0001
0100
1000
0000
0001
0000
,  // measure 8
0200
1000
1300
0200
,  // measure 9
0001
0000
0301
0000
0000
1001
1001
0000
,  // measure 10
1000
0100
0010
0100
1000
0001
0100
0000
,  // measure 11
0001
1000
0100
1000
0001
0100
0010
0000
,  // measure 12
0100
1000
0100
0001
0010
1000
0010
0000
,  // measure 13
0001
0000
0000
0100
0000
0000
0010
0000
0000
0000
0200
0000
0000
0000
0300
0000
,  // measure 14
0001
0000
0010
0000
0100
0000
0000
1000
0000
0000
0010
0000
0100
0000
0000
0000
,  // measure 15
1000
0000
0100
0000
0001
0000
0000
1000
0000
0000
0100
0000
0001
0000
0000
0000
,  // measure 16
0100
0000
0010
0000
0001
0000
0100
0000
0010
0000
0000
1000
0000
0000
0100
0000
,  // measure 17
0000
1000
0010
1000
0100
0001
0100
0000
,  // measure 18
1000
0000
0010
0000
0100
0000
0000
0001
0000
0000
0100
0000
1000
0000
0000
0000
,  // measure 19
0100
0000
0001
0000
0010
0000
0000
1000
0000
0000
0010
0000
0001
0000
0000
0000
,  // measure 20
0100
0000
0010
0000
1000
0000
0001
0000
0010
0000
0000
0001
0000
0000
0010
0000
,  // measure 21
0000
0100
1000
0100
1000
0001
0100
0001
,  // measure 22
0020
0000
0130
2000
0000
3010
0200
0000
,  // measure 23
0301
2000
0000
3100
0001
0100
0010
0100
,  // measure 24
1000
0000
0010
0100
0010
0000
1000
0000
,  // measure 25
0100
0000
0001
0000
0100
0000
1000
0010
,  // measure 26
0200
0000
1300
0200
0000
0301
0020
0000
,  // measure 27
1030
0020
0000
0031
0100
0010
1000
0000
,  // measure 28
0010
0000
0100
0001
0000
0010
0100
1000
,  // measure 29
0100
1000
0000
0100
1000
0000
0001
1000
0000
0001
1000
0000
1001
0000
1001
0000
,  // measure 30
1000
0100
0001
0000
0010
0000
1000
0000
,  // measure 31
0001
0010
1000
0000
0100
0000
0001
0000
,  // measure 32
1000
0100
0010
0001
0100
1000
0100
0001
,  // measure 33
0100
0000
0000
0010
0000
0000
1000
0000
0100
0000
0010
0000
0100
0000
0000
0000
,  // measure 34
1000
0010
0001
0000
0100
0000
1000
0000
,  // measure 35
0001
0100
1000
0000
0010
0000
0001
0000
,  // measure 36
1000
0100
0010
0100
0001
0100
1000
0010
,  // measure 37
0001
0000
0000
0010
0000
0000
0100
0000
0001
0000
0100
0000
1000
0000
0100
0000
,  // measure 38
0001
0010
0100
0000
0010
0010
0000
0001
,  // measure 39
0000
1000
0100
0000
1000
1000
0000
0010
,  // measure 40
0000
0100
0001
0000
0100
0100
0000
0010
,  // measure 41
0000
1000
0001
0000
1000
1000
0000
0100
,  // measure 42
0000
0000
1000
0000
0100
0000
0010
0000
0002
0000
0000
0100
0000
0000
0103
0000
,  // measure 43
0000
0000
0001
0000
0010
0000
0100
0000
2000
0000
0000
0100
0000
0000
3100
0000
,  // measure 44
0000
0000
1000
0000
0100
0000
0001
0000
0200
0000
0000
0010
0000
0000
0310
0000
,  // measure 45
0000
0000
0001
0000
0100
0000
1000
0000
0200
0000
0000
0010
0000
0000
0310
0000
;

//---------------dance-single - ----------------
#NOTES:
     dance-single:
     :
     Medium:
     5:
     0.334,0.350,0.022,0.189,0.061: // measure 1
0000
0000
0000
0000
,  // measure 2
1000
0001
0100
0000
,  // measure 3
0001
1000
0001
1000
0000
0000
0100
0000
,  // measure 4
0020
0001
0031
0020
,  // measure 5
0100
0130
1000
0010
,  // measure 6
0100
0001
0010
0000
,  // measure 7
0100
1000
0100
1000
0000
0000
0001
0000
,  // measure 8
0200
0010
0310
2000
,  // measure 9
0100
0000
3100
0000
0000
1000
0001
0000
,  // measure 10
0010
0000
0100
0000
1000
0100
1000
0000
,  // measure 11
0001
0000
0100
0000
0010
1000
0010
0000
,  // measure 12
0100
0000
0001
0000
0010
0100
0010
0000
,  // measure 13
0100
0000
0000
1000
0000
0000
0100
0000
0000
0000
0020
0000
0000
0000
0030
0000
,  // measure 14
0001
0000
0000
0000
0010
0000
0000
0100
0000
0000
1000
0000
0001
0000
0000
0000
,  // measure 15
0100
0000
0000
0000
0010
0000
0000
1000
0000
0000
0001
0000
0010
0000
0000
0000
,  // measure 16
0100
0010
0001
0100
,  // measure 17
0010
0000
1000
0000
0001
0000
0010
0100
,  // measure 18
1000
0000
0000
0000
0001
0000
0000
0100
0000
0000
0010
0000
0100
0000
0000
0000
,  // measure 19
0001
0000
0000
0000
0010
0000
0000
0100
0000
0000
0010
0000
0001
0000
0000
0000
,  // measure 20
1000
0010
1000
0100
,  // measure 21
1000
0000
0001
0000
0010
0000
0100
0010
,  // measure 22
0002
0000
0000
0013
0000
0000
0200
0000
,  // measure 23
0000
0310
0000
0000
0002
0000
0103
0000
,  // measure 24
0020
0000
1030
0000
,  // measure 25
0100
0000
0010
0000
0001
0000
0010
0100
,  // measure 26
2000
0000
0000
3001
0000
0000
0020
0000
,  // measure 27
0000
0130
0000
0000
2000
0000
3010
0000
,  // measure 28
0200
0301
0010
0100
,  // measure 29
1000
0000
0000
1000
0000
0000
0001
0000
0000
0001
0000
0000
1001
0000
1001
0000
,  // measure 30
1000
0001
0100
0000
1000
0000
0100
0000
,  // measure 31
0001
1000
0010
0000
0001
0000
0010
0000
,  // measure 32
1000
0000
0100
0010
0100
0000
0010
0001
,  // measure 33
0100
0010
1000
0100
,  // measure 34
1000
0001
0010
0000
1000
0000
0010
0000
,  // measure 35
0001
1000
0100
0000
0001
0000
0100
0000
,  // measure 36
1000
0000
0001
0100
0001
0000
0100
0010
,  // measure 37
1000
0001
0100
0010
,  // measure 38
1000
0000
0100
0000
0010
0010
0000
0001
,  // measure 39
0000
0000
0100
0000
0001
0001
0000
0100
,  // measure 40
0000
0000
0010
0000
1000
1000
0000
0100
,  // measure 41
0000
0000
0010
0000
0100
0100
0000
1000
,  // measure 42
0000
0000
0000
0000
0200
0000
0000
0000
0010
0000
0000
0010
0000
0000
0310
0000
,  // measure 43
0000
0000
0000
0000
0002
0000
0000
0000
1000
0000
0000
1000
0000
0000
1003
0000
,  // measure 44
0000
0000
0000
0000
0020
0000
0000
0000
0100
0000
0000
0100
0000
0000
0130
0000
,  // measure 45
0000
0000
0000
0000
2000
0000
0000
0000
0001
0000
0000
0001
0000
0000
3001
0000
;

//---------------dance-single - ----------------
#NOTES:
     dance-single:
     :
     Easy:
     3:
     0.208,0.200,0.022,0.000,0.000: // measure 1
0000
0000
0000
0000
,  // measure 2
1001
0000
0010
0000
,  // measure 3
0010
0100
0000
0000
,  // measure 4
1000
0001
0001
0000
,  // measure 5
0001
1000
0000
0100
,  // measure 6
0000
0110
0000
0000
,  // measure 7
1000
0001
0000
0000
,  // measure 8
0010
0100
0100
0000
,  // measure 9
0100
0010
0000
0000
,  // measure 10
0001
0010
0100
1000
,  // measure 11
0010
0100
0000
0000
,  // measure 12
0001
0100
0010
1000
,  // measure 13
0100
0000
0000
0000
,  // measure 14
1000
0100
0010
0000
,  // measure 15
0001
0010
0100
0000
,  // measure 16
1000
0010
0100
0010
,  // measure 17
1000
0001
1000
0000
,  // measure 18
0100
0010
0001
0000
,  // measure 19
1000
0100
0010
0000
,  // measure 20
0001
1000
0010
0100
,  // measure 21
0010
1000
0001
0000
,  // measure 22
1000
0000
0100
0000
,  // measure 23
0010
0000
0001
0010
,  // measure 24
0100
0000
1000
0000
,  // measure 25
0100
0000
0010
0001
,  // measure 26
0100
0000
0010
0000
,  // measure 27
1000
0000
0001
0000
,  // measure 28
1000
0001
1000
0000
,  // measure 29
0001
0001
1000
1000
,  // measure 30
1000
0100
0001
0000
,  // measure 31
0001
0100
1000
0000
,  // measure 32
0001
0010
0100
0010
,  // measure 33
0001
1000
0001
0000
,  // measure 34
1000
0100
0001
0000
,  // measure 35
0001
0100
1000
0000
,  // measure 36
1000
0100
0010
0100
,  // measure 37
0010
0001
0010
0000
,  // measure 38
0001
1000
0100
0000
,  // measure 39
1000
0001
0100
0000
,  // measure 40
0010
1000
0100
0000
,  // measure 41
0010
0001
0100
0010
,  // measure 42
1000
0100
0010
0000
,  // measure 43
0001
0100
0010
0000
,  // measure 44
1000
0010
0100
0000
,  // measure 45
0001
1000
0100
1000
,  // measure 46
0100
0000
0000
0000
;

//---------------dance-single - ----------------
#NOTES:
     dance-single:
     :
     Beginner:
     1:
     0.137,0.200,0.078,0.000,0.000:
0000
0000
0000
0000
,
1000
0000
0001
0000
,
1000
0000
0001
0000
,
0000
1000
1000
0000
,
0001
0001
0000
0000
,
0010
0000
0100
0000
,
0010
0000
0100
0000
,
0000
0010
0010
0000
,
0100
0100
0000
1001
,
0000
0000
0001
0000
,
0100
0000
0010
0000
,
1000
0000
0001
0000
,
1000
1000
1000
0000
,
0100
0000
0010
0000
,
0100
0000
1000
0000
,
0001
0000
0100
0000
,
0010
0000
0000
0000
,
1000
0000
0100
0000
,
0010
0000
0001
0000
,
0100
0000
0010
0000
,
1000
0000
0001
0000
,
1000
0000
0000
0000
,
0100
0000
0000
0000
,
0010
0000
0000
0000
,
0001
0000
0010
0010
,
0010
0000
0100
0000
,
0010
0000
0001
0000
,
0100
0000
0010
0000
,
1001
0000
0110
0000
,
1001
0000
0000
0000
,
0110
0000
0000
0000
,
0001
0000
0010
0000
,
0100
0000
0010
0000
,
0110
0000
0000
0000
,
1001
0000
0000
0000
,
1000
0000
0010
0000
,
0100
0000
0001
0000
,
0100
0000
0000
0000
,
0010
0000
0000
0000
,
1000
0000
0000
0000
,
0001
0000
0000
0000
,
0010
0000
0100
0000
,
1000
0000
0100
0000
,
0010
0000
0001
0000
,
0100
0000
0010
0000
,
1000
0000
0000
0000
;

//---------------dance-double - ----------------
#NOTES:
     dance-double:
     :
     Easy:
     3:
     0.215,0.251,0.111,0.000,0.000:
00000000
00000000
00000000
00000000
,
10010000
00000000
00100000
00000000
,
00001000
00010000
00000000
00000000
,
00000001
00000100
00000100
00000000
,
00000010
00010000
00000000
00001000
,
00000000
00011000
00000000
00000000
,
10000000
01000000
00000000
00000000
,
00100000
00001000
00001000
00000000
,
01000000
00010000
00000000
00000000
,
00100000
00001000
00010000
00000010
,
00000100
00000001
00000000
00000000
,
00001000
00000010
00010000
00000100
,
00010000
00000000
00000000
00000000
,
00001000
00100000
01000000
00000000
,
10000000
00100000
01000000
00000000
,
00001000
00010000
00001000
00010000
,
00000100
00001000
00000100
00000000
,
00000010
00000001
00000100
00000000
,
00000010
00001000
00000010
00010000
,
00001000
10000000
00100000
01000000
,
00100000
10000000
01000000
00000000
,
00100000
00000000
00001000
00000000
,
01000000
00000000
00001000
00010000
,
00000100
00000000
00010000
00000000
,
00001000
00000000
00100000
00010000
,
01000000
00000000
00001000
00000000
,
00010000
00000000
00000100
00000000
,
00000010
00000001
00000100
00000000
,
00000001
00000001
00001000
00001000
,
00001000
00000100
00010000
00000000
,
00000010
00001000
00000100
00000000
,
00000010
00000100
00001000
00100000
,
01000000
00001000
01000000
00000000
,
10000000
01000000
00001000
00000000
,
00000100
00010000
01000000
00000000
,
10000000
00100000
01000000
00010000
,
00000010
00000001
00000100
00000000
,
00000110
00000110
00000000
00000000
,
00011000
00011000
00000000
00000000
,
01100000
01100000
00000000
00000000
,
00011000
00011000
00000000
00000000
,
00000100
00001000
00000010
00000000
,
00010000
00001000
00100000
00000000
,
00001000
00010000
00000100
00000000
,
01000000
00001000
00100000
00001000
,
01000000
00000000
00000000
00000000
;

//---------------dance-double - ----------------
#NOTES:
     dance-double:
     :
     Medium:
     5:
     0.336,0.350,0.022,0.189,0.061:
00000000
00000000
00000000
00000000
,
10000000
00010000
01000000
00000000
,
00001000
00010000
00001000
00010000
00000000
00000000
00000100
00000000
,
00000020
00000001
00000031
00000200
,
00001000
00001300
00000100
00000010
,
00010000
00010000
01000000
00000000
,
00010000
00001000
00010000
00001000
00000000
00000000
01000000
00000000
,
00200000
01000000
01300000
00002000
,
00000010
00000000
00003010
00000000
00000000
00001000
00010000
00000000
,
00000010
00000000
00000100
00000000
00000001
00001000
00000001
00000000
,
00001000
00000000
00100000
00000000
10000000
00010000
10000000
00000000
,
01000000
00000000
00001000
00000000
00000100
00000010
00000100
00000000
,
00010000
00000000
00000000
00100000
00000000
00000000
10000000
00000000
00000000
00000000
02000000
00000000
00000000
00000000
03000000
00000000
,
00010000
00000000
00000000
00000000
00000100
00000000
00000000
00000010
00000000
00000000
00000001
00000000
00000100
00000000
00000000
00000000
,
00001000
00000000
00000000
00000000
00100000
00000000
00000000
01000000
00000000
00000000
10000000
00000000
00010000
00000000
00000000
00000000
,
01000000
00001000
00010000
00000010
,
00000100
00000000
00000001
00000000
00000010
00000000
00000100
00010000
,
00001000
00000000
00000000
00000000
01000000
00000000
00000000
00100000
00000000
00000000
10000000
00000000
01000000
00000000
00000000
00000000
,
00010000
00000000
00000000
00000000
00000100
00000000
00000000
00000010
00000000
00000000
00000001
00000000
00000100
00000000
00000000
00000000
,
00010000
00100000
01000000
10000000
,
00010000
00000000
00100000
00000000
01000000
00000000
00001000
00000010
,
00000200
00000000
00000000
00001300
00000000
00000000
00200000
00000000
,
00000000
00310000
00000000
00000000
00000020
00000000
00000031
00000000
,
00000200
00000000
00000000
00001300
00010000
00000000
00000000
00000000
,
01000000
00000000
00001000
00000000
00000100
00000000
00010000
00100000
,
20000000
00000000
00000000
31000000
00000000
00000000
00020000
00000000
,
00000000
00031000
00000000
00000000
00000200
00000000
00000301
00000000
,
00002000
00003010
00001000
00000100
,
00010000
00000000
00000000
00010000
00000000
00000000
00001000
00000000
00000000
00001000
00000000
00000000
00011000
00000000
00011000
00000000
,
10000000
00010000
01000000
00000000
10000000
00000000
01000000
00000000
,
00010000
10000000
00100000
00000000
00010000
00000000
00100000
00000000
,
10000000
00000000
01000000
00010000
01000000
00000000
00010000
00001000
,
00010000
00000001
00000100
00000010
,
00001000
00000001
00000010
00000000
00001000
00000000
00000010
00000000
,
00000001
00001000
00000100
00000000
00000001
00000000
00000100
00000000
,
00001000
00000000
00010000
01000000
00010000
00000000
00000100
00001000
,
00000100
00000010
00001000
00100000
,
01000000
00000000
00010000
00000000
00000010
00000001
00000000
00000100
,
00000000
00000000
00010000
00000000
10000000
00100000
00000000
01000000
,
00000000
00000000
00001000
00000000
00000100
00000001
00000000
00000010
,
00000000
00000000
00010000
00000000
01000000
00100000
00000000
10000000
,
00000000
00000000
00000000
00000000
02000000
00000000
00000000
00000000
00010000
00000000
00000000
00010000
00000000
00000000
03010000
00000000
,
00000000
00000000
00000000
00000000
00000200
00000000
00000000
00000000
00001000
00000000
00000000
00001000
00000000
00000000
00001300
00000000
,
00000000
00000000
00000000
00000000
00200000
00000000
00000000
00000000
00010000
00000000
00000000
00010000
00000000
00000000
00310000
00000000
,
00000000
00000000
00000000
00000000
00000020
00000000
00000000
00000000
00001000
00000000
00000000
00001000
00000000
00000000
00001030
00000000
;

//---------------dance-double - ----------------
#NOTES:
     dance-double:
     :
     Hard:
     7:
     0.429,0.450,0.056,0.278,0.095:
00000000
00000000
00000000
00000000
,
10000000
01000000
00010000
00001000
,
00010000
00000100
00000010
00000001
00000100
00000000
00010000
00000000
,
02000000
00001000
03001000
00000200
,
00010000
00000000
00010300
00000000
00000100
00000010
00000100
00000000
,
00001001
00000100
00010000
10000000
,
01000000
00010000
00000100
00010000
01000000
00000000
00010000
00000000
,
00002000
00010000
00013000
00002000
,
00000100
00000000
00003100
00000000
00000000
00011000
00011000
00000000
,
10000000
01000000
00100000
00001000
00010000
00000100
00000010
00000000
,
00000001
00000010
00000100
00001000
00100000
10000000
01000000
00000000
,
10000000
01000000
00010000
00000100
00000001
00000100
00001000
00000000
,
00000001
00000000
00000000
00000100
00000000
00000000
00001000
00000000
00000000
00000000
00020000
00000000
00000000
00000000
00030000
00000000
,
00000100
00000000
00000010
00000000
00000001
00000000
00000000
00000100
00000000
00000000
00010000
00000000
01000000
00000000
00000000
00000000
,
00010000
00000000
00100000
00000000
01000000
00000000
00000000
00001000
00000000
00000000
00000100
00000000
00000010
00000000
00000000
00000000
,
00000000
00000000
00000002
00000000
00000000
00000000
00000103
00000000
00000010
00000000
00000000
00010000
00000000
00000000
00001000
00000000
,
00000000
01000000
00010000
01000000
00001000
00000100
00001000
00000000
,
00000100
00000000
00000001
00000000
00000010
00000000
00000000
00000100
00000000
00000000
00010000
00000000
01000000
00000000
00000000
00000000
,
10000000
00000000
00100000
00000000
01000000
00000000
00000000
00001000
00000000
00000000
00000100
00000000
00000001
00000000
00000000
00000000
,
00000000
00000000
00000020
00000000
00000000
00000000
00000130
00000000
00000010
00000000
00000000
00000001
00000000
00000000
00000100
00000000
,
00000000
00000010
00010000
00000010
00010000
00001000
01000000
01000000
,
00200000
00000000
00000000
02300000
00000000
00000000
03020000
00000000
,
00000000
00030020
00000000
00000000
00000032
00000000
00000203
00000000
,
00002300
00000000
00003000
01000000
00100000
00000000
10000000
00000000
,
01000000
00000000
00001000
00000000
00000010
00000000
00000100
00000010
,
00002000
00000000
00000000
00003200
00000000
00000000
00020300
00000000
,
00000000
00032000
00000000
00000000
02003000
00000000
03020000
00000000
,
20030000
00000000
31000000
00010000
00000000
00000100
00010000
00001000
,
00010000
00001000
00000000
00010000
00001000
00000000
00001000
00010000
00000000
00001000
00010000
00000000
00011000
00000000
00011000
00000000
,
00010000
00000100
00000001
00000000
00000010
00000000
00010000
00000000
,
00001000
01000000
10000000
00000000
00100000
00000000
00001000
00000000
,
01000000
00010000
00100000
00010000
01000000
00001000
00010000
00000100
,
00000010
00000000
00000000
00000001
00000000
00000000
00000100
00000000
00000010
00000000
00010000
00000000
00001000
00000000
00000000
00000000
,
00001000
00100000
10000000
00000000
01000000
00000000
00001000
00000000
,
00010000
00000010
00000001
00000000
00000100
00000000
00010000
00000000
,
00000100
00000010
00000001
00000100
00010000
00000100
00000010
00010000
,
01000000
00000000
00000000
10000000
00000000
00000000
00100000
00000000
01000000
00000000
00001000
00000000
00010000
00000000
00000100
00000000
,
00010000
01000000
10000000
00000000
00100000
00100000
00000000
01000000
,
00000000
00001000
00010000
00000000
00000100
00000100
00000000
00000010
,
00000000
00000001
00000100
00000000
00010000
00010000
00000000
10000000
,
00000000
01000000
00100000
00000000
00001000
00001000
00000000
01000000
,
00000000
00000000
00100000
00000000
10000000
00000000
01000000
00000000
00020000
00000000
00000000
00001000
00000000
00000000
00031000
00000000
,
00000000
00000000
00010000
00000000
00000010
00000000
00000100
00000000
00002000
00000000
00000000
00010000
00000000
00000000
00013000
00000000
,
00000000
00000000
00000001
00000000
00000100
00000000
00001000
00000000
00000200
00000000
00000000
00000010
00000000
00000000
00000310
00000000
,
00000000
00000000
00010000
00000000
00100000
00000000
10000000
00000000
00200000
00000000
00000000
01000000
00000000
00000000
01300000
00000000
;
